osu file format v14

[General]
AudioFilename: audio.mp3
AudioLeadIn: 0
PreviewTime: 58379
Countdown: 0
SampleSet: Soft
StackLeniency: 0.7
Mode: 0
LetterboxInBreaks: 0
WidescreenStoryboard: 0

[Editor]
Bookmarks: 59120,80219,91099,91263,115824,125055,127692,159340
DistanceSpacing: 2.8
BeatDivisor: 4
GridSize: 32
TimelineZoom: 1.5

[Metadata]
Title:Kimi no Kokoro wa Kagayaiteru kai?
TitleUnicode:君のこころは輝いてるかい?
Artist:Aqours
ArtistUnicode:Aqours
Creator:Pentori
Version:Sunshine
Source:Lovelive! Sunshine!!
Tags:SnowNiNo_ estellia- Emillia Bara- Baraatje123 ラブライブ!サンシャイン!! love live school idol project festival
BeatmapID:994934
BeatmapSetID:464706

[Difficulty]
HPDrainRate:7
CircleSize:4
OverallDifficulty:8.2
ApproachRate:9.2
SliderMultiplier:1.6
SliderTickRate:1

[Events]
//Background and Video events
0,0,"bg.jpg",0,0
//Break Periods
2,117142,121847
//Storyboard Layer 0 (Background)
//Storyboard Layer 1 (Fail)
//Storyboard Layer 2 (Pass)
//Storyboard Layer 3 (Foreground)
//Storyboard Sound Samples

[TimingPoints]
1099,329.67032967033,4,2,1,50,1,0
2418,-125,4,2,1,50,0,0
3736,-111.111111111111,4,2,1,60,0,0
14285,-100,4,2,1,70,0,0
24835,-125,4,2,1,60,0,0
30109,-111.111111111111,4,2,1,60,0,0
30439,-125,4,2,1,60,0,0
43296,-111.111111111111,4,2,1,60,0,0
44450,-90.9090909090909,4,2,1,60,0,0
45109,-76.9230769230769,4,2,1,60,0,0
45439,-76.9230769230769,4,2,1,5,0,0
45604,-100,4,2,1,60,0,0
45934,-142.857142857143,4,2,1,50,0,0
49725,-100,4,2,1,60,0,0
59120,-86.9565217391304,4,2,1,80,0,1
64560,-86.9565217391304,4,2,1,50,0,0
64725,-86.9565217391304,4,2,1,80,0,1
65879,-86.9565217391304,4,2,1,50,0,0
66044,-86.9565217391304,4,2,1,80,0,1
69340,-86.9565217391304,4,2,1,80,0,0
69670,-86.9565217391304,4,2,1,80,0,1
80219,-125,4,2,1,60,0,0
90769,-200,4,2,1,60,0,0
91099,-90.9090909090909,4,2,1,70,0,1
91263,-100,4,2,1,70,0,0
95219,-153.846153846154,4,2,1,70,0,0
95879,-90.9090909090909,4,2,1,70,0,0
96208,-100,4,2,1,70,0,0
97857,-153.846153846154,4,2,1,70,0,0
98516,-90.9090909090909,4,2,1,70,0,0
98846,-100,4,2,1,70,0,0
113022,-125,4,2,1,70,0,0
113846,-166.666666666667,4,2,1,50,0,0
122417,-125,4,2,1,60,0,0
126208,-100,4,2,1,60,0,0
127692,-86.9565217391304,4,2,1,80,0,1
133131,-86.9565217391304,4,2,1,50,0,0
133296,-86.9565217391304,4,2,1,80,0,1
134450,-86.9565217391304,4,2,1,50,0,0
134615,-86.9565217391304,4,2,1,80,0,1
137912,-86.9565217391304,4,2,1,80,0,0
138241,-86.9565217391304,4,2,1,80,0,1
143681,-86.9565217391304,4,2,1,50,0,0
143846,-86.9565217391304,4,2,1,80,0,1
145000,-86.9565217391304,4,2,1,50,0,0
145164,-86.9565217391304,4,2,1,80,0,1
148461,-86.9565217391304,4,2,1,80,0,0
148791,-86.9565217391304,4,2,1,80,0,1
159340,-86.9565217391304,4,2,1,70,0,0
176153,-100,4,2,1,60,0,0
177142,-111.111111111111,4,2,1,60,0,0
187033,674.157303370787,4,2,1,60,1,0
188381,666.666666666667,4,2,1,60,1,0
189714,714.285714285714,4,2,1,50,1,0
190428,1090.90909090909,4,2,1,50,1,0
191518,1176.47058823529,4,2,1,40,1,0

[Colours]
Combo1 : 199,31,81
Combo2 : 162,162,162
Combo3 : 0,89,198

[HitObjects]
416,240,2418,6,0,L|400:300,2,42.6666666666667,2|2|2,0:1|0:1|0:1,0:1:0:0:
359,161,2747,2,0,L|343:101,2,42.6666666666667,2|2|2,0:1|0:1|0:1,0:1:0:0:
488,184,3077,2,0,P|432:150|364:164,1,128,2|0,0:1|0:0,0:0:0:0:
124,256,3736,6,0,L|284:268,1,143.999995605469,4|0,0:0|0:0,0:0:0:0:
72,328,4395,2,0,P|36:264|72:184,1,143.999995605469
176,120,4890,2,0,L|16:108,2,143.999995605469,4|0|2,0:0|0:0|0:0,0:0:0:0:
340,100,5714,2,0,P|360:52|352:8,1,71.9999978027344,0|2,0:0|0:0,0:0:0:0:
272,160,6044,2,0,P|284:208|308:240,1,71.9999978027344
295,226,6291,1,0,0:0:0:0:
295,226,6373,6,0,L|140:216,1,143.999995605469,4|0,0:0|0:0,0:0:0:0:
112,384,6868,2,0,P|72:351|57:316,1,71.9999978027344
216,248,7197,2,0,P|239:293|239:331,1,71.9999978027344
124,236,7527,2,0,P|160:176|240:160,1,143.999995605469,4|2,0:0|0:0,0:0:0:0:
228,157,7939,1,0,0:0:0:0:
228,157,8022,1,2,0:0:0:0:
405,262,8186,2,0,B|350:273|350:273|253:249,1,143.999995605469
236,164,8681,1,2,0:0:0:0:
376,12,8846,1,0,0:0:0:0:
376,12,8928,1,0,0:0:0:0:
376,12,9011,5,4,0:0:0:0:
231,35,9175,1,0,0:0:0:0:
368,116,9340,2,0,L|448:128,1,71.9999978027344,2|0,0:0|0:0,0:0:0:0:
268,152,9670,2,0,L|188:164,1,71.9999978027344,2|0,0:0|0:0,0:0:0:0:
364,204,10000,1,2,0:0:0:0:
172,236,10164,6,0,P|132:204|120:172,1,71.9999978027344,12|0,0:0|0:0,0:0:0:0:
76,44,10494,1,2,0:0:0:0:
24,148,10659,1,2,0:0:0:0:
192,68,10824,2,0,B|264:48|264:88|340:64,1,143.999995605469,2|0,0:0|0:0,0:0:0:0:
232,160,11318,1,0,0:0:0:0:
132,16,11483,1,0,0:0:0:0:
128,220,11648,5,6,0:0:0:0:
232,160,11813,1,2,0:0:0:0:
52,112,11978,1,2,0:0:0:0:
256,164,12142,1,2,0:0:0:0:
128,48,12307,1,2,0:0:0:0:
208,232,12472,1,2,0:0:0:0:
224,72,12637,1,2,0:0:0:0:
112,280,12802,1,8,0:0:0:0:
104,296,13131,5,8,0:0:0:0:
224,72,13296,1,8,0:0:0:0:
96,168,13461,5,0,0:0:0:0:
288,116,13626,2,0,P|300:72|288:28,1,71.9999978027344
216,172,13956,1,8,0:0:0:0:
243,195,14038,1,0,0:0:0:0:
277,206,14120,1,0,0:0:0:0:
312,203,14203,1,0,0:0:0:0:
344,188,14285,6,0,P|396:196|428:224,1,80,4|0,0:0|0:0,0:0:0:0:
468,356,14615,2,0,P|474:313|476:264,1,80,8|0,0:0|0:0,0:0:0:0:
425,131,14945,2,0,P|419:174|417:223,1,80
288,320,15274,2,0,P|232:316|192:296,1,80,8|0,0:0|0:0,0:0:0:0:
148,100,15604,5,0,0:0:0:0:
104,220,15769,1,0,0:0:0:0:
252,104,15934,2,0,P|300:96|340:100,1,80,8|0,0:0|0:0,0:0:0:0:
200,232,16263,2,0,P|152:240|112:236,1,80
228,112,16593,1,8,0:0:0:0:
228,112,16758,1,0,0:0:0:0:
296,284,16923,6,0,P|294:334|288:388,1,80,2|0,0:0|0:0,0:0:0:0:
404,252,17252,1,8,0:0:0:0:
306,121,17417,2,0,P|263:111|207:115,1,80
344,188,17747,2,0,P|372:160|384:116,1,80,0|8,0:0|0:0,0:0:0:0:
264,24,18077,6,0,P|346:34|440:48,1,160,2|0,0:0|0:0,0:0:0:0:
508,192,18571,1,8,0:0:0:0:
306,121,18736,1,2,0:0:0:0:
292,112,19066,1,2,0:0:0:0:
280,104,19395,6,0,B|224:100|224:100|179:112|179:112|107:107,1,160,4|0,0:0|0:0,0:0:0:0:
240,180,19890,1,8,0:0:0:0:
162,32,20055,1,0,0:0:0:0:
300,105,20219,2,0,L|395:91,1,80
220,184,20549,2,0,L|125:198,1,80,8|0,0:0|0:0,0:0:0:0:
309,252,20879,6,0,P|331:180|278:86,1,160,2|8,0:0|0:0,0:0:0:0:
208,268,21373,1,2,0:0:0:0:
204,284,21703,1,2,0:0:0:0:
200,300,22033,6,0,L|388:308,1,160,4|0,0:0|0:0,0:0:0:0:
444,164,22527,1,8,0:0:0:0:
420,376,22692,2,0,P|452:312|412:232,1,160
284,280,23186,1,8,0:0:0:0:
444,164,23351,6,0,B|387:148|352:194|352:194|360:156|328:124,1,160,4|2,0:0|0:0,0:0:0:0:
324,116,23763,1,2,0:0:0:0:
300,113,23845,1,2,0:0:0:0:
276,111,23927,1,2,0:0:0:0:
252,109,24010,1,2,0:0:0:0:
228,106,24092,1,0,0:0:0:0:
204,104,24175,5,8,0:0:0:0:
78,284,24340,1,8,0:0:0:0:
279,211,24505,1,8,0:0:0:0:
460,304,24835,6,0,P|376:304|332:260,1,128,4|8,0:0|0:0,0:0:0:0:
364,152,25329,1,0,0:0:0:0:
216,216,25494,2,0,L|294:211,1,64
156,156,25824,1,8,0:0:0:0:
156,156,25989,6,0,P|132:212|156:276,1,128
272,288,26483,1,8,0:0:0:0:
192,344,26648,1,0,0:0:0:0:
316,364,26813,2,0,P|351:327|360:292,1,64
340,196,27142,2,0,L|416:212,1,64,8|0,0:0|0:0,0:0:0:0:
496,348,27472,6,0,L|484:276,1,64
402,209,27802,1,8,0:0:0:0:
508,104,27967,2,0,P|468:116|432:116,1,64
332,36,28296,2,0,P|373:43|405:59,1,64,0|8,0:0|0:0,0:0:0:0:
340,196,28626,6,0,P|264:212|208:196,1,128
120,92,29120,1,8,0:0:0:0:
208,124,29285,1,0,0:0:0:0:
56,132,29450,6,0,P|44:85|72:32,1,96,8|0,0:0|0:0,0:0:0:0:
83,26,29780,2,0,P|129:16|180:48,1,96,8|0,0:0|0:0,0:0:0:0:
120,92,30109,6,0,B|196:76|196:112|276:88,1,143.999995605469,4|8,0:0|0:0,0:0:0:0:
360,16,30604,1,0,0:0:0:0:
376,164,30769,2,0,P|356:132|344:96,1,64
476,148,31099,1,8,0:0:0:0:
368,256,31263,6,0,L|220:240,1,128
128,304,31758,2,0,P|111:263|113:228,1,64,8|0,0:0|0:0,0:0:0:0:
188,112,32088,2,0,P|192:156|180:188,1,64
48,128,32417,2,0,P|70:90|99:71,1,64,8|0,0:0|0:0,0:0:0:0:
280,112,32747,6,0,L|348:96,1,64,4|0,0:0|0:0,0:0:0:0:
440,192,33077,2,0,L|424:296,1,96,8|0,0:0|0:0,0:0:0:0:
408,300,33406,1,2,0:0:0:0:
328,208,33571,1,2,0:0:0:0:
296,320,33736,1,8,0:0:0:0:
360,92,33901,5,4,0:0:0:0:
40,172,34230,1,2,0:0:0:0:
140,240,34395,1,8,0:0:0:0:
152,120,34560,1,2,0:0:0:0:
24,180,34725,5,8,0:0:0:0:
360,92,35055,1,8,0:0:0:0:
372,312,35384,6,0,P|389:245|367:179,1,128,4|8,0:0|0:0,0:0:0:0:
276,248,35879,1,0,0:0:0:0:
216,128,36044,2,0,P|208:92|212:48,1,64,2|0,0:0|0:0,0:0:0:0:
320,32,36373,1,8,0:0:0:0:
292,172,36538,6,0,P|239:213|167:202,1,128
32,144,37033,2,0,P|80:140|116:152,1,64,8|0,0:0|0:0,0:0:0:0:
61,241,37362,1,0,0:0:0:0:
1,146,37527,1,0,0:0:0:0:
177,102,37692,1,8,0:0:0:0:
73,60,37857,1,0,0:0:0:0:
111,231,38022,6,0,P|103:191|111:147,1,64
204,324,38351,1,8,0:0:0:0:
264,188,38516,2,0,L|336:180,1,64
444,260,38846,2,0,L|372:268,1,64,0|8,0:0|0:0,0:0:0:0:
220,252,39175,6,0,P|188:184|216:128,1,128
316,84,39670,1,8,0:0:0:0:
192,60,39835,1,0,0:0:0:0:
336,160,40000,6,0,P|380:132|396:88,1,96,8|0,0:0|0:0,0:0:0:0:
392,56,40329,2,0,P|352:12|300:5,1,96,8|0,0:0|0:0,0:0:0:0:
192,60,40659,6,0,L|205:127,1,64,4|0,0:0|0:0,0:0:0:0:
140,216,40989,1,8,0:0:0:0:
288,244,41153,2,0,L|420:232,1,128
296,148,41648,1,8,0:0:0:0:
228,296,41813,1,0,0:0:0:0:
228,296,41895,1,0,0:0:0:0:
228,296,41978,6,0,P|210:258|214:216,1,64
308,340,42307,1,8,0:0:0:0:
415,255,42472,2,0,L|283:243,1,128
200,156,42967,2,0,P|154:175|134:202,1,64,8|0,0:0|0:0,0:0:0:0:
72,320,43296,6,0,L|60:168,1,143.999995605469,4|8,0:0|0:0,0:0:0:0:
192,68,43791,2,0,P|278:71|341:110,1,143.999995605469
428,36,44285,1,8,0:0:0:0:
440,188,44450,6,0,P|424:288|412:376,1,176.000005371094,4|8,0:0|0:0,0:0:0:0:
312,328,44945,1,8,0:0:0:0:
272,148,45109,6,0,P|176:145|206:268,1,259.999988098145,4|0,0:0|0:0,0:0:0:0:
223,199,45604,6,0,L|356:188,1,120
356,176,45934,6,0,P|356:116|324:76,1,111.999996582031
220,40,46428,1,0,0:0:0:0:
272,148,46593,2,0,L|204:144,1,55.9999982910157
108,204,46923,1,0,0:0:0:0:
60,92,47088,6,0,P|48:52|48:20,1,55.9999982910157,2|0,0:1|0:0,0:0:0:0:
140,124,47417,2,0,P|128:164|110:190,1,55.9999982910157
60,264,47747,2,0,L|-16:280,2,55.9999982910157,0|2|0,0:0|0:1|0:0,0:0:0:0:
144,316,48241,1,0,0:0:0:0:
228,280,48406,1,0,0:0:0:0:
328,356,48571,6,0,L|340:232,1,111.999996582031,2|0,0:1|0:0,0:0:0:0:
224,136,49066,1,0,0:0:0:0:
393,88,49230,2,0,L|380:131,1,27.9999991455078,8|0,0:0|0:0,0:0:0:0:
355,221,49395,1,2,0:0:0:0:
355,221,49478,1,2,0:0:0:0:
355,221,49560,1,2,0:0:0:0:
152,228,49725,6,0,L|138:61,1,160,4|0,0:0|0:0,0:0:0:0:
56,176,50219,1,8,0:0:0:0:
220,88,50384,2,0,B|300:62|300:105|379:82,1,160,4|8,0:0|0:0,0:0:0:0:
480,32,50879,1,8,0:0:0:0:
452,168,51044,1,8,0:0:0:0:
452,168,51126,1,0,0:0:0:0:
452,168,51208,6,0,P|448:228|444:272,1,80
364,336,51538,1,8,0:0:0:0:
320,208,51703,2,0,P|249:189|173:242,1,160,0|2,0:0|0:0,0:0:0:0:
260,284,52197,1,8,0:0:0:0:
200,116,52362,1,0,0:0:0:0:
200,116,52445,1,0,0:0:0:0:
200,116,52527,6,0,P|196:52|196:20,1,80
312,128,52857,1,8,0:0:0:0:
179,231,53022,2,0,P|128:236|83:231,1,80
8,160,53351,1,2,0:0:0:0:
108,320,53516,1,2,0:0:0:0:
208,224,53681,6,0,P|259:219|304:224,1,80,4|0,0:0|0:0,0:0:0:0:
400,328,54011,1,0,0:0:0:0:
456,188,54175,1,8,0:0:0:0:
304,204,54340,1,0,0:0:0:0:
468,268,54505,1,2,0:0:0:0:
432,96,54670,1,0,0:0:0:0:
356,264,54835,1,8,0:0:0:0:
488,176,55000,1,0,0:0:0:0:
340,116,55164,6,0,P|300:113|260:118,1,80,2|0,0:0|0:0,0:0:0:0:
172,232,55494,1,8,0:0:0:0:
120,100,55659,5,2,0:0:0:0:
488,176,55989,1,2,0:0:0:0:
174,311,56483,6,0,P|170:263|174:215,1,80,2|2,0:0|0:0,0:0:0:0:
308,180,56813,1,2,0:0:0:0:
196,120,56978,1,2,0:0:0:0:
276,292,57142,1,2,0:0:0:0:
388,136,57307,1,2,0:0:0:0:
172,232,57472,1,2,0:0:0:0:
412,276,57637,1,8,0:0:0:0:
436,284,57967,5,8,0:0:0:0:
172,232,58132,1,8,0:0:0:0:
20,232,58461,6,0,L|104:216,1,80,0|2,0:0|0:0,0:0:0:0:
303,266,58791,1,8,0:0:0:0:
307,238,58873,1,0,0:0:0:0:
312,210,58955,1,0,0:0:0:0:
317,183,59038,1,0,0:0:0:0:
321,155,59120,5,4,0:0:0:0:
176,68,59285,1,0,0:0:0:0:
220,280,59450,1,8,0:0:0:0:
240,152,59615,1,0,0:0:0:0:
156,324,59780,2,0,P|200:356|264:344,1,92.0000017547608,2|0,0:0|0:0,0:0:0:0:
352,248,60109,1,8,0:0:0:0:
200,148,60274,6,0,B|148:156|148:156|108:136|108:136|40:152|8:112,1,184.000003509522,2|2,0:0|0:0,0:0:0:0:
204,16,60769,1,8,0:0:0:0:
280,96,60934,1,0,0:0:0:0:
96,32,61099,1,2,0:0:0:0:
124,220,61263,1,2,0:0:0:0:
24,127,61428,1,8,0:0:0:0:
248,184,61593,1,0,0:0:0:0:
248,184,61675,1,0,0:0:0:0:
248,184,61758,6,0,P|306:191|360:196,1,92.0000017547608,2|0,0:0|0:0,0:0:0:0:
488,72,62088,1,8,0:0:0:0:
360,92,62252,1,0,0:0:0:0:
452,256,62417,2,0,P|472:204|472:144,1,92.0000017547608,2|2,0:0|0:0,0:0:0:0:
360,296,62747,1,8,0:0:0:0:
272,100,62912,6,0,P|232:92|160:108,1,92.0000017547608,4|0,0:0|0:0,0:0:0:0:
336,192,63241,1,2,0:0:0:0:
408,8,63406,1,8,0:0:0:0:
400,24,63736,6,0,B|424:176,1,138.000002632141,4|0,0:0|0:0,0:0:0:0:
336,192,64066,2,0,P|264:172|196:192,1,138.000002632141,8|0,0:0|0:0,0:0:0:0:
144,276,64395,1,2,0:0:0:0:
72,112,64560,2,0,L|137:84,1,46.0000008773804
236,32,64725,5,10,0:1:0:0:
344,327,65055,6,0,B|352:275|352:275|332:175,1,138.000002632141,2|0,0:0|0:0,0:0:0:0:
244,144,65384,2,0,P|296:94|367:92,1,138.000002632141,8|0,0:0|0:0,0:0:0:0:
440,164,65714,1,2,0:0:0:0:
236,160,65879,2,0,L|248:218,1,46.0000008773804
276,340,66044,5,10,0:1:0:0:
447,64,66373,6,0,L|347:92,1,92.0000017547608,2|2,0:0|0:0,0:0:0:0:
208,72,66703,1,8,0:0:0:0:
380,208,66868,1,2,0:0:0:0:
380,208,66950,1,2,0:0:0:0:
380,208,67033,5,2,0:0:0:0:
336,100,67197,1,0,0:0:0:0:
296,300,67362,1,8,0:0:0:0:
184,144,67527,2,0,P|128:128|68:160,1,92.0000017547608,2|8,0:0|0:0,0:0:0:0:
107,303,67857,2,0,P|128:250|136:194,1,92.0000017547608,2|8,0:0|0:0,0:0:0:0:
49,54,68186,6,0,P|150:32|241:68,1,184.000003509522,4|8,0:0|0:0,0:0:0:0:
376,208,68681,1,8,0:0:0:0:
132,192,68846,1,8,0:0:0:0:
360,176,69011,1,8,0:0:0:0:
116,224,69175,1,8,0:0:0:0:
291,123,69340,6,0,P|295:95|291:67,1,46.0000008773804,8|0,0:0|0:0,0:0:0:0:
211,186,69505,2,0,P|215:213|228:239,1,46.0000008773804,8|0,0:0|0:0,0:0:0:0:
312,300,69670,6,0,P|236:256|144:284,1,184.000003509522,4|8,0:0|0:0,0:0:0:0:
20,128,70164,1,0,0:0:0:0:
204,168,70329,2,0,P|280:140|312:124,1,92.0000017547608,2|2,0:0|0:0,0:0:0:0:
140,104,70659,1,8,0:0:0:0:
332,220,70824,6,0,P|380:148|344:60,1,184.000003509522,2|2,0:0|0:0,0:0:0:0:
160,96,71318,1,8,0:0:0:0:
268,12,71483,1,0,0:0:0:0:
216,228,71648,2,0,P|170:238|104:252,1,92.0000017547608,2|2,0:0|0:0,0:0:0:0:
292,312,71978,2,0,P|343:324|404:336,1,92.0000017547608,8|0,0:0|0:0,0:0:0:0:
456,304,72225,1,0,0:0:0:0:
456,304,72307,6,0,P|476:248|480:212,1,92.0000017547608,2|0,0:0|0:0,0:0:0:0:
320,120,72637,1,8,0:0:0:0:
144,220,72802,2,0,P|212:228|248:216,1,92.0000017547608,0|2,0:0|0:0,0:0:0:0:
432,112,73131,2,0,P|364:104|328:116,1,92.0000017547608,2|8,0:0|0:0,0:0:0:0:
124,312,73461,6,0,P|52:224|84:148,1,184.000003509522,4|2,0:0|0:0,0:0:0:0:
180,64,73956,1,8,0:0:0:0:
323,207,74120,2,0,B|271:210|271:210|236:225|236:225|199:215|199:215|135:220,1,184.000003509522,4|8,0:0|0:0,0:0:0:0:
176,368,74615,1,8,0:0:0:0:
235,148,74780,1,0,0:0:0:0:
235,148,74862,1,0,0:0:0:0:
235,148,74945,5,6,0:0:0:0:
124,220,75109,1,0,0:0:0:0:
216,56,75274,2,0,L|340:36,1,92.0000017547608,8|0,0:0|0:0,0:0:0:0:
408,192,75604,1,2,0:0:0:0:
428,84,75769,1,2,0:0:0:0:
284,144,75934,1,8,0:0:0:0:
495,167,76099,6,0,P|496:213|475:253,1,92.0000017547608,4|0,0:0|0:0,0:0:0:0:
284,336,76428,2,0,P|344:332|396:336,1,92.0000017547608,0|8,0:0|0:0,0:0:0:0:
408,192,76758,2,0,B|312:216|312:168|216:192,1,184.000003509522,4|8,0:0|0:0,0:0:0:0:
68,316,77252,1,8,0:0:0:0:
196,360,77417,1,2,0:0:0:0:
120,140,77582,5,4,0:0:0:0:
188,336,77747,1,2,0:0:0:0:
228,128,77912,5,2,0:0:0:0:
88,336,78077,1,2,0:0:0:0:
88,64,78241,5,2,0:0:0:0:
180,312,78406,1,2,0:0:0:0:
168,72,78571,5,2,0:0:0:0:
88,336,78736,1,8,0:0:0:0:
80,352,79066,5,8,0:0:0:0:
168,72,79230,1,8,0:0:0:0:
68,152,79395,5,0,0:0:0:0:
216,212,79560,2,0,P|265:196|308:180,1,92.0000017547608
432,236,79890,1,8,0:0:0:0:
312,340,80055,1,0,0:0:0:0:
312,340,80137,1,0,0:0:0:0:
312,340,80219,6,0,P|256:320|172:332,1,128,4|0,0:0|0:0,0:0:0:0:
80,360,80714,1,0,0:0:0:0:
136,248,80879,2,0,P|129:199|112:120,1,128,2|0,0:1|0:0,0:0:0:0:
40,52,81373,5,2,0:1:0:0:
244,96,81703,2,0,L|316:76,1,64,2|2,0:0|0:0,0:0:0:0:
388,156,82033,1,2,0:0:0:0:
232,173,82197,2,0,P|179:137|170:73,1,128,2|0,0:1|0:0,0:0:0:0:
396,168,82857,5,2,0:0:0:0:
264,332,83186,2,0,L|272:252,1,64,2|2,0:1|0:1,0:0:0:0:
232,173,83516,1,8,0:0:0:0:
344,256,83681,1,2,0:0:0:0:
196,292,83846,1,2,0:0:0:0:
324,176,84011,5,2,0:1:0:0:
121,87,84670,5,8,0:0:0:0:
271,110,84835,2,0,L|315:102,2,42.6666666666667,8|8|8,0:0|0:3|0:3,0:0:0:0:
225,32,85164,2,0,L|182:25,2,42.6666666666667,4|4|4,0:3|0:3|0:3,0:0:0:0:
356,168,85494,6,0,B|220:192,1,128,2|0,0:1|0:0,0:0:0:0:
164,292,85989,1,0,0:0:0:0:
292,236,86153,2,0,P|304:172|256:116,1,128,10|0,0:1|0:0,0:0:0:0:
104,173,86648,6,0,B|186:169|154:197|248:189,1,128,2|2,0:1|0:0,0:0:0:0:
229,190,87060,1,2,0:0:0:0:
229,190,87142,1,2,0:0:0:0:
320,68,87307,1,2,0:0:0:0:
440,184,87472,2,0,L|424:328,1,128,2|0,0:1|0:0,0:0:0:0:
204,344,88131,6,0,L|248:272,1,64,2|0,0:1|0:0,0:0:0:0:
216,164,88461,1,2,0:0:0:0:
332,128,88626,1,0,0:0:0:0:
304,248,88791,1,2,0:0:0:0:
196,164,88956,1,2,0:0:0:0:
363,197,89120,1,2,0:0:0:0:
156,248,89285,6,0,P|116:208|112:128,1,128,2|2,0:1|0:0,0:0:0:0:
236,16,89780,1,2,0:0:0:0:
196,164,89945,1,2,0:0:0:0:
88,56,90109,1,8,0:0:0:0:
260,100,90274,1,8,0:0:0:0:
36,136,90439,1,8,0:0:0:0:
264,192,90604,1,8,0:0:0:0:
60,288,90769,6,0,L|32:360,1,60
72,270,91099,6,0,B|151:249|192:306|260:268,1,176.000005371094,4|2,0:0|0:0,0:0:0:0:
280,152,91593,1,2,0:0:0:0:
320,336,91758,1,8,0:0:0:0:
356,132,91923,6,0,P|320:84|224:96,1,160,2|2,0:0|0:0,0:0:0:0:
184,208,92417,1,8,0:0:0:0:
376,160,92582,1,0,0:0:0:0:
376,160,92664,1,0,0:0:0:0:
376,160,92747,1,2,0:0:0:0:
296,64,92912,1,2,0:0:0:0:
496,148,93077,1,8,0:0:0:0:
396,236,93241,1,0,0:0:0:0:
400,48,93406,6,0,P|348:52|288:64,1,80,2|0,0:0|0:0,0:0:0:0:
248,144,93736,1,8,0:0:0:0:
337,289,93901,2,0,P|397:261|505:281,1,160,2|2,0:0|0:0,0:0:0:0:
384,368,94395,1,8,0:0:0:0:
240,236,94560,6,0,B|192:228|192:228|136:244|136:244|56:231,1,160,2|2,0:0|0:0,0:0:0:0:
200,316,95055,1,8,0:0:0:0:
123,155,95219,6,0,L|148:96,1,51.999997619629,2|0,0:0|0:0,0:0:0:0:
120,76,95549,2,0,L|176:46,1,51.999997619629,2|0,0:0|0:0,0:0:0:0:
167,12,95879,6,0,L|347:53,1,176.000005371094,4|2,0:0|0:0,0:0:0:0:
352,216,96373,1,8,0:0:0:0:
436,120,96538,1,0,0:0:0:0:
272,160,96703,1,0,0:0:0:0:
476,252,96868,1,2,0:0:0:0:
352,116,97033,1,8,0:0:0:0:
392,348,97197,1,2,0:0:0:0:
404,340,97527,5,2,0:0:0:0:
364,128,97692,1,8,0:0:0:0:
464,244,97857,6,0,L|400:260,1,51.999997619629,2|0,0:0|0:0,0:0:0:0:
428,220,98186,2,0,L|364:236,1,51.999997619629,2|8,0:0|0:0,0:0:0:0:
392,196,98516,6,0,L|220:239,1,176.000005371094,4|2,0:0|0:0,0:0:0:0:
96,152,99011,1,8,0:0:0:0:
24,260,99175,1,0,0:0:0:0:
187,162,99340,1,0,0:0:0:0:
36,88,99505,1,2,0:0:0:0:
112,296,99670,1,8,0:0:0:0:
160,48,99835,6,0,P|240:32|308:80,1,160,4|8,0:0|0:0,0:0:0:0:
322,185,100329,1,0,0:0:0:0:
204,299,100494,2,0,L|216:131,1,160,4|8,0:0|0:0,0:0:0:0:
302,72,100989,1,8,0:0:0:0:
464,209,101153,6,0,P|384:225|316:177,1,160,4|0,0:0|0:0,0:0:0:0:
212,108,101648,2,0,P|156:100|112:116,1,80,8|0,0:0|0:0,0:0:0:0:
32,220,101978,2,0,P|88:228|132:212,1,80,2|2,0:0|0:0,0:0:0:0:
192,296,102307,1,8,0:0:0:0:
242,110,102472,6,0,B|274:294,1,160,2|2,0:0|0:0,0:0:0:0:
408,336,102967,2,0,L|425:245,1,80,8|0,0:0|0:0,0:0:0:0:
340,80,103296,1,2,0:0:0:0:
444,156,103461,1,2,0:0:0:0:
216,184,103626,1,8,0:0:0:0:
244,48,103791,1,0,0:0:0:0:
332,256,103956,5,4,0:0:0:0:
200,180,104120,2,0,L|116:192,1,80,2|8,0:1|0:0,0:0:0:0:
49,351,104450,2,0,L|41:383,2,26.6666666666667,2|2|2,0:1|0:1|0:1,0:0:0:0:
58,320,104615,1,2,0:1:0:0:
168,276,104780,1,2,0:0:0:0:
8,232,104945,1,10,0:1:0:0:
200,180,105109,6,0,L|172:268,1,80,6|0,0:1|0:0,0:0:0:0:
92,148,105439,1,2,0:1:0:0:
238,77,105604,1,10,0:1:0:0:
288,224,105769,1,2,0:1:0:0:
292,240,106099,1,2,0:1:0:0:
296,256,106428,6,0,P|370:294|452:264,1,160,4|0,0:0|0:0,0:0:0:0:
512,136,106923,2,0,L|504:240,1,80,8|0,0:0|0:0,0:0:0:0:
376,184,107252,2,0,L|368:80,1,80,2|2,0:0|0:0,0:0:0:0:
476,28,107582,1,8,0:0:0:0:
304,16,107747,6,0,L|144:48,1,160,4|2,0:0|0:0,0:0:0:0:
180,204,108241,2,0,P|200:156|200:104,1,80,8|0,0:0|0:0,0:0:0:0:
72,272,108571,1,0,0:0:0:0:
144,344,108736,1,8,0:0:0:0:
108,132,108901,1,8,0:0:0:0:
180,204,109066,1,8,0:0:0:0:
336,100,109230,6,0,P|284:92|232:104,1,80,4|0,0:0|0:0,0:0:0:0:
180,204,109560,1,8,0:0:0:0:
360,176,109725,2,0,P|408:132|388:40,1,160,2|2,0:0|0:0,0:0:0:0:
260,16,110219,1,8,0:0:0:0:
344,192,110384,6,0,P|415:202|520:220,1,160,4|8,0:0|0:0,0:0:0:0:
416,112,110879,1,2,0:0:0:0:
368,292,111044,1,2,0:0:0:0:
368,292,111126,1,2,0:0:0:0:
368,292,111208,1,8,0:0:0:0:
224,88,111373,6,0,P|232:170|240:260,1,160,6|0,0:0|0:0,0:0:0:0:
99,340,111868,2,0,P|104:291|108:255,1,80,4|8,0:0|0:0,0:0:0:0:
204,160,112197,1,8,0:0:0:0:
7,161,112362,2,0,P|56:166|92:170,1,80,4|0,0:0|0:0,0:0:0:0:
236,320,112692,1,8,0:0:0:0:
204,160,112857,1,8,0:0:0:0:
452,236,113022,6,0,P|403:241|313:248,1,128,4|8,0:0|0:0,0:0:0:0:
284,148,113516,1,2,0:0:0:0:
332,52,113681,1,2,0:0:0:0:
176,80,113846,6,0,L|88:60,2,71.9999978027344,2|2|2,0:1|0:1|0:1,0:0:0:0:
256,152,114505,1,2,0:1:0:0:
336,80,115329,6,0,L|424:60,2,71.9999978027344,2|2|2,0:1|0:1|0:1,0:0:0:0:
196,198,122417,6,0,P|268:215|327:165,1,128,2|0,0:1|0:0,0:0:0:0:
98,84,123077,2,0,P|91:117|95:157,1,64,0|2,0:0|0:0,0:0:0:0:
92,147,123324,1,2,0:0:0:0:
92,147,123406,1,2,0:0:0:0:
248,136,123571,2,0,P|249:104|242:72,1,64,2|0,0:1|0:0,0:0:0:0:
196,198,123901,5,2,0:0:0:0:
333,158,124066,1,2,0:0:0:0:
167,110,124230,1,2,0:0:0:0:
209,278,124395,1,2,0:0:0:0:
242,72,124560,1,2,0:0:0:0:
349,296,124725,1,2,0:0:0:0:
382,90,124890,1,2,0:0:0:0:
183,303,125055,5,4,0:0:0:0:
186,222,126208,6,0,P|239:212|283:212,1,80,4|0,0:0|0:0,0:0:0:0:
373,298,126538,1,8,0:0:0:0:
317,120,126703,1,8,0:0:0:0:
425,199,126868,1,8,0:0:0:0:
236,289,127033,1,8,0:0:0:0:
251,81,127197,1,8,0:0:0:0:
373,298,127362,1,0,0:0:0:0:
339,309,127444,1,0,0:0:0:0:
303,311,127526,1,0,0:0:0:0:
268,304,127609,1,0,0:0:0:0:
236,289,127692,6,0,P|188:278|126:293,1,92.0000017547608,4|0,0:0|0:0,0:0:0:0:
39,229,128022,1,8,0:0:0:0:
169,138,128186,1,0,0:0:0:0:
169,138,128269,1,0,0:0:0:0:
169,138,128351,2,0,P|228:122|281:114,1,92.0000017547608
384,42,128681,1,8,0:0:0:0:
475,175,128846,6,0,P|383:153|310:211,1,184.000003509522,2|2,0:0|0:0,0:0:0:0:
333,338,129340,1,8,0:0:0:0:
406,256,129505,1,0,0:0:0:0:
245,283,129670,2,0,P|185:275|143:267,1,92.0000017547608,2|2,0:0|0:0,0:0:0:0:
15,175,130000,2,0,P|75:167|117:159,1,92.0000017547608,8|0,0:0|0:0,0:0:0:0:
173,122,130247,1,0,0:0:0:0:
173,122,130329,6,0,P|162:55|157:28,1,92.0000017547608,2|0,0:0|0:0,0:0:0:0:
291,137,130659,2,0,P|282:182|275:227,1,92.0000017547608,8|0,0:0|0:0,0:0:0:0:
386,133,130989,1,2,0:0:0:0:
251,24,131153,1,2,0:0:0:0:
273,245,131318,1,8,0:0:0:0:
407,118,131483,6,0,P|456:107|506:110,1,92.0000017547608,4|0,0:0|0:0,0:0:0:0:
372,224,131813,1,2,0:0:0:0:
268,36,131978,1,8,0:0:0:0:
292,340,132307,6,0,P|221:314|149:332,1,138.000002632141,4|0,0:0|0:0,0:0:0:0:
74,366,132637,2,0,P|88:291|100:223,1,138.000002632141,8|0,0:0|0:0,0:0:0:0:
70,141,132967,1,2,0:0:0:0:
220,50,133131,2,0,L|229:108,1,46.0000008773804
245,228,133296,5,10,0:1:0:0:
451,175,133626,6,0,P|383:157|303:174,1,138.000002632141,2|0,0:0|0:0,0:0:0:0:
245,228,133956,2,0,P|177:238|111:220,1,138.000002632141,8|0,0:0|0:0,0:0:0:0:
71,132,134285,1,2,0:0:0:0:
18,325,134450,2,0,L|92:308,1,46.0000008773804
196,280,134615,5,10,0:1:0:0:
106,40,134945,5,2,0:0:0:0:
226,151,135109,1,2,0:0:0:0:
68,201,135274,1,8,0:0:0:0:
191,64,135439,1,2,0:0:0:0:
191,64,135522,1,2,0:0:0:0:
191,64,135604,6,0,P|251:50|303:46,1,92.0000017547608,2|0,0:0|0:0,0:0:0:0:
447,90,135934,2,0,P|455:140|469:213,1,92.0000017547608,8|2,0:0|0:0,0:0:0:0:
325,337,136263,2,0,P|333:291|340:246,1,92.0000017547608,8|2,0:0|0:0,0:0:0:0:
474,207,136593,1,8,0:0:0:0:
328,152,136758,6,0,P|271:128|156:158,1,184.000003509522,4|0,0:0|0:0,0:0:0:0:
149,370,137252,1,8,0:0:0:0:
128,177,137417,1,8,0:0:0:0:
26,317,137582,5,8,0:0:0:0:
84,80,137747,1,8,0:0:0:0:
169,254,137912,5,8,0:0:0:0:
200,249,137994,1,0,0:0:0:0:
232,244,138076,1,0,0:0:0:0:
264,239,138159,1,0,0:0:0:0:
296,234,138241,6,0,P|361:244|413:251,1,92.0000017547608,4|0,0:0|0:0,0:0:0:0:
472,82,138571,2,0,P|426:88|380:95,1,92.0000017547608,8|0,0:0|0:0,0:0:0:0:
207,162,138901,2,0,P|221:98|226:47,1,92.0000017547608,8|0,0:0|0:0,0:0:0:0:
81,41,139230,1,8,0:0:0:0:
132,211,139395,6,0,P|234:198|318:237,1,184.000003509522,4|2,0:0|0:0,0:0:0:0:
356,336,139890,1,8,0:0:0:0:
436,176,140055,1,0,0:0:0:0:
436,176,140137,1,0,0:0:0:0:
436,176,140219,2,0,P|449:120|447:77,1,92.0000017547608
304,152,140549,1,8,0:0:0:0:
364,343,140714,1,0,0:0:0:0:
364,343,140796,1,0,0:0:0:0:
364,343,140879,6,0,P|428:328|472:316,1,92.0000017547608,2|0,0:0|0:0,0:0:0:0:
306,228,141208,2,0,P|242:243|198:255,1,92.0000017547608,8|0,0:0|0:0,0:0:0:0:
72,196,141538,1,2,0:0:0:0:
12,324,141703,1,2,0:0:0:0:
192,260,141868,1,8,0:0:0:0:
0,228,142033,6,0,P|-2:168|32:128,1,92.0000017547608,4|0,0:0|0:0,0:0:0:0:
192,68,142362,1,2,0:0:0:0:
192,260,142527,1,8,0:0:0:0:
216,252,142857,6,0,P|284:268|360:248,1,138.000002632141,4|0,0:0|0:0,0:0:0:0:
376,164,143186,2,0,P|424:201|435:280,1,138.000002632141,8|0,0:0|0:0,0:0:0:0:
372,343,143516,1,2,0:0:0:0:
376,164,143681,2,0,L|304:140,1,46.0000008773804
208,100,143846,5,10,0:1:0:0:
256,344,144175,6,0,P|276:264|256:208,1,138.000002632141,2|0,0:0|0:0,0:0:0:0:
176,168,144505,2,0,P|116:164|36:160,1,138.000002632141,8|0,0:0|0:0,0:0:0:0:
0,84,144835,1,2,0:0:0:0:
16,268,145000,2,0,L|84:272,1,46.0000008773804
196,276,145164,5,10,0:1:0:0:
376,60,145494,6,0,P|307:63|246:67,1,92.0000017547608
176,168,145824,1,8,0:0:0:0:
360,264,145989,1,0,0:0:0:0:
360,264,146071,1,0,0:0:0:0:
360,264,146153,6,0,P|428:267|490:271,1,92.0000017547608,2|0,0:0|0:0,0:0:0:0:
360,152,146483,1,8,0:0:0:0:
196,282,146648,2,0,P|192:334|196:378,1,92.0000017547608,2|8,0:0|0:0,0:0:0:0:
274,149,146978,2,0,P|278:97|274:53,1,92.0000017547608,2|8,0:0|0:0,0:0:0:0:
16,80,147307,6,0,P|120:56|180:104,1,184.000003509522,4|8,0:0|0:0,0:0:0:0:
152,232,147802,1,8,0:0:0:0:
276,96,147967,1,8,0:0:0:0:
88,144,148131,1,8,0:0:0:0:
232,276,148296,1,8,0:0:0:0:
224,36,148461,1,8,0:0:0:0:
251,20,148543,1,0,0:0:0:0:
283,17,148625,1,8,0:0:0:0:
313,27,148708,1,0,0:0:0:0:
337,48,148791,6,0,P|392:60|448:72,1,92.0000017547608,4|0,0:0|0:0,0:0:0:0:
512,196,149120,2,0,P|457:208|401:220,1,92.0000017547608,8|0,0:0|0:0,0:0:0:0:
329,364,149450,2,0,P|333:300|337:260,1,92.0000017547608,8|2,0:0|0:0,0:0:0:0:
184,344,149780,1,8,0:0:0:0:
261,204,149945,6,0,P|345:172|425:220,1,184.000003509522,4|2,0:0|0:0,0:0:0:0:
456,344,150439,1,8,0:0:0:0:
496,156,150604,1,2,0:0:0:0:
496,156,150686,1,0,0:0:0:0:
496,156,150769,2,0,P|504:96|508:52,1,92.0000017547608,8|2,0:0|0:0,0:0:0:0:
312,8,151099,2,0,P|316:53|323:99,1,92.0000017547608,8|0,0:0|0:0,0:0:0:0:
352,180,151346,1,0,0:0:0:0:
352,180,151428,6,0,P|288:200|248:200,1,92.0000017547608,2|0,0:0|0:0,0:0:0:0:
88,184,151758,1,8,0:0:0:0:
196,120,151923,2,0,P|212:64|212:16,1,92.0000017547608,0|2,0:0|0:0,0:0:0:0:
88,184,152252,2,0,P|91:229|105:273,1,92.0000017547608,2|8,0:0|0:0,0:0:0:0:
372,308,152582,6,0,P|292:272|184:308,1,184.000003509522,4|2,0:0|0:0,0:0:0:0:
264,164,153077,1,8,0:0:0:0:
428,219,153241,2,0,P|483:152|445:68,1,184.000003509522,4|2,0:0|0:0,0:0:0:0:
320,248,153736,1,8,0:0:0:0:
272,64,153901,1,2,0:0:0:0:
272,64,153983,1,2,0:0:0:0:
272,64,154066,5,6,0:0:0:0:
400,140,154230,1,0,0:0:0:0:
216,208,154395,2,0,P|172:196|120:188,1,92.0000017547608,8|0,0:0|0:0,0:0:0:0:
8,328,154725,2,0,P|52:315|97:308,1,92.0000017547608,2|2,0:0|0:0,0:0:0:0:
240,364,155055,1,8,0:0:0:0:
126,188,155219,6,0,P|90:128|74:100,1,92.0000017547608,4|0,0:0|0:0,0:0:0:0:
260,32,155549,1,0,0:0:0:0:
212,220,155714,1,8,0:0:0:0:
72,88,155879,2,0,P|172:103|276:120,1,184.000003509522,4|8,0:0|0:0,0:0:0:0:
352,240,156373,1,8,0:0:0:0:
507,111,156538,1,2,0:0:0:0:
318,42,156703,5,4,0:0:0:0:
449,232,156868,1,2,0:0:0:0:
433,4,157033,5,2,0:0:0:0:
339,263,157197,1,2,0:0:0:0:
500,132,157362,5,2,0:0:0:0:
253,116,157527,1,2,0:0:0:0:
363,338,157692,5,2,0:0:0:0:
384,88,157857,1,8,0:0:0:0:
395,74,158186,5,8,0:0:0:0:
363,338,158350,1,8,0:0:0:0:
444,204,158516,5,0,0:0:0:0:
272,240,158681,2,0,P|216:228|160:220,1,92.0000017547608
56,296,159011,1,0,0:0:0:0:
96,172,159175,1,0,0:0:0:0:
96,172,159258,1,0,0:0:0:0:
96,172,159340,6,0,P|112:96|112:64,1,92.0000017547608
264,32,159670,1,0,0:0:0:0:
256,192,159752,12,2,160659,0:0:0:0:
256,192,160824,5,8,0:0:0:0:
226,163,160906,1,8,0:0:0:0:
188,148,160988,1,8,0:0:0:0:
147,151,161071,1,8,0:0:0:0:
110,169,161153,2,0,L|96:224,1,46.0000008773804,2|0,0:0|0:0,0:0:0:0:
80,348,161318,5,8,0:0:0:0:
112,345,161400,1,8,0:0:0:0:
144,342,161482,1,8,0:0:0:0:
176,339,161565,1,8,0:0:0:0:
208,337,161648,2,0,L|272:360,1,46.0000008773804,2|0,0:0|0:0,0:0:0:0:
384,288,161813,2,0,L|320:265,1,46.0000008773804,2|0,0:0|0:0,0:0:0:0:
256,192,161978,6,0,P|264:128|264:68,1,92.0000017547608,4|0,0:0|0:0,0:0:0:0:
110,169,162307,1,8,0:0:0:0:
232,280,162472,1,0,0:0:0:0:
351,160,162637,2,0,P|399:156|455:160,1,92.0000017547608,2|2,0:0|0:0,0:0:0:0:
475,260,162967,1,8,0:0:0:0:
294,221,163131,6,0,P|270:137|335:78,1,184.000003509522,2|2,0:0|0:0,0:0:0:0:
475,260,163626,2,0,P|411:264|371:264,1,92.0000017547608,8|0,0:0|0:0,0:0:0:0:
216,360,163956,1,2,0:0:0:0:
148,272,164120,1,2,0:0:0:0:
328,340,164285,1,8,0:0:0:0:
294,221,164450,1,0,0:0:0:0:
96,332,164615,6,0,P|72:280|84:228,1,92.0000017547608,2|2,0:0|0:0,0:0:0:0:
200,116,164945,2,0,P|288:100|320:92,1,92.0000017547608,8|0,0:0|0:0,0:0:0:0:
128,36,165274,1,2,0:0:0:0:
148,208,165439,1,2,0:0:0:0:
290,99,165604,1,8,0:0:0:0:
372,308,165769,6,0,P|284:292|252:284,1,92.0000017547608,4|0,0:0|0:0,0:0:0:0:
148,208,166099,1,2,0:0:0:0:
184,362,166263,1,8,0:0:0:0:
248,172,166428,1,0,0:0:0:0:
281,291,166593,1,2,0:0:0:0:
349,117,166758,1,0,0:0:0:0:
384,216,166923,1,8,0:0:0:0:
464,24,167088,1,0,0:0:0:0:
464,24,167170,1,0,0:0:0:0:
464,24,167252,6,0,P|460:96|460:136,1,92.0000017547608,4|0,0:0|0:0,0:0:0:0:
500,256,167582,1,8,0:0:0:0:
384,216,167747,1,0,0:0:0:0:
512,176,167912,1,2,0:0:0:0:
356,228,168077,1,2,0:0:0:0:
484,332,168241,1,8,0:0:0:0:
308,300,168406,6,0,P|268:224|320:148,1,184.000003509522
445,249,168901,2,0,P|401:237|341:225,1,92.0000017547608,8|0,0:0|0:0,0:0:0:0:
200,140,169230,2,0,P|154:149|110:161,1,92.0000017547608,2|2,0:0|0:0,0:0:0:0:
24,100,169560,1,8,0:0:0:0:
40,256,169725,1,0,0:0:0:0:
200,140,169890,6,0,B|292:120|292:164|392:140,1,184.000003509522,4|8,0:0|0:0,0:0:0:0:
512,96,170384,1,0,0:0:0:0:
380,36,170549,1,2,0:0:0:0:
448,188,170714,1,2,0:0:0:0:
480,16,170879,1,8,0:0:0:0:
444,212,171044,5,4,0:0:0:0:
320,100,171208,1,0,0:0:0:0:
288,264,171373,1,2,0:0:0:0:
400,132,171538,1,8,0:0:0:0:
212,196,171703,1,0,0:0:0:0:
364,332,171868,1,8,0:0:0:0:
344,208,172033,1,8,0:0:0:0:
248,336,172197,1,8,0:0:0:0:
416,248,172362,6,0,P|407:157|320:130,1,184.000003509522,4|2,0:0|0:0,0:0:0:0:
160,296,172857,2,0,B|132:232|180:188|152:112,2,184.000003509522,8|2|8,0:0|0:0|0:0,0:0:0:0:
268,352,173681,1,0,0:0:0:0:
344,208,173846,6,0,P|412:188|500:212,1,138.000002632141,4|0,0:0|0:0,0:0:0:0:
496,224,174175,1,8,0:0:0:0:
300,328,174340,1,2,0:0:0:0:
284,340,174670,1,2,0:0:0:0:
264,352,175000,6,0,P|251:254|240:160,1,184.000003509522,4|2,0:0|0:0,0:0:0:0:
292,56,175494,1,8,0:0:0:0:
404,202,175659,2,0,P|312:218|229:147,1,184.000003509522,8|8,0:0|0:0,0:0:0:0:
160,76,176153,2,0,P|71:59|18:93,1,120,2|0,0:0|0:0,0:0:0:0:
32,88,176483,5,4,0:0:0:0:
224,280,177142,6,0,P|300:256|380:300,1,143.999995605469
464,64,177802,6,0,P|456:148|448:220,1,143.999995605469,4|0,0:0|0:0,0:0:0:0:
224,280,178461,2,0,P|216:208|209:136,1,143.999995605469
136,72,178956,2,0,P|72:60|-4:96,2,143.999995605469,4|0|2,0:0|0:0|0:0,0:0:0:0:
209,136,179780,2,0,P|265:128|313:120,1,71.9999978027344,0|2,0:0|0:0,0:0:0:0:
376,228,180109,2,0,P|320:220|272:212,1,71.9999978027344,2|0,0:0|0:0,0:0:0:0:
277,216,180357,1,0,0:0:0:0:
277,216,180439,6,0,P|281:288|285:360,1,143.999995605469,4|0,0:0|0:0,0:0:0:0:
484,312,180934,2,0,P|487:261|489:231,1,71.9999978027344
396,136,181263,2,0,P|398:171|400:207,1,71.9999978027344
468,104,181593,2,0,P|412:60|340:80,1,143.999995605469,4|0,0:0|0:0,0:0:0:0:
272,164,182088,1,0,0:0:0:0:
220,52,182252,2,0,P|148:60|68:68,1,143.999995605469,2|2,0:0|0:0,0:0:0:0:
28,164,182747,1,2,0:0:0:0:
20,180,183077,5,4,0:0:0:0:
112,312,183406,2,0,P|124:240|136:168,1,143.999995605469
260,60,184066,1,2,0:0:0:0:
260,60,184230,6,0,P|356:52|408:68,1,143.999995605469,4|2,0:0|0:0,0:0:0:0:
464,144,184725,1,0,0:0:0:0:
392,216,184890,2,0,P|397:290|404:376,1,143.999995605469
270,340,185384,2,0,P|273:296|278:244,1,71.9999978027344
284,168,185714,6,0,P|216:152|136:168,1,143.999995605469,4|0,0:0|0:0,0:0:0:0:
88,228,186208,2,0,L|116:80,1,143.999995605469
168,24,186703,1,2,0:0:0:0:
184,12,187033,5,4,0:0:0:0:
206,189,188381,6,0,P|269:156|234:252,1,240,2|0,0:1|0:0,0:0:0:0:
180,105,189714,6,0,P|254:81|329:107,1,160,2|2,0:1|0:1,0:1:0:0:
337,281,191518,5,2,0:1:0:0:
256,192,191665,12,0,196223,0:0:0:0:
