osu file format v14

[General]
AudioFilename: audio.mp3
AudioLeadIn: 0
PreviewTime: 58379
Countdown: 0
SampleSet: Soft
StackLeniency: 0.7
Mode: 0
LetterboxInBreaks: 0
WidescreenStoryboard: 0

[Editor]
Bookmarks: 59120,80219,91099,91263,115824,125055,127692,159340
DistanceSpacing: 0.9
BeatDivisor: 4
GridSize: 32
TimelineZoom: 0.8999999

[Metadata]
Title:Kimi no Kokoro wa Kagayaiteru kai?
TitleUnicode:君のこころは輝いてるかい?
Artist:Aqours
ArtistUnicode:Aqours
Creator:Pentori
Version:Normal
Source:Lovelive! Sunshine!!
Tags:SnowNiNo_ estellia- Emillia Bara- Baraatje123 ラブライブ!サンシャイン!! love live school idol project festival
BeatmapID:999713
BeatmapSetID:464706

[Difficulty]
HPDrainRate:4
CircleSize:3
OverallDifficulty:4
ApproachRate:5
SliderMultiplier:1.1
SliderTickRate:1

[Events]
//Background and Video events
0,0,"bg.jpg",0,0
//Break Periods
2,117142,122701
//Storyboard Layer 0 (Background)
//Storyboard Layer 1 (Fail)
//Storyboard Layer 2 (Pass)
//Storyboard Layer 3 (Foreground)
//Storyboard Sound Samples

[TimingPoints]
1099,329.67032967033,4,2,1,50,1,0
3736,-100,4,2,1,60,0,0
14285,-100,4,2,1,70,0,0
24835,-100,4,2,1,60,0,0
45439,-100,4,2,1,5,0,0
45604,-100,4,2,1,60,0,0
45934,-100,4,2,1,50,0,0
49725,-100,4,2,1,60,0,0
59120,-100,4,2,1,80,0,1
64560,-100,4,2,1,50,0,0
64725,-100,4,2,1,80,0,1
65879,-100,4,2,1,50,0,0
66044,-100,4,2,1,80,0,1
69340,-100,4,2,1,80,0,0
69670,-100,4,2,1,80,0,1
80219,-100,4,2,1,60,0,0
91099,-100,4,2,1,70,0,1
91263,-100,4,2,1,70,0,0
113846,-100,4,2,1,50,0,0
123901,-100,4,2,1,10,0,0
125055,-100,4,2,1,60,0,0
127692,-100,4,2,1,80,0,1
133131,-100,4,2,1,50,0,0
133296,-100,4,2,1,80,0,1
134450,-100,4,2,1,50,0,0
134615,-100,4,2,1,80,0,1
137912,-100,4,2,1,80,0,0
138241,-100,4,2,1,80,0,1
143681,-100,4,2,1,50,0,0
143846,-100,4,2,1,80,0,1
145000,-100,4,2,1,50,0,0
145164,-100,4,2,1,80,0,1
148461,-100,4,2,1,80,0,0
148791,-100,4,2,1,80,0,1
159340,-100,4,2,1,70,0,0
176153,-100,4,2,1,60,0,0
187033,674.157303370787,4,2,1,60,1,0
187370,-50,4,2,1,60,0,0
188381,666.666666666667,4,2,1,60,1,0
188881,-100,4,2,1,60,0,0
189714,714.285714285714,4,2,1,50,1,0
190428,1090.90909090909,4,2,1,50,1,0
191518,1176.47058823529,4,2,1,40,1,0

[Colours]
Combo1 : 199,31,81
Combo2 : 162,162,162
Combo3 : 0,89,198

[HitObjects]
256,192,1428,12,0,3077,0:0:0:0:
416,288,3736,6,0,P|358:280|288:272,1,110,4|0,0:0|0:0,0:0:0:0:
232,212,4395,2,0,P|177:218|122:225,1,110,0|0,0:0|0:0,0:0:0:0:
92,264,4890,2,0,P|80:316|92:376,2,110,4|0|2,0:0|0:0|0:0,0:0:0:0:
122,225,5714,2,0,P|131:171|119:117,1,110,0|0,0:0|0:0,0:0:0:0:
39,59,6373,6,0,P|87:23|160:29,1,110,4|0,0:0|0:0,0:0:0:0:
180,41,6868,2,0,P|228:64|282:57,1,110,0|0,0:0|0:0,0:0:0:0:
377,26,7527,2,0,P|372:88|367:157,1,110,4|2,0:0|0:0,0:0:0:0:
396,176,8022,1,2,0:0:0:0:
424,216,8186,2,0,P|429:278|434:347,2,110,0|0|0,0:0|0:0|0:0,0:0:0:0:
396,176,9011,6,0,P|336:168|272:180,1,110,4|2,0:0|0:0,0:0:0:0:
222,249,9670,2,0,P|167:256|113:248,1,110,2|2,0:0|0:0,0:0:0:0:
76,216,10164,2,0,B|80:144|84:96,1,110,12|2,0:0|0:0,0:0:0:0:
120,72,10659,1,2,0:0:0:0:
156,40,10824,2,0,B|228:32|228:32|276:48,1,110,2|0,0:0|0:0,0:0:0:0:
308,68,11318,1,0,0:0:0:0:
318,166,11648,6,0,B|353:177|353:177|425:169,1,110,6|2,0:0|0:0,0:0:0:0:
472,152,12142,2,0,P|470:239|468:328,1,165,2|2,0:0|0:0,0:0:0:0:
436,352,12802,1,8,0:0:0:0:
344,316,13131,2,0,P|312:316|272:312,1,55,8|8,0:0|0:0,0:0:0:0:
224,244,13626,2,0,P|176:248|96:272,1,110,0|8,0:0|0:0,0:0:0:0:
29,216,14285,5,4,0:0:0:0:
84,132,14615,2,0,P|34:116|-29:134,2,110,8|0|8,0:0|0:0|0:0,0:0:0:0:
128,152,15439,2,0,P|180:164|244:156,1,110,0|0,0:0|0:0,0:0:0:0:
278,132,15934,2,0,P|286:48|286:4,2,110,8|0|8,0:0|0:0|0:0,0:0:0:0:
276,232,16923,6,0,P|342:228|400:224,1,110,2|8,0:0|0:0,0:0:0:0:
420,188,17417,2,0,P|424:124|424:72,1,110,0|0,0:0|0:0,0:0:0:0:
512,128,18077,2,0,P|508:192|511:301,1,165,2|8,0:0|0:0,0:0:0:0:
484,336,18736,1,2,0:0:0:0:
388,308,19066,1,2,0:0:0:0:
294,339,19395,6,0,P|238:343|174:335,1,110,4|0,0:0|0:0,0:0:0:0:
146,307,19890,2,0,P|134:255|162:183,2,110,8|0|8,0:0|0:0|0:0,0:0:0:0:
230,255,20879,2,0,P|246:199|219:135,1,110,2|8,0:0|0:0,0:0:0:0:
198,114,21373,1,2,0:0:0:0:
281,60,21703,1,2,0:0:0:0:
324,148,22033,6,0,P|384:160|440:148,1,110,4|0,0:0|0:0,0:0:0:0:
476,128,22527,1,8,0:0:0:0:
476,128,22692,2,0,P|472:192|468:256,1,110,0|0,0:0|0:0,0:0:0:0:
442,279,23186,1,8,0:0:0:0:
442,279,23351,2,0,B|368:271|368:271|297:286|297:286|224:279,1,220,4|2,0:0|0:0,0:0:0:0:
183,307,24175,2,0,L|194:366,2,55,8|8|8,0:0|0:0|0:0,0:0:0:0:
168,208,24835,6,0,P|176:148|184:88,1,110,4|8,0:0|0:0,0:0:0:0:
276,72,25494,2,0,L|286:3,2,55,0|0|8,0:0|0:0|0:0,0:0:0:0:
300,116,25989,2,0,P|368:128|424:116,1,110,0|0,0:0|0:0,0:0:0:0:
450,96,26483,1,8,0:0:0:0:
488,188,26813,2,0,P|480:272|476:304,1,110,0|8,0:0|0:0,0:0:0:0:
396,356,27472,6,0,B|348:332|280:340,1,110,0|8,0:0|0:0,0:0:0:0:
240,352,27967,2,0,P|232:296|240:236,1,110,0|0,0:0|0:0,0:0:0:0:
296,164,28626,2,0,P|228:147|177:169,1,110,0|0,0:0|0:0,0:0:0:0:
156,192,29120,1,8,0:0:0:0:
70,142,29449,1,8,0:0:0:0:
90,45,29779,1,8,0:0:0:0:
189,35,30109,6,0,P|248:40|304:48,1,110,4|8,0:0|0:0,0:0:0:0:
396,72,30769,2,0,B|452:24,2,55,0|0|8,0:0|0:0|0:0,0:0:0:0:
364,108,31263,2,0,P|365:168|368:225,1,110,0|0,0:0|0:0,0:0:0:0:
392,260,31758,2,0,P|452:252|516:264,2,110,8|0|8,0:0|0:0|0:0,0:0:0:0:
308,312,32747,6,0,P|248:320|184:308,1,110,4|8,0:0|0:0,0:0:0:0:
128,244,33406,2,0,L|143:122,1,110,2|8,0:0|0:0,0:0:0:0:
172,96,33901,1,4,0:0:0:0:
248,160,34230,2,0,L|239:236,2,55,2|8|2,0:0|0:0|0:0,0:0:0:0:
280,120,34725,2,0,P|340:112|400:128,1,110,8|8,0:0|0:0,0:0:0:0:
460,188,35384,6,0,P|462:254|460:308,2,110,4|8|2,0:0|0:0|0:0,0:0:0:0:
484,144,36208,1,0,0:0:0:0:
387,122,36538,2,0,P|333:111|279:119,1,110,0|0,0:0|0:0,0:0:0:0:
249,158,37033,1,8,0:0:0:0:
184,232,37362,2,0,P|154:180|160:116,1,110,0|8,0:0|0:0,0:0:0:0:
206,45,38022,6,0,P|149:33|90:59,1,110,0|8,0:0|0:0,0:0:0:0:
69,87,38516,2,0,P|65:147|61:207,1,110,0|0,0:0|0:0,0:0:0:0:
100,288,39175,2,0,P|184:316|272:280,1,165,0|8,0:0|0:0,0:0:0:0:
321,220,40000,1,8,0:0:0:0:
410,262,40329,1,8,0:0:0:0:
476,188,40659,6,0,P|480:132|468:72,1,110,4|8,0:0|0:0,0:0:0:0:
452,33,41153,2,0,B|344:53|344:53|288:45,1,165,0|8,0:0|0:0,0:0:0:0:
193,17,41978,2,0,L|73:39,1,110,0|8,0:0|0:0,0:0:0:0:
55,77,42472,2,0,B|47:131|47:131|67:239,1,165,0|8,0:0|0:0,0:0:0:0:
164,259,43296,6,0,L|141:140,1,110,4|8,0:0|0:0,0:0:0:0:
168,108,43791,2,0,P|232:96|292:104,1,110,0|0,0:0|0:0,0:0:0:0:
316,128,44285,1,8,0:0:0:0:
316,128,44450,2,0,P|370:131|424:120,1,110,4|8,0:0|0:0,0:0:0:0:
460,88,44945,1,8,0:0:0:0:
460,88,45109,2,0,P|456:168|448:256,1,165,4|0,0:0|0:0,0:0:0:0:
376,320,45934,6,0,P|309:336|211:298,1,165,0|0,0:0|0:0,0:0:0:0:
195,263,46593,2,0,P|141:260|92:288,1,110,0|0,0:0|0:0,0:0:0:0:
47,305,47088,2,0,P|55:237|62:175,1,110,2|0,0:1|0:0,0:0:0:0:
97,163,47582,1,0,0:0:0:0:
186,121,47912,2,0,L|254:137,1,55,2|0,0:1|0:0,0:0:0:0:
285,115,48241,1,0,0:0:0:0:
381,90,48571,6,0,P|385:162|393:238,1,110,2|0,0:1|0:0,0:0:0:0:
402,247,49066,2,0,P|350:235|278:259,1,110,0|2,0:0|0:0,0:0:0:0:
254,275,49560,1,2,0:0:0:0:
254,275,49725,2,0,P|254:191|250:139,1,110,4|0,0:0|0:0,0:0:0:0:
229,121,50219,1,8,0:0:0:0:
229,121,50384,2,0,P|145:101|65:117,1,165,4|8,0:0|0:0,0:0:0:0:
36,153,51044,1,8,0:0:0:0:
36,153,51208,6,0,P|33:207|34:262,1,110,0|8,0:0|0:0,0:0:0:0:
67,299,51703,1,0,0:0:0:0:
206,248,52197,2,0,L|258:288,1,55,8|0,0:0|0:0,0:0:0:0:
290,310,52527,2,0,P|354:287|384:255,1,110,0|8,0:0|0:0,0:0:0:0:
429,241,53022,2,0,P|433:161|433:97,1,110,0|2,0:0|0:0,0:0:0:0:
401,93,53516,1,2,0:0:0:0:
401,93,53681,6,0,P|345:81|277:97,1,110,4|0,0:0|0:0,0:0:0:0:
258,124,54175,2,0,P|254:44|254:-20,2,110,8|2|8,0:0|0:0|0:0,0:0:0:0:
240,221,55164,2,0,P|186:229|132:217,1,110,2|8,0:0|0:0,0:0:0:0:
107,174,55659,1,2,0:0:0:0:
116,75,55989,1,2,0:0:0:0:
264,72,56483,6,0,B|320:64|320:64|384:76,2,110,2|2|2,0:0|0:0|0:0,0:0:0:0:
224,100,57307,1,2,0:0:0:0:
188,136,57472,2,0,L|192:208,1,55,2|8,0:0|0:0,0:0:0:0:
284,228,57967,2,0,L|287:173,1,55,8|8,0:0|0:0,0:0:0:0:
380,208,58461,2,0,L|360:332,1,110,0|8,0:0|0:0,0:0:0:0:
272,356,59120,6,0,P|212:360|148:348,1,110,4|8,0:0|0:0,0:0:0:0:
124,324,59615,1,0,0:0:0:0:
88,292,59780,2,0,P|96:212|100:168,1,110,2|8,0:0|0:0,0:0:0:0:
120,140,60274,2,0,B|204:124|204:156|288:140,1,165,2|8,0:0|0:0,0:0:0:0:
368,196,61099,2,0,P|384:138|359:73,1,110,2|8,0:0|0:0,0:0:0:0:
340,56,61593,1,0,0:0:0:0:
296,32,61758,6,0,L|168:40,1,110,2|8,0:0|0:0,0:0:0:0:
148,128,62417,2,0,L|38:121,1,110,2|8,0:0|0:0,0:0:0:0:
0,148,62912,1,4,0:0:0:0:
36,240,63241,2,0,L|32:316,1,55,2|8,0:0|0:0,0:0:0:0:
108,360,63736,6,0,P|168:364|236:360,2,110,4|8|2,0:0|0:0|0:0,0:0:0:0:
33,294,64725,1,10,0:1:0:0:
88,212,65055,2,0,P|92:152|88:80,2,110,2|8|2,0:0|0:0|0:0,0:0:0:0:
168,272,66044,1,10,0:1:0:0:
252,220,66373,2,0,P|312:212|372:224,1,110,2|8,0:0|0:0,0:0:0:0:
408,236,66868,1,2,0:0:0:0:
444,268,67033,6,0,L|448:148,1,110,2|8,0:0|0:0,0:0:0:0:
424,116,67527,2,0,P|352:96|308:104,1,110,2|2,0:0|0:0,0:0:0:0:
272,120,68022,1,8,0:0:0:0:
224,136,68186,2,0,P|169:139|118:120,1,110,4|8,0:0|0:0,0:0:0:0:
84,84,68681,2,0,P|81:144|80:204,2,110,8|8|8,0:0|0:0|0:0,0:0:0:0:
164,24,69670,6,0,L|284:36,1,110,4|8,0:0|0:0,0:0:0:0:
324,120,70329,2,0,L|433:109,1,110,2|8,0:0|0:0,0:0:0:0:
480,124,70824,2,0,P|476:208|476:260,1,110,2|2,0:0|0:0,0:0:0:0:
444,272,71318,1,8,0:0:0:0:
356,316,71648,2,0,P|264:308|224:304,1,110,2|8,0:0|0:0,0:0:0:0:
172,240,72307,6,0,P|117:245|62:249,1,110,2|8,0:0|0:0,0:0:0:0:
20,272,72802,2,0,L|32:160,1,110,0|2,0:0|0:0,0:0:0:0:
60,124,73296,1,8,0:0:0:0:
96,88,73461,2,0,B|155:73|196:108|196:108|228:92|240:64,1,165,4|8,0:0|0:0,0:0:0:0:
272,32,74120,2,0,P|332:24|396:40,1,110,4|8,0:0|0:0,0:0:0:0:
412,72,74615,1,8,0:0:0:0:
380,168,74945,5,6,0:0:0:0:
420,260,75274,2,0,P|357:266|296:221,1,110,8|2,0:0|0:0,0:0:0:0:
232,196,75934,1,8,0:0:0:0:
192,168,76099,2,0,P|138:160|88:182,2,110,4|0|4,0:0|0:0|0:0,0:0:0:0:
316,245,77252,2,0,L|312:308,1,55,8|2,0:0|0:0,0:0:0:0:
308,348,77582,6,0,P|372:344|436:352,1,110,4|2,0:0|0:0,0:0:0:0:
456,320,78077,1,2,0:0:0:0:
492,288,78241,2,0,P|500:220|488:176,1,110,2|2,0:0|0:0,0:0:0:0:
460,140,78736,1,8,0:0:0:0:
372,96,79066,2,0,L|304:108,1,55,8|8,0:0|0:0,0:0:0:0:
248,176,79560,2,0,P|192:160|139:156,1,110,0|8,0:0|0:0,0:0:0:0:
52,200,80219,6,0,P|44:296|40:336,1,110,4|0,0:0|0:0,0:0:0:0:
132,352,80879,2,0,P|220:344|252:344,1,110,2|0,0:1|0:0,0:0:0:0:
280,312,81373,1,2,0:1:0:0:
380,316,81703,2,0,L|372:376,2,55,2|2|2,0:0|0:0|0:0,0:0:0:0:
388,268,82197,1,2,0:1:0:0:
340,76,82857,6,0,P|292:52|208:64,2,110,2|2|8,0:0|0:1|0:0,0:0:0:0:
368,116,83681,2,0,P|444:116|508:112,1,110,2|2,0:0|0:1,0:0:0:0:
336,252,84670,5,8,0:0:0:0:
300,220,84835,2,0,P|224:220|160:216,1,110,8|0,0:0|0:0,0:0:0:0:
144,200,85329,1,0,0:0:0:0:
144,200,85495,2,0,B|128:160|128:160|125:94,1,110,2|0,0:1|0:0,0:0:0:0:
36,136,86153,2,0,P|33:192|30:246,1,110,10|0,0:1|0:0,0:0:0:0:
52,292,86648,6,0,P|136:316|240:288,1,165,2|0,0:1|0:0,0:0:0:0:
276,228,87472,2,0,B|323:215|323:215|421:222,1,110,2|0,0:1|0:0,0:0:0:0:
476,256,88131,2,0,P|480:176|480:108,1,110,2|2,0:1|0:0,0:0:0:0:
416,72,88791,2,0,P|348:80|292:88,1,110,2|2,0:0|0:0,0:0:0:0:
264,60,89285,1,2,0:1:0:0:
256,192,89450,12,4,91099,0:0:0:0:
212,296,91923,6,0,P|208:240|212:176,1,110,2|2,0:0|0:0,0:0:0:0:
244,152,92417,1,8,0:0:0:0:
332,108,92747,2,0,P|297:68|232:53,1,110,2|8,0:0|0:0,0:0:0:0:
156,96,93406,2,0,P|98:97|40:100,1,110,2|8,0:0|0:0,0:0:0:0:
8,132,93901,2,0,P|12:196|12:256,1,110,2|2,0:0|0:0,0:0:0:0:
44,280,94395,1,8,0:0:0:0:
82,311,94560,6,0,P|170:291|246:319,1,165,2|8,0:0|0:0,0:0:0:0:
288,308,95219,1,2,0:0:0:0:
346,227,95549,1,2,0:0:0:0:
288,147,95879,2,0,B|272:92|272:92|280:24,1,110,4|2,0:0|0:0,0:0:0:0:
316,8,96373,1,8,0:0:0:0:
413,25,96703,2,0,B|429:80|429:80|421:148,1,110,0|8,0:0|0:0,0:0:0:0:
449,174,97197,5,2,0:0:0:0:
377,242,97527,2,0,L|305:230,1,55,2|8,0:0|0:0,0:0:0:0:
276,251,97857,1,2,0:0:0:0:
188,298,98186,1,2,0:0:0:0:
141,212,98516,2,0,P|132:152|144:88,1,110,4|2,0:0|0:0,0:0:0:0:
172,68,99011,1,8,0:0:0:0:
268,92,99340,2,0,P|344:80|392:72,1,110,0|8,0:0|0:0,0:0:0:0:
423,90,99835,6,0,P|463:174|411:254,1,165,4|0,0:0|0:0,0:0:0:0:
387,229,100494,2,0,B|303:249|303:209|223:229,1,165,4|8,0:0|0:0,0:0:0:0:
187,259,101153,2,0,P|183:187|183:127,1,110,4|0,0:0|0:0,0:0:0:0:
212,109,101648,2,0,P|277:100|336:114,2,110,8|2|8,0:0|0:0|0:0,0:0:0:0:
182,149,102472,6,0,P|117:158|58:144,1,110,2|2,0:0|0:0,0:0:0:0:
34,119,102967,1,8,0:0:0:0:
6,212,103296,2,0,P|10:276|14:336,1,110,2|8,0:0|0:0,0:0:0:0:
106,354,103956,1,4,0:0:0:0:
140,319,104120,2,0,P|204:307|256:319,1,110,2|2,0:1|0:1,0:0:0:0:
287,346,104615,2,0,P|299:282|303:234,1,110,2|10,0:1|0:1,0:0:0:0:
335,199,105109,5,6,0:1:0:0:
277,118,105439,2,0,L|221:130,1,55,2|10,0:1|0:1,0:0:0:0:
187,164,105769,1,2,0:1:0:0:
99,119,106099,1,2,0:1:0:0:
144,30,106428,2,0,P|84:20|20:56,1,110,4|0,0:0|0:0,0:0:0:0:
8,76,106923,1,8,0:0:0:0:
0,174,107252,2,0,P|4:254|8:306,1,110,2|8,0:0|0:0,0:0:0:0:
41,318,107747,6,0,B|98:325|98:325|161:310,1,110,4|2,0:0|0:0,0:0:0:0:
175,271,108241,1,8,0:0:0:0:
242,198,108571,2,0,B|293:185|293:185|350:192,1,110,0|8,0:0|0:0,0:0:0:0:
425,256,109230,2,0,P|448:198|439:147,1,110,4|8,0:0|0:0,0:0:0:0:
420,107,109725,2,0,P|337:96|248:85,1,165,2|8,0:0|0:0,0:0:0:0:
209,101,110384,1,4,0:0:0:0:
112,121,110714,2,0,L|104:61,2,55,8|2|2,0:0|0:0|0:0,0:0:0:0:
108,220,111373,1,6,0:0:0:0:
228,308,111868,6,0,P|324:296|368:292,1,110,4|8,0:0|0:0,0:0:0:0:
372,260,112362,2,0,P|380:200|356:148,1,110,4|8,0:0|0:0,0:0:0:0:
324,124,112857,1,8,0:0:0:0:
324,124,113022,2,0,B|269:133|269:133|200:124,1,110,4|8,0:0|0:0,0:0:0:0:
72,172,113846,6,0,P|64:122|72:81,2,82.5,2|2|2,0:1|0:1|0:1,0:0:0:0:
92,217,114505,1,2,0:1:0:0:
321,124,115329,2,0,P|329:174|321:215,2,82.5,2|2|2,0:1|0:1|0:1,0:0:0:0:
256,192,123901,12,0,125055,0:0:0:0:
264,268,126208,6,0,P|196:252|152:260,1,110,4|8,0:0|0:0,0:0:0:0:
108,268,126703,2,0,P|53:273|1:258,2,110,8|8|0,0:0|0:0|0:0,0:0:0:0:
124,172,127692,6,0,P|128:108|128:60,1,110,4|8,0:0|0:0,0:0:0:0:
224,44,128351,2,0,P|220:108|220:156,1,110,0|8,0:0|0:0,0:0:0:0:
244,196,128846,2,0,P|344:212|404:192,1,165,2|8,0:0|0:0,0:0:0:0:
423,95,129670,2,0,P|475:124|501:177,1,110,2|8,0:0|0:0,0:0:0:0:
491,215,130164,1,0,0:0:0:0:
475,262,130329,6,0,P|478:347|479:375,1,110,2|8,0:0|0:0,0:0:0:0:
381,348,130989,2,0,P|382:293|384:238,1,110,2|8,0:0|0:0,0:0:0:0:
402,192,131483,1,4,0:0:0:0:
335,118,131813,2,0,L|260:129,1,55,2|8,0:0|0:0,0:0:0:0:
208,193,132307,6,0,P|217:136|192:55,2,110,4|8|2,0:0|0:0|0:0,0:0:0:0:
108,196,133296,1,10,0:1:0:0:
154,283,133626,2,0,P|211:292|292:267,2,110,2|8|2,0:0|0:0|0:0,0:0:0:0:
54,281,134615,1,10,0:1:0:0:
8,194,134945,2,0,P|17:118|23:65,1,110,2|8,0:0|0:0,0:0:0:0:
57,52,135439,1,2,0:0:0:0:
100,27,135604,6,0,P|163:24|225:43,1,110,2|8,0:0|0:0,0:0:0:0:
258,121,136263,2,0,P|312:122|365:108,1,110,8|8,0:0|0:0,0:0:0:0:
405,78,136758,2,0,P|402:144|402:206,1,110,4|0,0:0|0:0,0:0:0:0:
422,233,137252,2,0,B|485:225|485:225|549:241,2,110,8|8|8,0:0|0:0|0:0,0:0:0:0:
353,304,138241,6,0,P|289:294|228:285,1,110,4|8,0:0|0:0,0:0:0:0:
167,223,138901,2,0,P|112:231|58:239,1,110,8|8,0:0|0:0,0:0:0:0:
22,273,139395,2,0,P|13:193|20:143,1,110,4|2,0:0|0:0,0:0:0:0:
49,127,139890,1,8,0:0:0:0:
125,64,140219,2,0,B|191:56|191:56|264:71,1,110,0|8,0:0|0:0,0:0:0:0:
265,103,140714,1,0,0:0:0:0:
295,142,140879,6,0,P|300:202|288:277,1,110,2|8,0:0|0:0,0:0:0:0:
391,272,141538,2,0,P|385:217|390:162,1,110,2|8,0:0|0:0,0:0:0:0:
428,129,142033,1,4,0:0:0:0:
361,56,142362,2,0,L|291:69,1,55,2|8,0:0|0:0,0:0:0:0:
220,114,142857,6,0,L|111:94,2,110,4|8|2,0:0|0:0|0:0,0:0:0:0:
282,190,143846,1,10,0:1:0:0:
352,259,144175,2,0,L|461:239,2,110,2|8|2,0:0|0:0|0:0,0:0:0:0:
257,287,145164,1,10,0:1:0:0:
183,220,145494,2,0,P|187:159|191:99,1,110,0|8,0:0|0:0,0:0:0:0:
249,30,146153,6,0,P|307:18|372:32,1,110,2|8,0:0|0:0,0:0:0:0:
402,44,146648,2,0,P|397:105|395:172,1,110,2|2,0:0|0:0,0:0:0:0:
430,188,147142,1,8,0:0:0:0:
464,223,147307,2,0,P|469:284|471:351,1,110,4|8,0:0|0:0,0:0:0:0:
426,355,147802,2,0,P|369:358|314:334,1,110,8|8,0:0|0:0,0:0:0:0:
254,264,148461,1,8,0:0:0:0:
187,190,148791,6,0,P|130:187|75:211,1,110,4|8,0:0|0:0,0:0:0:0:
103,303,149450,2,0,P|160:306|215:282,1,110,8|8,0:0|0:0,0:0:0:0:
254,264,149945,2,0,P|284:208|273:141,1,110,4|2,0:0|0:0,0:0:0:0:
260,118,150439,1,8,0:0:0:0:
330,48,150769,2,0,L|452:62,1,110,8|8,0:0|0:0,0:0:0:0:
505,132,151428,6,0,P|515:193|499:248,1,110,2|8,0:0|0:0,0:0:0:0:
461,265,151923,2,0,P|406:253|331:263,1,110,0|2,0:0|0:0,0:0:0:0:
314,288,152417,1,8,0:0:0:0:
278,322,152582,2,0,P|274:227|270:147,1,165,4|8,0:0|0:0,0:0:0:0:
242,116,153241,2,0,P|166:81|82:133,1,165,4|8,0:0|0:0,0:0:0:0:
169,179,154066,5,6,0:0:0:0:
247,238,154395,2,0,P|310:232|372:234,2,110,8|2|8,0:0|0:0|0:0,0:0:0:0:
208,269,155219,2,0,P|144:274|88:232,1,110,4|0,0:0|0:0,0:0:0:0:
79,210,155714,1,8,0:0:0:0:
59,164,155879,2,0,P|65:96|67:51,1,110,4|8,0:0|0:0,0:0:0:0:
107,26,156373,1,8,0:0:0:0:
176,96,156703,6,0,P|236:102|298:89,1,110,4|2,0:0|0:0,0:0:0:0:
329,72,157197,1,2,0:0:0:0:
365,38,157362,2,0,P|419:29|473:35,1,110,2|2,0:0|0:0,0:0:0:0:
503,75,157857,1,8,0:0:0:0:
462,165,158186,2,0,L|470:221,1,55,8|8,0:0|0:0,0:0:0:0:
424,307,158681,2,0,P|358:300|304:313,1,110,0|0,0:0|0:0,0:0:0:0:
273,334,159175,2,0,P|218:343|164:335,1,110
129,300,159670,1,0,0:0:0:0:
410,62,161978,5,4,0:0:0:0:
333,124,162307,2,0,P|263:109|211:111,1,110,8|2,0:0|0:0,0:0:0:0:
126,123,162967,1,8,0:0:0:0:
148,166,163131,2,0,P|145:244|141:296,1,110,2|2,0:0|0:0,0:0:0:0:
177,312,163626,2,0,B|231:321|231:321|301:313,2,110,8|2|8,0:0|0:0|0:0,0:0:0:0:
83,344,164615,5,2,0:0:0:0:
34,257,164945,2,0,P|30:202|28:147,1,110,8|2,0:0|0:0,0:0:0:0:
85,66,165604,1,8,0:0:0:0:
115,105,165769,2,0,P|181:116|243:103,1,110,4|2,0:0|0:0,0:0:0:0:
269,93,166263,2,0,P|323:86|377:97,2,110,8|2|8,0:0|0:0|0:0,0:0:0:0:
255,191,167252,6,0,P|256:250|258:314,1,110,4|8,0:0|0:0,0:0:0:0:
345,347,167912,2,0,P|346:292|347:237,1,110,2|8,0:0|0:0,0:0:0:0:
363,190,168406,2,0,P|425:181|481:190,1,110,0|0,0:0|0:0,0:0:0:0:
510,218,168901,2,0,P|511:163|512:108,2,110,8|2|8,0:0|0:0|0:0,0:0:0:0:
449,296,169890,6,0,P|387:305|331:296,1,110,4|8,0:0|0:0,0:0:0:0:
249,337,170549,2,0,P|243:280|276:223,1,110,2|8,0:0|0:0,0:0:0:0:
307,206,171044,2,0,B|315:155|315:155|301:70,1,110,4|2,0:0|0:0,0:0:0:0:
267,66,171538,2,0,B|226:55|226:55|152:64,1,110,8|8,0:0|0:0,0:0:0:0:
62,39,172197,1,8,0:0:0:0:
36,81,172362,6,0,P|38:145|40:217,1,110,4|2,0:0|0:0,0:0:0:0:
75,225,172857,2,0,B|136:230|136:230|191:215,2,110,8|2|8,0:0|0:0|0:0,0:0:0:0:
31,313,173846,2,0,L|156:323,1,110,4|8,0:0|0:0,0:0:0:0:
184,344,174340,1,2,0:0:0:0:
267,290,174670,1,2,0:0:0:0:
214,206,175000,6,0,L|223:96,1,110,4|2,0:0|0:0,0:0:0:0:
259,62,175494,1,8,0:0:0:0:
259,62,175659,2,0,P|322:55|368:69,1,110,8|8,0:0|0:0,0:0:0:0:
393,109,176153,1,2,0:0:0:0:
486,75,176483,1,4,0:0:0:0:
456,270,177142,2,0,L|346:263,1,110,0|0,0:0|0:0,0:0:0:0:
259,215,177802,6,0,L|149:222,1,110,4|0,0:0|0:0,0:0:0:0:
61,268,178461,2,0,P|50:214|67:163,1,110,0|0,0:0|0:0,0:0:0:0:
105,131,178956,2,0,P|105:51|103:15,2,110,4|0|2,0:0|0:0|0:0,0:0:0:0:
149,152,179780,2,0,P|216:142|276:160,1,110,0|2,0:0|0:0,0:0:0:0:
312,233,180439,6,0,P|349:183|349:117,1,110,4|0,0:0|0:0,0:0:0:0:
365,88,180934,2,0,B|421:78|421:78|494:93,1,110,0|0,0:0|0:0,0:0:0:0:
510,180,181593,2,0,L|499:292,1,110,4|0,0:0|0:0,0:0:0:0:
467,328,182088,1,0,0:0:0:0:
467,328,182252,2,0,B|407:328|407:328|363:316|363:316|295:316,1,165,2|2,0:0|0:0,0:0:0:0:
208,348,183077,5,4,0:0:0:0:
229,251,183406,2,0,P|224:188|220:134,1,110,0|0,0:0|0:0,0:0:0:0:
290,71,184066,1,2,0:0:0:0:
328,102,184230,2,0,P|323:156|319:211,1,110,4|2,0:0|0:0,0:0:0:0:
347,252,184725,1,0,0:0:0:0:
347,252,184890,2,0,P|436:281|508:253,1,165,0|0,0:0|0:0,0:0:0:0:
504,209,185549,1,0,0:0:0:0:
504,209,185714,6,0,P|499:146|495:92,1,110,4|0,0:0|0:0,0:0:0:0:
458,65,186208,2,0,P|394:54|336:68,1,110,0|0,0:0|0:0,0:0:0:0:
312,94,186703,1,2,0:0:0:0:
224,47,187033,1,4,0:0:0:0:
159,180,187538,5,0,0:0:0:0:
197,211,187707,2,0,P|268:220|334:196,1,110,0|0,0:0|0:0,0:0:0:0:
342,179,188212,2,0,L|334:301,1,109.7
306,326,188714,1,0,0:0:0:0:
256,192,188881,12,0,196223,0:0:0:0:
