osu file format v14

[General]
AudioFilename: audio.mp3
AudioLeadIn: 0
PreviewTime: 57575
Countdown: 0
SampleSet: Soft
StackLeniency: 0.3
Mode: 0
LetterboxInBreaks: 0
WidescreenStoryboard: 0

[Editor]
Bookmarks: 113002,114073,118771
DistanceSpacing: 1
BeatDivisor: 4
GridSize: 32
TimelineZoom: 1.4

[Metadata]
Title:Kimi no Kokoro wa Kagayaiteru kai?
TitleUnicode:君のこころは輝いてるかい?
Artist:Aqours
ArtistUnicode:アクア
Creator:Momochikun
Version:Normal
Source:ラブライブ!サンシャイン!!
Tags:Lovelive! School Idol Project: Sunshine!! xinely no_gu tv size school idol project Inami Anju 伊波杏樹 Aida Rikako 逢田梨香子 Suwa Nanaka 諏訪ななか Komiya Arisa 小宮有紗 Saito Shuka 斉藤朱夏 Kobayashi Aika 小林愛香 Takatsuki Kanako 高槻かなこ Suzuki Aina 鈴木愛奈 Furihata Ai 降幡 愛 Takami Chika 高海千歌 Sakurauchi Riko 桜内梨子 Matsuura Kanan 松浦果南 Kurosawa Dia 黒澤ダイヤ Watanabe You 渡辺 曜 Tsushima Yoshiko 津島善子 Kunikida Hanamaru 国木田花丸 Ohara Mari 小原鞠莉 Kurosawa Ruby 黒澤ルビィ
BeatmapID:1025236
BeatmapSetID:476031

[Difficulty]
HPDrainRate:4
CircleSize:3.5
OverallDifficulty:4
ApproachRate:5
SliderMultiplier:1.15
SliderTickRate:1

[Events]
//Background and Video events
0,0,"BG.jpg",0,0
//Break Periods
2,79533,83408
//Storyboard Layer 0 (Background)
//Storyboard Layer 1 (Fail)
//Storyboard Layer 2 (Pass)
//Storyboard Layer 3 (Foreground)
//Storyboard Sound Samples

[TimingPoints]
2850,329.67032967033,4,2,1,55,1,0
2850,-100,4,2,1,55,0,0
8124,-100,4,2,1,65,0,0
10926,-100,4,1,1,60,0,0
11256,-100,4,1,1,70,0,0
11586,-100,4,1,1,80,0,0
11915,-100,4,2,1,75,0,0
12410,-100,4,2,1,70,0,0
13069,-100,4,2,1,60,0,0
13399,-100,4,1,1,70,0,1
13481,-100,4,1,1,55,0,0
23948,-100,4,2,1,60,0,0
33014,-100,4,2,1,70,0,0
33839,-100,4,2,1,60,0,0
42410,-100,4,2,1,70,0,0
43893,-100,4,2,1,70,0,0
44718,-100,4,2,1,50,0,0
45047,-100,4,2,1,60,0,0
48839,-100,4,2,1,65,0,0
50322,-100,4,2,1,70,0,0
55267,-100,4,2,1,55,0,0
55762,-100,4,1,1,60,0,0
56091,-100,4,1,1,70,0,0
56421,-100,4,1,1,80,0,0
56751,-100,4,2,1,75,0,0
58234,-100,4,2,1,80,0,1
62520,-100,4,2,1,70,0,1
62685,-100,4,2,1,80,0,1
63839,-100,4,2,1,85,0,1
64168,-100,4,2,1,80,0,1
65157,-100,4,2,1,85,0,1
65487,-100,4,2,1,80,0,1
67300,-100,4,2,1,80,0,1
67795,-100,4,2,1,80,0,1
68454,-100,4,2,1,65,0,0
68784,-100,4,2,1,80,0,1
76860,-100,4,1,1,65,0,1
77190,-100,4,1,1,75,0,1
77520,-100,4,1,1,85,0,1
78179,-100,4,2,1,80,0,0
79003,-100,4,2,1,65,0,0
79333,-100,4,2,1,75,0,1
79415,-100,4,2,1,70,0,0
100432,-100,4,2,1,55,0,0
110981,340.909090909091,4,2,1,55,1,0
113026,-117.647058823529,4,2,1,50,0,0
114127,397.350993377483,4,2,1,50,1,0
114226,-100,4,2,1,5,0,0

[Colours]
Combo1 : 68,255,162
Combo2 : 155,155,255
Combo3 : 113,184,255

[HitObjects]
376,123,2850,6,0,L|246:96,1,115,4|0,0:0|0:0,0:0:0:0:
305,206,3509,2,0,L|175:179,1,115,2|2,0:0|0:0,0:0:0:0:
137,166,4003,2,0,P|82:225|77:326,1,172.5,4|0,0:0|0:0,0:0:0:0:
174,368,4828,2,0,P|226:347|285:347,1,115,2|2,0:0|0:0,0:0:0:0:
397,365,5487,6,0,B|425:330|425:330|408:241,1,115,4|0,0:0|0:0,0:0:0:0:
360,234,5981,2,0,L|386:113,1,115,2|2,0:0|0:0,0:0:0:0:
281,69,6641,2,0,L|256:181,1,115,4|0,0:0|3:0,0:0:0:0:
204,204,7135,1,2,0:0:0:0:
204,204,7300,2,0,P|151:226|68:216,1,115,0|0,3:2|3:0,0:0:0:0:
43,196,7795,1,0,3:0:0:0:
60,82,8124,6,0,P|113:60|196:70,1,115,4|2,0:0|3:2,0:0:0:0:
276,104,8784,2,0,L|393:82,1,115,2|0,3:2|3:0,0:0:0:0:
445,72,9278,2,0,P|409:148|396:192,1,115,12|0,0:0|3:0,0:0:0:0:
427,228,9773,2,0,L|371:250,1,57.5,0|0,3:0|3:0,0:0:0:0:
327,285,10102,2,0,L|213:306,1,115,0|2,3:0|3:2,0:0:0:0:
105,345,10762,6,0,P|54:326|37:262,1,115,4|0,0:0|0:0,0:0:0:0:
66,223,11256,1,0,0:0:0:0:
66,223,11421,2,0,P|62:162|29:113,1,115,0|0,0:0|0:0,0:0:0:0:
17,62,11915,2,0,L|146:88,1,115,4|8,0:0|0:0,0:0:0:0:
169,126,12410,1,4,0:0:0:0:
392,71,13069,1,8,0:0:0:0:
503,41,13399,6,0,L|467:170,1,115,4|10,0:0|0:0,0:0:0:0:
366,197,14058,2,0,L|402:326,1,115,2|10,0:0|0:0,0:0:0:0:
351,343,14553,2,0,B|299:332|244:360|244:360|215:341|192:307,1,172.5,2|10,0:0|0:0,0:0:0:0:
133,223,15377,2,0,P|76:256|47:312,2,115,2|10|2,0:0|0:0|0:0,0:0:0:0:
237,174,16366,5,10,0:0:0:0:
237,174,16531,2,0,L|211:37,1,115,2|2,0:0|0:0,0:0:0:0:
325,25,17190,2,0,L|346:137,1,115,2|2,0:0|0:0,0:0:0:0:
381,184,17685,1,8,0:0:0:0:
381,184,17850,2,0,P|436:205|502:207,1,115,4|4,0:2|0:2,0:0:0:0:
423,301,18509,6,0,P|368:280|302:278,1,115,6|0,0:0|0:0,0:0:0:0:
269,314,19003,2,0,L|143:288,2,115,10|2|10,0:0|0:0|0:0,0:0:0:0:
237,203,19992,2,0,L|111:177,1,115,2|10,0:0|0:0,0:0:0:0:
69,199,20487,2,0,P|34:168|45:86,1,115,2|0,0:0|0:0,0:0:0:0:
126,36,21146,6,0,L|238:59,1,115,6|2,0:0|0:0,0:0:0:0:
281,98,21641,2,0,L|344:83,1,57.5,10|2,0:0|0:0,0:0:0:0:
417,166,22135,2,0,L|361:179,1,57.5,2|10,0:0|0:0,0:0:0:0:
311,208,22465,2,0,P|272:259|274:328,1,115,6|2,0:0|0:0,0:0:0:0:
223,344,22959,1,8,0:0:0:0:
110,369,23289,2,0,L|52:353,2,57.5,4|2|4,0:2|0:0|0:2,0:0:0:0:
160,265,23948,6,0,P|148:210|131:134,1,115,4|8,0:0|0:0,0:0:0:0:
212,66,24608,2,0,P|265:38|338:40,1,115,2|8,0:0|0:0,0:0:0:0:
373,54,25102,2,0,P|401:107|399:180,1,115,2|0,0:0|0:0,0:0:0:0:
374,211,25597,1,8,0:0:0:0:
381,325,25926,2,0,P|340:294|276:288,1,115,2|8,0:0|0:0,0:0:0:0:
175,341,26586,6,0,L|58:312,1,115,2|8,0:0|0:0,0:0:0:0:
16,346,27080,2,0,L|-4:217,1,115,2|2,0:0|0:0,0:0:0:0:
36,188,27575,2,0,L|55:129,1,57.5,8|2,0:0|0:0,0:0:0:0:
162,94,28069,2,0,L|144:148,2,57.5,0|8|0,0:0|0:0|0:0,0:0:0:0:
209,61,28564,2,0,P|269:40|327:37,1,115,12|8,0:0|0:0,0:0:0:0:
416,99,29223,6,0,P|389:156|381:214,1,115,4|8,0:0|0:0,0:0:0:0:
419,316,29882,2,0,L|288:288,1,115,2|8,0:0|0:0,0:0:0:0:
254,267,30377,2,0,P|199:294|172:349,1,115,2|2,0:0|0:0,0:0:0:0:
123,367,30871,1,8,0:0:0:0:
35,291,31201,2,0,B|11:228|11:228|40:172,1,115,2|8,0:0|0:0,0:0:0:0:
102,94,31860,6,0,L|237:113,1,115,4|8,0:0|0:0,0:0:0:0:
312,173,32520,2,0,L|425:156,1,115,2|8,0:0|0:0,0:0:0:0:
483,151,33014,2,0,P|453:203|441:283,1,115,4|2,0:0|0:0,0:0:0:0:
479,299,33509,2,0,L|470:362,2,57.5,8|2|12,0:0|0:0|0:0,0:0:0:0:
364,314,34168,1,4,0:0:0:0:
249,329,34498,6,0,P|191:315|162:248,1,115,4|8,0:0|0:0,0:0:0:0:
192,159,35157,2,0,L|309:189,1,115,2|8,0:0|0:0,0:0:0:0:
357,207,35652,2,0,P|387:155|373:87,1,115,2|0,0:0|0:0,0:0:0:0:
340,61,36146,1,8,0:0:0:0:
228,32,36476,2,0,L|116:60,1,115,2|8,0:0|0:0,0:0:0:0:
29,136,37135,6,0,P|2:186|6:254,1,115,2|8,0:0|0:0,0:0:0:0:
39,287,37630,2,0,P|90:308|156:304,1,115,2|2,0:0|0:0,0:0:0:0:
256,265,38289,2,0,B|389:285|389:285|431:317,1,172.5,4|8,0:0|0:0,0:0:0:0:
477,208,39113,2,0,L|494:149,1,57.5,12|0,0:0|0:0,0:0:0:0:
480,96,39443,1,12,0:0:0:0:
369,127,39773,6,0,P|316:134|254:92,1,115,4|8,0:0|0:0,0:0:0:0:
216,73,40267,2,0,P|179:128|177:189,1,115,2|0,0:0|0:0,0:0:0:0:
203,225,40762,1,8,0:0:0:0:
123,308,41091,2,0,L|242:338,1,115,2|8,0:0|0:0,0:0:0:0:
273,378,41586,2,0,L|384:349,1,115,2|2,0:0|0:0,0:0:0:0:
440,335,42080,1,8,0:0:0:0:
494,233,42410,6,0,P|499:176|463:115,1,115,4|8,0:0|0:0,0:0:0:0:
368,170,43069,2,0,P|342:119|347:62,1,115,8|8,0:0|0:0,0:0:0:0:
307,21,43564,2,0,L|180:56,1,115,4|8,0:0|0:0,0:0:0:0:
145,79,44058,2,0,L|83:67,1,57.5,8|4,0:0|0:0,0:0:0:0:
84,241,44718,1,2,0:0:0:0:
158,328,45047,6,0,P|239:364|333:351,1,172.5,4|2,0:0|3:2,0:0:0:0:
374,335,45707,1,8,0:0:0:0:
407,225,46036,1,0,0:0:0:0:
407,225,46201,2,0,L|388:104,2,115,0|0|2,3:0|3:0|0:2,0:0:0:0:
355,250,47025,2,0,P|296:231|240:221,1,115,8|2,0:0|3:2,0:0:0:0:
138,268,47685,6,0,P|100:221|108:153,1,115,2|0,3:2|0:0,0:0:0:0:
174,80,48344,2,0,L|233:63,1,57.5,8|0,0:0|0:0,0:0:0:0:
280,91,48674,1,0,3:0:0:0:
280,91,48839,2,0,L|431:47,1,115,4|8,0:0|0:0,0:0:0:0:
446,47,49333,1,8,0:0:0:0:
446,47,49498,2,0,P|486:95|491:155,1,115,4|8,0:0|0:0,0:0:0:0:
476,200,49992,1,8,0:0:0:0:
394,280,50322,6,0,B|354:262|354:262|261:284,1,115,4|8,0:0|0:0,0:0:0:0:
248,323,50817,2,0,P|196:302|128:303,1,115,2|2,0:0|0:0,0:0:0:0:
88,330,51311,1,8,0:0:0:0:
26,232,51641,2,0,L|-2:111,1,115,4|8,0:0|0:0,0:0:0:0:
56,129,52135,2,0,L|151:65,1,115,2|8,0:0|0:0,0:0:0:0:
200,33,52630,5,8,0:0:0:0:
200,33,52795,2,0,P|281:65|368:61,1,172.5,4|8,0:0|0:0,0:0:0:0:
467,113,53619,2,0,P|498:156|500:221,1,115,8|8,0:0|0:0,0:0:0:0:
455,251,54113,1,0,0:0:0:0:
455,251,54278,2,0,L|323:279,1,115,4|8,0:0|0:0,0:0:0:0:
306,320,54773,2,0,L|174:348,1,115,4|8,0:0|0:0,0:0:0:0:
137,355,55267,1,8,0:0:0:0:
49,280,55597,6,0,L|61:151,1,115,4|0,0:0|0:0,0:0:0:0:
62,107,56091,1,0,0:0:0:0:
62,107,56256,2,0,P|116:113|181:63,1,115,0|0,0:0|0:0,0:0:0:0:
198,36,56751,1,12,0:0:0:0:
311,52,57080,2,0,L|390:30,1,57.5,4|12,0:0|0:0,0:0:0:0:
471,83,57575,6,0,L|454:141,1,57.5,2|0,0:0|3:0,0:0:0:0:
410,175,57904,2,0,L|438:288,2,115,4|4|8,0:0|0:2|0:0,0:0:0:0:
301,136,58893,2,0,P|252:168|236:237,1,115,2|8,0:0|0:0,0:0:0:0:
262,270,59388,2,0,B|180:298|180:230|64:265,1,172.5,4|8,0:0|0:0,0:0:0:0:
26,164,60212,2,0,L|3:48,1,115,2|8,0:0|0:0,0:0:0:0:
117,34,60871,6,0,L|139:146,1,115,4|8,0:0|0:0,0:0:0:0:
232,215,61531,2,0,B|277:225|277:225|353:204,1,115,0|8,0:0|0:0,0:0:0:0:
398,222,62025,2,0,P|391:163|432:106,1,115,4|2,0:0|0:0,0:0:0:0:
466,85,62520,1,12,0:0:0:0:
362,33,62850,2,0,L|241:54,1,115,4|12,0:0|0:0,0:0:0:0:
155,120,63509,6,0,L|92:105,2,57.5,2|0|12,0:0|0:0|0:0,0:0:0:0:
226,210,64168,2,0,P|259:263|259:325,1,115,2|8,0:0|0:0,0:0:0:0:
365,363,64828,2,0,L|428:348,2,57.5,2|0|12,0:0|0:0|0:0,0:0:0:0:
377,248,65487,2,0,L|398:116,1,115,2|8,0:0|0:0,0:0:0:0:
295,76,66146,6,0,L|276:189,1,115,4|8,0:0|0:0,0:0:0:0:
224,214,66641,2,0,P|165:223|115:185,1,115,4|4,0:0|0:0,0:0:0:0:
76,157,67135,1,8,0:0:0:0:
76,157,67300,2,0,L|94:270,1,115,4|8,0:0|0:0,0:0:0:0:
106,327,67795,1,4,0:0:0:0:
217,355,68124,1,12,0:0:0:0:
326,318,68454,6,0,L|390:301,1,57.5,8|8,0:0|0:0,0:0:0:0:
433,277,68784,2,0,P|411:219|411:148,1,115,4|8,0:0|0:0,0:0:0:0:
304,111,69443,2,0,P|326:169|326:240,1,115,2|8,0:0|0:0,0:0:0:0:
276,242,69937,2,0,P|202:220|131:273,1,172.5,4|8,0:0|0:0,0:0:0:0:
31,332,70762,1,2,0:0:0:0:
14,218,71091,1,10,0:0:0:0:
69,116,71421,6,0,L|189:138,1,115,4|8,0:0|0:0,0:0:0:0:
230,168,71915,2,0,L|343:147,1,115,2|2,0:0|0:0,0:0:0:0:
398,131,72410,1,8,0:0:0:0:
398,131,72575,2,0,P|437:177|440:229,1,115,4|2,0:0|0:0,0:0:0:0:
420,283,73069,1,8,0:0:0:0:
420,283,73234,2,0,B|366:304|366:304|307:267|229:300,1,172.5,4|8,0:0|0:0,0:0:0:0:
140,287,74058,6,0,P|105:238|111:167,1,115,4|8,0:0|0:0,0:0:0:0:
183,101,74718,2,0,P|218:150|212:221,1,115,2|8,0:0|0:0,0:0:0:0:
271,226,75212,2,0,L|407:188,1,115,4|2,0:0|0:0,0:0:0:0:
410,83,75871,2,0,L|299:113,1,115,4|8,0:0|0:0,0:0:0:0:
244,94,76366,1,8,0:0:0:0:
133,60,76696,6,0,P|93:101|90:169,1,115,4|0,0:0|0:0,0:0:0:0:
116,205,77190,1,0,0:0:0:0:
116,205,77355,2,0,L|88:333,1,115
136,354,77850,2,0,P|189:374|259:360,1,115,4|8,0:2|0:0,0:0:0:0:
292,333,78344,1,12,0:0:0:0:
337,232,78674,2,0,L|355:169,1,57.5,2|0,0:0|3:0,0:0:0:0:
409,166,79003,2,0,L|427:103,1,57.5,8|8,0:0|0:0,0:0:0:0:
403,56,79333,5,4,0:0:0:0:
441,340,84608,6,0,L|409:218,1,115,4|8,0:0|0:0,0:0:0:0:
352,129,85267,2,0,P|297:105|225:120,1,115,2|8,0:0|0:0,0:0:0:0:
205,154,85762,2,0,P|150:178|78:163,1,115,4|2,0:0|0:0,0:0:0:0:
46,144,86256,2,0,L|29:275,1,115,8|2,0:0|0:0,0:0:0:0:
123,327,86915,1,8,0:0:0:0:
236,305,87245,6,0,L|299:293,1,57.5,4|0,0:0|0:0,0:0:0:0:
348,310,87575,2,0,P|384:277|377:194,1,115,8|2,0:0|0:0,0:0:0:0:
352,104,88234,1,8,0:0:0:0:
352,104,88399,2,0,P|292:77|209:135,1,172.5,4|8,0:0|0:0,0:0:0:0:
123,207,89223,1,0,0:0:0:0:
20,259,89553,1,8,0:0:0:0:
101,339,89882,6,0,P|172:319|212:309,1,115,4|8,0:0|0:0,0:0:0:0:
319,350,90542,2,0,P|390:330|430:320,1,115,2|8,0:0|0:0,0:0:0:0:
473,282,91036,2,0,P|500:227|484:163,1,115,2|2,0:0|0:0,0:0:0:0:
471,121,91531,1,8,0:0:0:0:
359,146,91860,2,0,P|298:149|256:118,1,115,2|8,0:0|0:0,0:0:0:0:
158,65,92520,6,0,P|111:113|100:171,1,115,4|8,0:0|0:0,0:0:0:0:
99,273,93179,2,0,L|82:336,2,57.5,0|2|8,0:0|0:0|0:0,0:0:0:0:
153,252,93674,2,0,B|185:235|185:235|281:252,1,115,4|2,0:0|0:0,0:0:0:0:
293,297,94168,2,0,L|404:268,1,115,12|8,0:0|0:0,0:0:0:0:
459,251,94663,2,0,L|480:194,1,57.5,8|8,0:0|0:0,0:0:0:0:
494,141,94992,6,0,P|460:91|394:80,1,115,4|0,0:0|0:0,0:0:0:0:
366,116,95487,2,0,L|255:87,1,115,8|2,0:0|0:0,0:0:0:0:
147,44,96146,1,8,0:0:0:0:
63,123,96476,2,0,P|25:169|16:244,1,115,4|8,0:0|0:0,0:0:0:0:
58,258,96970,2,0,P|120:267|177:295,1,115,2|2,0:0|0:0,0:0:0:0:
211,325,97465,5,8,0:0:0:0:
211,325,97630,2,0,B|254:322|280:307|280:307|315:315|315:315|346:302|384:298,1,172.5,4|8,0:0|0:0,0:0:0:0:
433,312,98289,2,0,L|456:181,1,115,12|0,0:0|3:0,0:0:0:0:
465,142,98784,1,8,0:0:0:0:
256,192,99113,12,4,100432,0:0:0:0:
256,96,101091,6,0,L|431:55,2,172.5,2|4|0,0:0|0:0|0:0,0:0:0:0:
156,154,102410,2,0,P|124:202|123:262,1,115,2|0,0:0|3:0,0:0:0:0:
218,320,103069,2,0,P|276:296|336:303,1,115,4|0,0:0|0:0,0:0:0:0:
374,332,103564,2,0,B|416:344|416:344|503:321,1,115,2|2,0:0|0:0,0:0:0:0:
498,211,104223,6,0,B|456:199|456:199|369:222,1,115,4|2,0:0|0:0,0:0:0:0:
332,197,104718,2,0,L|346:139,1,57.5,0|2,0:0|3:2,0:0:0:0:
271,53,105212,2,0,L|257:108,1,57.5,0|0,3:0|3:0,0:0:0:0:
158,167,105707,2,0,P|102:164|52:105,2,115,4|2|2,0:0|0:0|0:0,0:0:0:0:
241,246,106696,5,2,0:0:0:0:
241,246,106860,2,0,B|287:278|349:254|349:254|363:279|399:302,1,172.5,4|0,0:0|3:0,0:0:0:0:
475,218,107685,2,0,B|494:149|494:149|476:105,1,115,0|2,0:0|0:0,0:0:0:0:
447,59,108179,1,2,0:0:0:0:
447,59,108344,2,0,L|320:91,1,115,4|2,0:0|0:0,0:0:0:0:
245,158,109003,2,0,L|133:129,1,115,2|0,0:0|3:0,0:0:0:0:
40,198,109663,5,4,0:0:0:0:
165,315,110157,1,2,0:0:0:0:
165,315,110322,2,0,L|231:300,2,57.5,2|0|2,0:0|0:0|0:0,0:0:0:0:
55,336,110981,5,4,0:0:0:0:
256,192,111066,12,2,113026,0:0:0:0:
256,63,114127,5,2,0:0:0:0:
256,192,114226,12,0,118895,0:0:0:0:
