osu file format v14

[General]
AudioFilename: audio.mp3
AudioLeadIn: 0
PreviewTime: 57575
Countdown: 0
SampleSet: Soft
StackLeniency: 0.3
Mode: 0
LetterboxInBreaks: 0
WidescreenStoryboard: 0

[Editor]
Bookmarks: 113002,114073,118771
DistanceSpacing: 1.3
BeatDivisor: 4
GridSize: 32
TimelineZoom: 1.4

[Metadata]
Title:Kimi no Kokoro wa Kagayaiteru kai?
TitleUnicode:君のこころは輝いてるかい?
Artist:Aqours
ArtistUnicode:アクア
Creator:Momochikun
Version:Aqua
Source:ラブライブ!サンシャイン!!
Tags:Lovelive! School Idol Project: Sunshine!! xinely no_gu tv size school idol project Inami Anju 伊波杏樹 Aida Rikako 逢田梨香子 Suwa Nanaka 諏訪ななか Komiya Arisa 小宮有紗 Saito Shuka 斉藤朱夏 Kobayashi Aika 小林愛香 Takatsuki Kanako 高槻かなこ Suzuki Aina 鈴木愛奈 Furihata Ai 降幡 愛 Takami Chika 高海千歌 Sakurauchi Riko 桜内梨子 Matsuura Kanan 松浦果南 Kurosawa Dia 黒澤ダイヤ Watanabe You 渡辺 曜 Tsushima Yoshiko 津島善子 Kunikida Hanamaru 国木田花丸 Ohara Mari 小原鞠莉 Kurosawa Ruby 黒澤ルビィ
BeatmapID:1016923
BeatmapSetID:476031

[Difficulty]
HPDrainRate:7
CircleSize:4
OverallDifficulty:7.5
ApproachRate:9.1
SliderMultiplier:1.55
SliderTickRate:1

[Events]
//Background and Video events
0,0,"BG.jpg",0,0
//Break Periods
//Storyboard Layer 0 (Background)
//Storyboard Layer 1 (Fail)
//Storyboard Layer 2 (Pass)
//Storyboard Layer 3 (Foreground)
//Storyboard Sound Samples

[TimingPoints]
2850,329.67032967033,4,2,1,55,1,0
2850,-117.647058823529,4,2,1,55,0,0
8124,-100,4,2,1,65,0,0
10926,-100,4,1,1,45,0,0
11256,-100,4,1,1,55,0,0
11586,-100,4,1,1,65,0,0
11915,-100,4,2,1,75,0,0
12410,-105.263157894737,4,2,1,60,0,0
13069,-105.263157894737,4,2,1,59,0,0
13399,-100,4,1,1,65,0,1
13481,-100,4,1,1,50,0,0
23948,-105.263157894737,4,2,1,60,0,0
33014,-105.263157894737,4,2,1,70,0,0
33839,-105.263157894737,4,2,1,60,0,0
42410,-105.263157894737,4,2,1,65,0,0
43893,-200,4,2,1,65,0,0
44718,-200,4,2,1,50,0,0
45047,-111.111111111111,4,2,1,55,0,0
48839,-105.263157894737,4,2,1,65,0,0
50322,-100,4,2,1,70,0,0
55267,-133.333333333333,4,2,1,55,0,0
55762,-100,4,1,1,45,0,0
56091,-100,4,1,1,55,0,0
56421,-100,4,1,1,65,0,0
56751,-100,4,2,1,70,0,0
58234,-100,4,2,1,75,0,1
62520,-100,4,2,1,65,0,1
62685,-100,4,2,1,75,0,1
63839,-76.9230769230769,4,2,1,80,0,1
64168,-100,4,2,1,75,0,1
65157,-76.9230769230769,4,2,1,80,0,1
65487,-100,4,2,1,75,0,1
67300,-111.111111111111,4,2,1,75,0,1
67795,-100,4,2,1,75,0,1
68124,-100,4,2,1,65,0,1
68454,-100,4,2,1,45,0,0
68784,-100,4,2,1,75,0,1
76860,-100,4,1,1,65,0,1
77190,-100,4,1,1,75,0,1
77520,-100,4,1,1,85,0,1
78179,-125,4,2,1,75,0,0
79003,-83.3333333333333,4,2,1,55,0,0
79333,-100,4,2,1,70,0,1
79415,-100,4,2,1,60,0,0
100432,-117.647058823529,4,2,1,50,0,0
110981,340.909090909091,4,2,1,50,1,0
113026,-117.647058823529,4,2,1,40,0,0
114127,397.350993377483,4,2,1,50,1,0
114226,-100,4,2,1,5,0,0

[Colours]
Combo1 : 68,255,162
Combo2 : 155,155,255
Combo3 : 113,184,255

[HitObjects]
71,104,2850,6,0,P|134:91|187:127,1,131.750002512932,4|0,0:0|0:0,0:0:0:0:
414,253,3509,2,0,P|400:188|384:113,1,131.750002512932,2|2,0:0|0:0,0:0:0:0:
264,199,4003,2,0,P|278:263|291:327,2,131.750002512932,4|0|0,0:0|0:0|3:3,0:0:0:0:
196,147,4828,2,0,P|159:137|130:134,1,65.8750012564659,2|0,0:0|3:0,0:0:0:0:
92,33,5157,2,0,P|129:43|158:46,1,65.8750012564659,2|0,0:0|0:0,0:0:0:0:
326,9,5487,6,0,P|279:51|284:133,1,131.750002512932,4|0,0:0|0:0,0:0:0:0:
356,175,5981,1,2,0:0:0:0:
290,335,6311,1,2,0:0:0:0:
290,335,6641,2,0,B|257:311|257:311|201:329|163:280,1,131.750002512932,4|0,0:0|3:0,0:0:0:0:
68,313,7135,1,2,0:0:0:0:
112,192,7300,2,0,P|163:225|167:306,1,131.750002512932,0|0,3:2|3:0,0:0:0:0:
112,192,7795,2,0,P|124:157|146:131,1,65.8750012564659,0|0,3:0|0:0,0:0:0:0:
256,32,8124,5,4,0:0:0:0:
256,32,8454,2,0,P|260:73|271:116,1,77.5,2|0,3:2|0:0,0:0:0:0:
395,218,8784,2,0,P|404:180|408:141,1,77.5,2|0,3:2|0:0,0:0:0:0:
289,238,9113,1,0,3:0:0:0:
256,32,9278,6,0,P|180:48|86:80,1,155,4|0,0:0|3:0,0:0:0:0:
21,129,9773,1,4,3:0:0:0:
128,211,9937,2,0,P|161:229|203:229,1,77.5,2|0,3:2|3:0,0:0:0:0:
285,188,10266,1,0,3:0:0:0:
234,68,10432,2,0,P|208:97|198:138,1,77.5,2|0,3:2|3:0,0:0:0:0:
324,274,10762,5,4,0:0:0:0:
357,82,10926,1,0,0:0:0:0:
234,213,11091,1,0,0:0:0:0:
425,144,11256,1,0,0:2:0:0:
234,68,11421,5,0,0:0:0:0:
276,242,11586,1,0,0:0:0:0:
394,114,11751,1,0,0:0:0:0:
134,37,11915,2,0,P|121:107|103:202,1,155,4|12,0:0|0:0,0:0:0:0:
294,101,12410,6,0,P|255:109|225:125,1,73.6249980340005,4|0,0:0|0:0,0:0:0:0:
63,303,12740,2,0,P|123:294|156:236,1,110.437497051001,2|0,0:0|0:0,0:0:0:0:
167,223,13069,1,0,1:2:0:0:
191,196,13151,1,0,1:0:0:0:
225,181,13233,1,0,1:0:0:0:
261,182,13316,1,0,1:0:0:0:
296,191,13399,6,0,P|334:201|373:210,1,77.5,4|0,0:0|0:0,0:0:0:0:
444,273,13729,2,2,P|447:312|425:350,1,77.5,10|0,0:0|0:0,0:0:0:0:
296,191,14058,2,0,P|302:154|326:124,1,77.5,2|0,0:0|0:0,0:0:0:0:
401,69,14388,1,10,0:0:0:0:
199,218,14553,6,2,P|142:176|143:82,1,155,2|0,0:0|0:0,0:0:0:0:
296,191,15047,2,2,L|281:269,1,77.5,10|0,0:0|0:0,0:0:0:0:
237,122,15377,1,2,0:0:0:0:
98,234,15542,1,0,0:0:0:0:
141,338,15707,1,10,0:0:0:0:
204,209,15871,1,0,0:0:0:0:
157,98,16036,6,2,P|205:46|294:60,1,155,2|10,0:0|0:0,0:0:0:0:
369,125,16531,2,0,P|411:134|448:142,1,77.5,2|0,0:0|0:0,0:0:0:0:
512,283,16860,2,0,P|470:274|433:266,1,77.5,2|8,0:0|0:0,0:0:0:0:
263,138,17190,6,0,P|203:182|201:262,1,155,2|2,0:0|0:0,0:0:0:0:
314,284,17685,1,8,0:0:0:0:
162,88,17850,1,4,0:2:0:0:
154,75,18179,1,4,0:2:0:0:
143,62,18509,6,0,P|175:124|192:215,1,155,6|0,0:0|0:0,0:0:0:0:
162,327,19003,2,0,P|129:345|88:347,1,77.5,10|0,0:0|0:0,0:0:0:0:
267,195,19333,2,0,P|297:221|306:262,1,77.5,10|0,0:0|0:0,0:0:0:0:
98,172,19663,1,10,0:0:0:0:
162,327,19828,1,0,0:0:0:0:
267,195,19992,6,0,P|283:146|291:115,1,77.5,2|0,0:0|0:0,0:0:0:0:
383,88,20322,1,10,0:0:0:0:
220,23,20487,2,0,P|198:98|176:172,1,155,2|0,0:0|0:0,0:0:0:0:
99,84,20981,1,8,0:0:0:0:
197,265,21146,6,0,P|258:316|345:300,1,155,6|2,0:0|0:0,0:0:0:0:
463,192,21641,1,10,0:0:0:0:
345,220,21806,1,2,0:0:0:0:
486,279,21970,1,0,0:0:0:0:
315,204,22135,1,10,0:0:0:0:
447,102,22300,1,2,0:0:0:0:
256,32,22465,6,2,B|199:40|155:15|155:15|128:29|110:57,1,155,6|2,0:0|0:0,0:0:0:0:
158,197,22959,1,8,0:0:0:0:
322,83,23124,1,0,0:0:0:0:
333,63,23207,1,8,0:0:0:0:
344,41,23289,1,4,0:2:0:0:
215,139,23454,1,4,0:2:0:0:
358,306,23619,1,4,0:2:0:0:
358,306,23948,6,0,P|411:260|416:174,1,147.249996068001,4|8,0:0|0:0,0:0:0:0:
266,212,24443,1,0,0:0:0:0:
357,127,24608,2,0,L|338:46,1,73.6249980340005,2|0,0:0|0:0,0:0:0:0:
234,38,24937,1,8,0:0:0:0:
357,127,25102,6,0,P|425:149|502:168,1,147.249996068001,2|0,0:0|0:0,0:0:0:0:
385,247,25597,2,0,P|345:259|307:272,1,73.6249980340005,8|0,0:0|0:0,0:0:0:0:
173,234,25926,1,2,0:0:0:0:
226,322,26091,1,0,0:0:0:0:
365,180,26256,2,0,P|386:216|383:257,1,73.6249980340005,10|0,0:0|0:0,0:0:0:0:
207,142,26586,6,0,P|214:69|287:36,1,147.249996068001,2|8,0:0|0:0,0:0:0:0:
252,218,27080,2,0,P|181:226|128:179,1,147.249996068001,2|2,0:0|0:0,0:0:0:0:
121,64,27575,1,8,0:0:0:0:
313,97,27740,6,0,B|334:99|353:109|353:109|375:102|375:102|412:128|461:125,1,147.249996068001,2|0,0:0|0:0,0:0:0:0:
343,273,28234,1,8,0:0:0:0:
463,216,28399,1,0,0:0:0:0:
406,342,28564,2,0,L|321:366,1,73.6249980340005,12|0,0:0|0:0,0:0:0:0:
180,249,28893,2,0,L|251:229,1,73.6249980340005,8|0,0:0|0:0,0:0:0:0:
374,77,29223,6,0,P|309:61|251:144,2,147.249996068001,4|8|2,0:0|0:0|0:0,0:0:0:0:
420,202,30047,1,0,0:0:0:0:
326,133,30212,1,8,0:0:0:0:
469,87,30377,2,0,L|492:0,1,73.6249980340005,2|0,0:0|0:0,0:0:0:0:
504,177,30707,5,2,0:0:0:0:
345,219,30871,2,0,L|327:291,1,73.6249980340005,8|0,0:0|0:0,0:0:0:0:
189,303,31201,1,2,0:0:0:0:
345,219,31366,1,0,0:0:0:0:
207,168,31531,1,8,0:0:0:0:
262,334,31696,1,0,0:0:0:0:
207,168,31860,6,0,L|231:82,1,73.6249980340005,4|0,0:0|0:0,0:0:0:0:
43,241,32190,2,0,L|162:215,1,110.437497051001,8|0,0:0|0:0,0:0:0:0:
207,168,32520,2,0,P|170:146|128:145,1,73.6249980340005,2|0,0:0|0:0,0:0:0:0:
43,241,32850,1,8,0:0:0:0:
295,289,33014,6,0,P|363:278|397:210,1,147.249996068001,4|2,0:0|0:0,0:0:0:0:
344,93,33509,1,8,0:0:0:0:
311,206,33674,1,2,0:0:0:0:
453,146,33839,2,0,L|469:60,1,73.6249980340005,12|0,0:0|0:0,0:0:0:0:
295,289,34168,2,0,L|308:361,1,73.6249980340005,12|0,0:0|0:0,0:0:0:0:
512,176,34498,6,0,B|455:174|421:199|421:199|384:177|381:143,1,147.249996068001,4|8,0:0|0:0,0:0:0:0:
308,119,34992,1,0,0:0:0:0:
308,119,35075,1,0,0:0:0:0:
308,119,35157,2,0,L|224:136,1,73.6249980340005,2|0,0:0|0:0,0:0:0:0:
169,74,35487,1,8,0:0:0:0:
80,260,35652,6,0,P|141:270|204:208,1,147.249996068001,2|0,0:0|0:0,0:0:0:0:
80,260,36146,1,8,0:0:0:0:
222,305,36311,1,0,0:0:0:0:
101,153,36476,1,2,0:0:0:0:
198,216,36641,1,0,0:0:0:0:
80,260,36806,2,0,L|61:345,1,73.6249980340005,8|0,0:0|0:0,0:0:0:0:
203,138,37135,6,0,L|231:205,1,73.6249980340005,2|0,0:0|0:0,0:0:0:0:
281,306,37465,1,8,0:0:0:0:
410,133,37630,2,0,P|459:173|460:273,1,147.249996068001,2|2,0:0|0:0,0:0:0:0:
281,306,38124,1,8,0:0:0:0:
331,134,38289,6,0,P|410:109|453:45,1,147.249996068001,4|2,0:0|0:0,0:0:0:0:
204,24,38784,2,0,L|187:99,1,73.6249980340005,8|0,0:0|0:0,0:0:0:0:
303,65,39113,2,0,L|331:135,1,73.6249980340005,12|0,0:0|0:0,0:0:0:0:
61,159,39443,2,0,L|33:229,1,73.6249980340005,8|0,0:0|0:0,0:0:0:0:
123,331,39773,6,0,P|186:374|270:353,1,147.249996068001,4|8,0:0|0:0,0:0:0:0:
245,202,40267,2,0,P|217:233|210:271,1,73.6249980340005,2|0,0:0|0:0,0:0:0:0:
357,169,40597,1,0,0:0:0:0:
245,202,40762,1,8,0:0:0:0:
368,304,40926,5,2,0:0:0:0:
368,304,41009,1,2,0:0:0:0:
368,304,41091,2,0,L|443:286,1,73.6249980340005
498,204,41421,1,8,0:0:0:0:
368,100,41586,2,0,B|331:75|331:75|276:63|233:116,1,147.249996068001,2|0,0:0|0:0,0:0:0:0:
280,263,42080,2,0,P|300:233|301:194,1,73.6249980340005,8|0,0:0|0:0,0:0:0:0:
131,67,42410,6,0,P|83:120|88:207,1,147.249996068001,4|8,0:0|0:0,0:0:0:0:
256,102,42904,1,0,0:0:0:0:
167,185,43069,1,8,0:0:0:0:
287,117,43234,1,0,0:0:0:0:
131,67,43399,1,8,0:0:0:0:
258,232,43564,1,4,0:0:0:0:
445,176,43893,5,8,0:0:0:0:
512,61,44058,1,8,0:0:0:0:
364,128,44223,2,0,L|344:254,1,116.25,4|2,0:0|0:0,0:0:0:0:
377,360,45047,6,0,P|392:314|339:240,1,139.499995742798,4|0,0:0|0:0,0:0:0:0:
309,318,45542,1,2,3:2:0:0:
423,291,45707,2,0,P|474:246|476:173,1,139.499995742798,8|0,0:0|0:0,0:0:0:0:
403,101,46201,1,0,3:0:0:0:
293,191,46366,6,0,L|220:175,1,69.749997871399,2|0,0:0|3:0,0:0:0:0:
157,232,46696,2,0,L|84:216,1,69.749997871399,0|2,3:0|0:0,0:0:0:0:
65,133,47025,1,8,0:0:0:0:
180,46,47190,1,2,0:0:0:0:
246,110,47355,2,0,L|224:176,1,69.749997871399,2|0,3:2|0:0,0:0:0:0:
140,328,47685,6,0,P|91:290|101:197,1,139.499995742798,2|0,3:2|0:0,0:0:0:0:
134,69,48179,1,2,3:2:0:0:
214,119,48344,2,0,L|193:195,1,69.749997871399,8|0,0:0|3:0,0:0:0:0:
206,200,48591,1,4,3:0:0:0:
217,213,48674,1,0,3:0:0:0:
354,75,48839,6,0,P|419:36|492:34,1,147.249996068001,4|8,0:0|0:0,0:0:0:0:
383,189,49333,1,8,0:0:0:0:
187,153,49498,2,0,P|140:116|132:32,1,147.249996068001,4|8,0:0|0:0,0:0:0:0:
256,64,49992,1,8,0:0:0:0:
187,153,50157,1,0,1:3:0:0:
369,229,50322,6,0,P|407:218|451:208,1,77.5,4|2,0:0|0:0,0:0:0:0:
385,115,50652,1,8,0:0:0:0:
286,310,50817,2,0,P|220:321|163:240,1,155,2|2,0:0|0:0,0:0:0:0:
256,96,51311,1,8,0:0:0:0:
313,210,51476,1,2,0:0:0:0:
113,150,51641,6,0,P|76:134|28:131,1,77.5,4|2,0:0|0:0,0:0:0:0:
56,225,51970,1,8,0:0:0:0:
267,172,52135,2,0,L|254:86,1,77.5,2|0,0:0|0:0,0:0:0:0:
346,81,52465,1,8,0:0:0:0:
156,113,52630,1,8,0:0:0:0:
409,35,52795,6,0,P|470:77|466:166,1,155,4|0,0:0|0:0,0:0:0:0:
411,279,53289,2,0,L|485:301,1,77.5,8|0,0:0|0:0,0:0:0:0:
291,185,53619,2,0,L|209:160,1,77.5,8|0,0:0|0:0,0:0:0:0:
419,362,53948,2,0,L|493:384,1,77.5,8|0,0:0|0:0,0:0:0:0:
256,256,54278,6,0,P|239:295|236:333,1,77.5,4|0,0:0|0:0,0:0:0:0:
405,212,54608,1,8,0:0:0:0:
299,84,54773,2,0,B|244:96|244:96|206:87|206:87|145:102,1,155,4|0,0:0|0:0,0:0:0:0:
49,176,55267,1,8,0:0:0:0:
49,176,55597,5,4,0:0:0:0:
145,205,55762,1,0,0:0:0:0:
197,359,55926,1,0,0:0:0:0:
99,334,56091,1,0,0:0:0:0:
271,161,56256,5,0,0:0:0:0:
314,338,56421,1,0,0:0:0:0:
153,254,56585,1,0,0:0:0:0:
390,111,56750,1,4,0:0:0:0:
390,111,57080,5,8,0:0:0:0:
147,157,57245,1,8,0:0:0:0:
256,32,57410,5,0,0:0:0:0:
256,32,57492,1,0,0:0:0:0:
256,32,57575,2,0,L|215:19,1,38.75,2|0,0:0|0:0,0:0:0:0:
125,101,57740,2,0,L|161:112,1,38.75,0|0,3:0|0:0,0:0:0:0:
270,179,57904,1,4,0:0:0:0:
281,212,57987,1,0,0:0:0:0:
292,244,58069,1,2,0:0:0:0:
303,277,58152,1,0,0:0:0:0:
310,310,58234,6,0,P|295:349|284:384,1,77.5,4|0,0:0|0:0,0:0:0:0:
124,228,58564,2,0,P|167:215|199:207,1,77.5,8|0,0:0|0:0,0:0:0:0:
363,253,58893,1,2,0:0:0:0:
309,116,59058,1,0,0:0:0:0:
198,207,59223,1,8,0:0:0:0:
405,151,59388,6,0,P|415:80|355:34,1,155,4|0,0:0|0:0,0:0:0:0:
233,134,59882,2,0,P|277:123|314:115,1,77.5,8|0,0:0|0:0,0:0:0:0:
147,79,60212,1,2,0:0:0:0:
299,216,60377,1,0,0:0:0:0:
140,279,60542,2,0,P|116:244|119:204,1,77.5,8|0,0:0|0:0,0:0:0:0:
147,79,60871,6,0,L|222:63,1,77.5,4|0,0:0|0:0,0:0:0:0:
82,186,61201,1,8,0:0:0:0:
222,62,61366,1,0,0:0:0:0:
80,22,61531,1,2,0:0:0:0:
210,214,61696,1,0,0:0:0:0:
74,153,61860,1,8,0:0:0:0:
256,320,62025,6,0,P|317:329|372:255,1,155,4|2,0:0|0:0,0:0:0:0:
314,165,62520,1,12,0:0:0:0:
256,320,62685,1,2,0:0:0:0:
224,196,62850,6,0,L|189:66,1,116.25,4|0,0:0|0:0,0:0:0:0:
224,39,63179,2,0,L|254:151,1,116.25,4|0,0:0|0:0,0:0:0:0:
298,231,63509,2,0,P|338:247|377:245,1,77.5,2|0,0:0|0:0,0:0:0:0:
447,225,63756,5,0,0:0:0:0:
447,225,63839,2,0,P|410:277|409:334,1,100.749995388031,12|0,0:0|0:0,0:0:0:0:
309,366,64168,5,2,0:0:0:0:
125,331,64333,1,0,0:0:0:0:
184,257,64498,2,0,L|306:228,1,116.25,8|0,0:0|0:0,0:0:0:0:
325,178,64828,2,0,L|227:200,1,77.5,2|0,0:0|0:0,0:0:0:0:
179,153,65075,5,0,0:0:0:0:
179,153,65157,2,0,P|181:100|140:58,1,100.749995388031,12|0,0:0|0:0,0:0:0:0:
64,228,65487,5,2,0:0:0:0:
179,153,65652,1,8,0:0:0:0:
61,97,65817,1,8,0:0:0:0:
159,265,65981,1,2,0:0:0:0:
307,223,66146,5,4,0:0:0:0:
148,163,66311,1,10,0:0:0:0:
329,36,66476,1,8,0:0:0:0:
193,71,66641,2,0,P|151:61|113:47,1,77.5,4|8,0:0|0:0,0:0:0:0:
326,258,66970,2,0,P|366:243|404:233,1,77.5,4|8,0:0|0:0,0:0:0:0:
256,32,67300,6,0,P|205:74|210:154,1,139.499995742798,4|8,0:0|0:0,0:0:0:0:
385,207,67795,1,4,0:0:0:0:
340,73,67959,1,0,3:0:0:0:
217,265,68124,5,12,0:0:0:0:
463,185,68289,1,8,0:0:0:0:
260,288,68454,1,8,0:0:0:0:
222,298,68536,1,8,0:0:0:0:
184,308,68618,1,8,0:0:0:0:
147,319,68701,1,0,0:0:0:0:
109,329,68784,6,0,L|184:344,1,77.5,4|0,0:0|0:0,0:0:0:0:
367,149,69113,2,0,L|296:180,1,77.5,8|0,0:0|0:0,0:0:0:0:
195,220,69443,1,2,0:0:0:0:
369,251,69608,1,0,0:0:0:0:
231,97,69773,1,8,0:0:0:0:
418,67,69937,6,0,P|475:113|479:200,1,155,4|0,0:0|0:0,0:0:0:0:
393,361,70432,2,0,P|385:325|373:281,1,77.5,8|0,0:0|0:0,0:0:0:0:
298,169,70762,1,2,0:0:0:0:
138,246,70926,1,0,0:0:0:0:
252,317,71091,1,10,0:0:0:0:
201,154,71256,1,0,0:0:0:0:
339,207,71421,6,0,P|414:187|506:167,1,155,4|8,0:0|0:0,0:0:0:0:
285,337,71915,2,0,L|244:267,1,77.5,2|0,0:0|0:0,0:0:0:0:
220,101,72245,1,2,0:0:0:0:
339,207,72410,1,8,0:0:0:0:
146,171,72575,6,2,B|89:163|47:189|47:189|17:176|0:146,1,155,4|2,0:0|0:0,0:0:0:0:
157,56,73069,1,8,0:0:0:0:
256,255,73234,2,0,P|307:208|302:123,1,155,4|10,0:0|0:0,0:0:0:0:
208,87,73729,1,8,0:0:0:0:
177,219,73893,1,8,0:0:0:0:
362,301,74058,6,0,L|520:259,2,155,4|8|2,0:0|0:0|0:0,0:0:0:0:
256,256,74882,1,0,0:0:0:0:
346,187,75047,1,8,0:0:0:0:
182,338,75212,6,0,P|131:295|130:193,1,155,4|2,0:0|0:0,0:0:0:0:
167,120,75707,1,8,0:0:0:0:
348,45,75871,2,0,P|398:87|403:191,1,155,4|8,0:0|0:0,0:0:0:0:
346,240,76366,1,8,0:0:0:0:
256,215,76531,1,2,0:0:0:0:
215,318,76696,5,4,0:0:0:0:
293,111,76860,1,0,0:0:0:0:
123,265,77025,5,0,0:0:0:0:
364,169,77190,1,0,0:0:0:0:
155,107,77355,5,0,0:0:0:0:
276,255,77520,1,0,0:0:0:0:
319,59,77685,5,0,0:0:0:0:
107,281,77850,1,4,0:2:0:0:
95,297,78179,5,12,0:0:0:0:
209,96,78344,2,0,P|192:162|173:232,1,124,12|2,0:0|0:0,0:0:0:0:
62,161,78839,1,0,3:0:0:0:
177,22,79003,2,0,P|214:13|240:16,1,46.4999985809327,8|8,0:0|0:0,0:0:0:0:
308,36,79168,2,0,P|339:56|356:76,1,46.4999985809327,8|8,0:0|0:0,0:0:0:0:
368,140,79333,6,4,L|350:216,1,77.5,4|0,0:0|0:0,0:0:0:0:
193,314,79663,2,0,L|214:227,1,77.5,8|0,0:0|0:0,0:0:0:0:
306,286,79992,2,0,P|377:294|428:230,1,155,2|8,0:0|0:0,0:0:0:0:
378,63,80487,6,0,P|363:143|347:230,1,155,2|2,0:0|0:0,0:0:0:0:
480,52,80981,1,8,0:0:0:0:
449,159,81146,1,0,0:0:0:0:
225,88,81311,2,0,P|263:80|301:72,1,77.5,2|0,0:0|0:0,0:0:0:0:
241,226,81641,2,0,P|183:238|162:243,1,77.5,8|0,0:0|0:0,0:0:0:0:
225,88,81970,5,2,0:0:0:0:
326,179,82135,1,0,0:0:0:0:
151,319,82300,2,0,P|102:293|110:195,1,155,8|2,0:0|0:0,0:0:0:0:
244,142,82795,1,0,0:0:0:0:
165,242,82959,1,8,0:0:0:0:
193,75,83124,6,2,P|288:50|355:31,1,155,4|2,0:0|0:0,0:0:0:0:
437,117,83619,1,8,0:0:0:0:
333,68,83784,1,2,0:0:0:0:
512,35,83948,1,2,0:0:0:0:
322,97,84113,1,0,0:0:0:0:
507,175,84278,2,0,P|496:216|482:252,1,77.5,8|0,0:0|0:0,0:0:0:0:
365,357,84608,6,0,B|310:326|252:337|252:337|215:306,1,155,4|8,0:0|0:0,0:0:0:0:
143,235,85102,1,0,0:0:0:0:
296,89,85267,1,2,0:0:0:0:
214,160,85432,1,0,0:0:0:0:
323,194,85597,1,8,0:0:0:0:
153,57,85762,6,0,B|106:128|106:128|126:158|122:195,1,155,4|2,0:0|0:0,0:0:0:0:
221,259,86256,1,8,0:0:0:0:
132,322,86421,1,2,0:0:0:0:
276,358,86586,2,0,P|317:357|352:333,1,77.5,2|0,0:0|0:0,0:0:0:0:
329,161,86915,2,0,P|299:193|292:229,1,77.5,8|0,2:0|2:0,2:0:0:0:
432,329,87245,5,4,0:0:0:0:
503,263,87410,1,0,0:0:0:0:
480,169,87575,2,0,B|403:194|397:139|329:162,1,155,8|2,0:0|0:0,0:0:0:0:
244,293,88069,1,0,0:0:0:0:
383,250,88234,1,8,0:0:0:0:
291,358,88399,6,0,P|233:375|165:299,1,155,4|2,0:0|0:0,0:0:0:0:
190,153,88893,1,8,0:0:0:0:
244,293,89058,1,2,0:0:0:0:
122,225,89223,1,0,0:0:0:0:
304,154,89388,1,2,0:0:0:0:
167,317,89553,1,8,0:0:0:0:
217,125,89718,5,8,0:0:0:0:
217,125,89800,1,8,0:0:0:0:
217,125,89882,2,0,P|207:87|197:49,1,77.5,4|0,0:0|0:0,0:0:0:0:
31,218,90212,2,0,P|69:228|107:238,1,77.5,8|0,0:0|0:0,0:0:0:0:
231,225,90542,1,2,0:0:0:0:
161,133,90707,1,0,0:0:0:0:
307,78,90871,1,8,0:0:0:0:
121,60,91036,6,2,L|83:215,1,155
255,293,91531,2,0,P|258:254|233:211,1,77.5,8|0,0:0|0:0,0:0:0:0:
196,373,91860,1,2,0:0:0:0:
335,242,92025,1,0,0:0:0:0:
162,272,92190,1,8,0:0:0:0:
335,358,92355,5,8,0:0:0:0:
335,358,92437,1,8,0:0:0:0:
335,358,92520,2,0,P|398:365|453:297,1,155,4|8,0:0|0:0,0:0:0:0:
335,358,93014,2,0,L|243:381,1,77.5,2|0,0:0|0:0,0:0:0:0:
191,297,93344,1,2,0:0:0:0:
91,330,93509,1,8,0:0:0:0:
284,149,93674,6,0,P|236:100|131:123,1,155,4|2,0:0|0:0,0:0:0:0:
12,206,94168,1,12,0:0:0:0:
110,172,94333,1,2,0:0:0:0:
36,117,94498,1,8,0:0:0:0:
176,235,94663,1,8,0:0:0:0:
3,300,94828,1,8,0:0:0:0:
282,341,94992,6,0,B|315:240|315:240|286:199,1,155,4|0,0:0|0:0,0:0:0:0:
154,122,95487,2,0,L|232:104,1,77.5,8|0,0:0|0:0,0:0:0:0:
347,258,95817,2,0,L|271:275,1,77.5,2|0,0:0|0:0,0:0:0:0:
125,209,96146,2,0,L|200:191,1,77.5,8|0,0:0|0:0,0:0:0:0:
397,324,96476,6,0,L|321:341,1,77.5,4|0,0:0|0:0,0:0:0:0:
226,299,96806,1,8,0:0:0:0:
379,220,96970,2,0,P|440:168|445:82,1,155,2|2,0:0|0:0,0:0:0:0:
389,26,97465,1,8,0:0:0:0:
241,149,97630,6,0,P|257:219|272:307,1,155,4|2,0:0|0:0,0:0:0:0:
379,220,98124,1,8,0:0:0:0:
193,319,98289,2,0,P|254:375|334:353,1,155,12|0,0:0|3:0,0:0:0:0:
412,207,98784,2,0,P|393:247|388:279,1,77.5,8|0,0:0|0:0,0:0:0:0:
481,147,99113,1,4,0:0:0:0:
256,192,99196,12,4,100432,0:0:0:0:
369,252,101091,6,0,P|318:211|256:192,1,131.750002512932,2|0,0:0|0:0,0:0:0:0:
175,183,101586,2,0,P|239:146|265:89,2,131.750002512932,4|0|0,0:0|0:0|3:0,0:0:0:0:
102,228,102410,2,0,P|86:255|75:287,1,65.8750012564659,2|0,0:0|3:0,0:0:0:0:
105,136,102740,2,0,P|73:122|43:116,1,65.8750012564659,0|0,3:0|0:0,0:0:0:0:
194,256,103069,6,0,L|339:223,1,131.750002512932,4|0,0:0|0:0,0:0:0:0:
372,116,103564,2,0,L|243:145,1,131.750002512932,2|2,0:0|0:0,0:0:0:0:
396,328,104223,2,0,P|429:293|421:206,1,131.750002512932,4|2,0:0|0:0,0:0:0:0:
347,176,104718,1,0,0:0:0:0:
244,121,104882,2,0,P|235:184|274:235,1,131.750002512932,2|0,3:2|3:0,0:0:0:0:
347,176,105377,1,0,3:0:0:0:
150,233,105707,6,0,B|189:255|189:255|276:234,1,131.750002512932,4|2,0:0|0:0,0:0:0:0:
470,345,106366,2,0,L|343:310,1,131.750002512932,2|2,0:0|0:0,0:0:0:0:
379,220,106860,2,0,P|389:167|342:104,1,131.750002512932,4|2,0:0|3:2,0:0:0:0:
212,192,107355,1,0,3:0:0:0:
212,192,107520,2,0,P|202:245|249:308,1,131.750002512932,2|0,0:0|0:0,0:0:0:0:
322,341,108014,1,2,0:0:0:0:
395,297,108179,1,2,0:0:0:0:
454,358,108344,6,0,P|438:292|425:225,1,131.750002512932,4|2,0:0|0:0,0:0:0:0:
466,153,108839,2,0,L|486:84,1,65.8750012564659,0|2,0:0|0:0,0:0:0:0:
327,21,109333,1,0,3:0:0:0:
256,192,109663,1,4,0:0:0:0:
256,192,110157,5,2,0:0:0:0:
256,192,110322,2,0,P|223:206|190:208,1,65.8750012564659,2|0,0:0|0:0,0:0:0:0:
319,140,110652,2,0,P|361:177|368:254,1,131.750002512932,2|4,0:0|0:0,0:0:0:0:
256,192,111066,12,2,113026,0:0:0:0:
256,64,114127,5,2,0:0:0:0:
256,192,114226,12,0,118895,0:0:0:0:
