osu file format v14

[General]
AudioFilename: audio.mp3
AudioLeadIn: 0
PreviewTime:67231
Countdown: 0
SampleSet: Soft
StackLeniency: 0.6
Mode: 0
LetterboxInBreaks: 0
WidescreenStoryboard: 1

[Editor]
DistanceSpacing: 1.2
BeatDivisor: 4
GridSize: 4
TimelineZoom: 2.4

[Metadata]
Title:Kimeta yo Hand in Hand (TV Size)
TitleUnicode:決めたよHand in Hand (TV Size)
Artist:Aqours
ArtistUnicode:Aqours
Creator:browiec
Version:Normal
Source:ラブライブ!サンシャイン!!
Tags:lovelive! sunshine!! love live school idol project season 1 episode insert song short version ver. xenon- xen xehn kowari -_ex_- japanese pop j-pop jpop anime 畑亜貴 Aki Hata 渡辺拓也 Takuya Takami Chika 高海千歌 Sakurauchi Riko 桜内梨子 Watanabe You 渡辺曜 Inami Anju 伊波杏樹 Aida Rikako 逢田梨香子 Saitou Shuka 斉藤朱夏 CHRONICLE Sailing to the Sunshine ex
BeatmapID:2726494
BeatmapSetID:1315700

[Difficulty]
HPDrainRate:3
CircleSize:3.4
OverallDifficulty:4.6
ApproachRate:5.2
SliderMultiplier:0.999999999999999
SliderTickRate:1

[Events]
//Background and Video events
0,0,"3 successful people.jpeg",0,0
//Break Periods
2,92785,94213
//Storyboard Layer 0 (Background)
//Storyboard Layer 1 (Fail)
//Storyboard Layer 2 (Pass)
//Storyboard Layer 3 (Foreground)
//Storyboard Layer 4 (Overlay)
//Storyboard Sound Samples

[TimingPoints]
-84,314.13612565445,4,2,1,50,1,0
858,-111.111111111111,4,2,1,50,0,0
5884,-111.111111111111,4,2,1,60,0,0
6198,-105.263157894737,4,2,1,60,0,0
11224,-100,4,2,1,70,0,0
22533,-100,4,2,1,60,0,0
42638,-100,4,2,1,70,0,0
47664,-100,4,2,1,60,0,0
62743,-100,4,2,1,70,0,0
67769,-95.2380952380952,4,2,1,80,0,0
82847,-100,4,2,1,70,0,0
90387,-100,4,2,1,80,0,0
91643,-100,4,2,1,70,0,0
92429,-100,4,2,1,60,0,0
95413,-100,4,2,1,70,0,0
97298,-100,4,2,1,50,0,0

[Colours]
Combo1 : 132,132,255
Combo2 : 230,89,111
Combo3 : 245,160,75
Combo4 : 244,240,83

[HitObjects]
88,128,858,5,2,0:2:0:0:
156,188,1172,2,0,L|247:176,1,89.999997253418,2|10,0:2|0:2,0:2:0:0:
280,148,1643,1,2,0:2:0:0:
352,96,1957,1,2,0:2:0:0:
424,152,2272,2,0,B|440:196|440:196|424:244,1,89.999997253418,2|2,0:2|0:2,0:2:0:0:
396,272,2743,1,10,0:2:0:0:
328,328,3057,1,2,0:2:0:0:
252,280,3371,1,10,0:2:0:0:
256,192,3685,6,0,L|267:100,1,89.999997253418,2|10,0:2|0:2,0:2:0:0:
240,64,4156,1,2,0:2:0:0:
156,32,4470,1,2,0:2:0:0:
84,84,4785,2,0,B|68:128|68:128|84:176,1,89.999997253418,2|2,0:2|0:2,0:2:0:0:
100,212,5256,1,10,0:2:0:0:
176,260,5570,2,0,L|219:254,1,44.999998626709,2|8,0:2|3:2,0:0:0:0:
264,244,5884,1,14,0:2:0:0:
332,312,6198,6,0,L|427:323,1,94.9999974632263,10|10,0:2|0:2,0:2:0:0:
492,256,6826,2,0,L|503:160,1,94.9999974632263,8|8,0:2|0:2,0:0:0:0:
452,80,7455,1,8,0:2:0:0:
368,124,7769,1,10,0:2:0:0:
308,52,8083,2,0,L|260:46,1,47.4999987316131,10|8,3:2|3:2,0:0:0:0:
212,44,8397,1,10,0:2:0:0:
136,100,8711,6,0,P|120:144|136:196,1,94.9999974632263,14|10,0:2|0:2,0:2:0:0:
204,252,9340,2,0,P|220:296|204:348,1,94.9999974632263,8|8,0:2|0:2,0:0:0:0:
168,364,9811,1,14,0:2:0:0:
76,348,10125,2,0,L|70:300,1,47.4999987316131,2|8,3:2|3:2,0:0:0:0:
44,260,10439,1,2,3:2:0:0:
96,180,10753,2,0,L|101:132,2,47.4999987316131,8|10|8,0:2|0:2|0:2,0:0:0:0:
132,216,11224,6,0,L|231:228,1,99.9999999999999,14|8,0:2|0:2,0:2:0:0:
280,236,11696,1,0,3:2:0:0:
360,176,12010,2,0,L|366:124,1,50,0|8,3:2|0:2,0:0:0:0:
372,76,12324,1,0,3:2:0:0:
300,16,12638,1,0,3:2:0:0:
300,16,12795,2,0,L|248:22,1,50,8|0,0:2|3:2,0:0:0:0:
204,44,13109,1,10,0:2:0:0:
164,136,13423,1,10,0:2:0:0:
232,212,13737,6,0,B|284:224|284:224|336:212,1,99.9999999999999,14|8,0:2|0:2,0:2:0:0:
372,188,14209,1,0,3:2:0:0:
472,204,14523,2,0,L|478:255,1,50,0|8,3:2|0:2,0:0:0:0:
484,304,14837,1,0,3:2:0:0:
408,368,15151,1,2,3:2:0:0:
408,368,15308,2,0,L|356:361,1,50,10|2,0:2|3:2,0:0:0:0:
312,340,15622,1,10,0:2:0:0:
260,256,15936,1,10,0:2:0:0:
320,176,16251,6,0,P|336:128|316:76,1,99.9999999999999,14|8,0:2|0:2,0:2:0:0:
284,48,16722,1,0,3:2:0:0:
196,92,17036,2,0,L|144:85,1,50,0|8,3:2|0:2,0:0:0:0:
96,80,17350,1,0,3:2:0:0:
32,156,17664,1,2,3:2:0:0:
32,156,17821,2,0,L|38:207,1,50,10|2,0:2|3:2,0:0:0:0:
60,252,18135,1,10,0:2:0:0:
144,304,18450,1,10,0:2:0:0:
228,248,18764,6,0,L|240:148,1,99.9999999999999,14|8,0:2|0:2,0:2:0:0:
248,100,19235,1,0,3:2:0:0:
316,28,19549,2,0,L|367:21,1,50,0|8,3:2|0:2,0:0:0:0:
412,44,19863,6,0,P|448:48|484:104,1,99.9999999999999,6|8,3:2|3:2,0:2:0:0:
476,148,20334,1,10,3:2:0:0:
412,224,20648,2,0,L|418:275,1,50,10|8,3:2|3:2,0:0:0:0:
396,320,20963,1,10,3:2:0:0:
396,320,21120,6,0,P|352:336|292:316,1,99.9999999999999,6|8,3:2|3:2,0:2:0:0:
264,288,21591,1,2,3:2:0:0:
260,188,21905,2,0,L|266:136,1,50,10|8,0:2|0:2,0:0:0:0:
244,92,22219,1,10,0:2:0:0:
172,24,22533,5,6,3:2:0:0:
100,96,22847,2,0,P|56:80|-4:100,2,99.9999999999999,10|2|10,0:2|3:2|0:2,0:2:0:0:
160,176,23790,2,0,P|204:192|264:172,1,99.9999999999999,2|10,3:2|0:2,0:2:0:0:
288,144,24261,1,2,3:2:0:0:
372,92,24575,1,2,3:2:0:0:
456,156,24889,1,2,0:2:0:0:
456,156,25046,6,0,L|443:255,2,99.9999999999999,0|8|0,3:2|0:2|3:2,0:2:0:0:
508,72,25989,1,10,0:2:0:0:
424,20,26303,2,0,B|372:8|372:8|320:20,1,99.9999999999999,2|10,3:2|0:2,0:2:0:0:
284,48,26774,1,2,3:2:0:0:
228,132,27088,1,2,3:2:0:0:
292,216,27402,1,2,0:2:0:0:
292,216,27559,6,0,L|391:228,1,99.9999999999999,4|8,3:2|0:2,0:2:0:0:
440,212,28031,1,2,0:2:0:0:
440,212,28188,1,2,3:2:0:0:
500,292,28502,1,8,0:2:0:0:
436,368,28816,2,0,L|384:361,1,50,2|0,3:2|3:2,0:2:0:0:
336,348,29130,1,10,0:2:0:0:
244,308,29444,2,0,P|231:260|247:213,1,99.9999999999999,2|10,0:2|0:2,0:0:0:0:
336,168,30073,5,2,3:2:0:0:
356,72,30387,1,10,0:2:0:0:
280,8,30701,2,0,L|228:14,1,50,2|0,3:2|3:2,0:0:0:0:
180,28,31015,1,10,0:2:0:0:
108,96,31329,2,0,P|95:143|111:190,1,99.9999999999999,0|8,3:2|0:2,0:2:0:0:
144,232,31800,1,0,3:2:0:0:
144,232,31957,2,0,L|150:283,2,50,10|8|10,0:2|0:2|0:2,0:0:0:0:
216,160,32586,5,6,3:2:0:0:
300,212,32900,2,0,B|352:200|352:200|404:212,2,99.9999999999999,10|2|10,0:2|3:2|0:2,0:2:0:0:
252,300,33842,2,0,L|152:312,1,99.9999999999999,2|10,3:2|0:2,0:2:0:0:
104,324,34313,1,6,3:2:0:0:
36,252,34628,2,0,L|29:200,1,50,2|8,3:2|0:2,0:0:0:0:
56,160,34942,1,6,3:2:0:0:
56,160,35099,6,0,L|68:60,2,99.9999999999999,2|8|0,0:2|0:2|3:2,0:2:0:0:
136,220,36041,1,10,0:2:0:0:
208,152,36355,2,0,P|254:135|302:148,1,99.9999999999999,2|10,3:2|0:2,0:0:0:0:
328,192,36826,1,2,3:2:0:0:
408,252,37141,1,2,3:2:0:0:
488,192,37455,1,2,0:2:0:0:
488,192,37612,6,0,L|475:92,1,99.9999999999999,4|8,3:2|0:2,0:2:0:0:
460,44,38083,1,2,0:2:0:0:
460,44,38240,1,2,3:2:0:0:
368,0,38554,1,8,0:2:0:0:
300,72,38868,2,0,L|306:123,1,50,2|0,3:2|3:2,0:0:0:0:
320,172,39182,1,10,0:2:0:0:
268,256,39497,2,0,P|221:272|173:259,1,99.9999999999999,2|10,0:2|0:2,0:0:0:0:
104,188,40125,5,2,3:2:0:0:
120,88,40439,1,10,0:2:0:0:
212,48,40753,2,0,P|258:31|306:44,1,99.9999999999999,2|10,3:2|0:2,0:0:0:0:
352,76,41224,1,2,0:2:0:0:
352,76,41381,1,0,3:2:0:0:
424,148,41696,2,0,L|417:199,1,50,8|2,0:2|3:2,0:0:0:0:
452,236,42010,2,0,B|464:288|464:288|452:340,1,99.9999999999999,2|10,0:2|0:2,0:2:0:0:
416,364,42481,1,2,0:2:0:0:
416,364,42638,6,0,L|316:351,1,99.9999999999999,12|8,0:2|0:2,0:2:0:0:
276,324,43109,1,0,3:2:0:0:
228,236,43423,2,0,L|234:184,1,50,0|8,3:2|0:2,0:0:0:0:
248,136,43737,1,0,3:2:0:0:
204,52,44052,1,0,3:2:0:0:
204,52,44209,2,0,L|152:45,1,50,8|0,0:2|3:2,0:0:0:0:
108,28,44523,1,10,0:2:0:0:
36,96,44837,1,10,0:2:0:0:
68,192,45151,6,0,P|114:208|162:195,1,99.9999999999999,14|0,0:2|3:2,0:0:0:0:
200,164,45622,2,0,P|246:147|294:160,1,99.9999999999999,14|0,0:2|3:2,0:0:0:0:
324,200,46094,1,14,0:2:0:0:
388,276,46408,2,0,L|439:282,1,50,14|8,0:2|3:2,0:0:0:0:
480,256,46722,2,0,L|486:204,1,50,8|8,0:2|3:2,0:0:0:0:
472,160,47036,1,8,0:2:0:0:
404,84,47350,2,0,L|352:90,1,50,10|10,0:2|3:2,0:0:0:0:
312,60,47664,6,0,P|266:44|218:57,1,99.9999999999999,6|2,3:2|0:2,0:2:0:0:
160,136,48292,1,10,0:2:0:0:
228,208,48607,1,2,0:2:0:0:
180,296,48921,2,0,L|80:309,1,99.9999999999999,2|2,3:2|3:2,0:2:0:0:
40,280,49392,2,0,P|26:232|42:185,1,99.9999999999999,2|2,0:2|3:2,0:2:0:0:
120,120,50020,1,10,0:2:0:0:
120,120,50177,6,0,B|224:84|208:172|312:136,1,200,14|0,3:2|3:2,0:2:0:0:
476,24,51434,2,0,B|536:72|536:72|496:204,1,200,4|0,3:2|3:2,0:2:0:0:
348,320,52690,6,0,L|248:307,1,99.9999999999999,4|2,3:2|0:2,0:2:0:0:
164,252,53319,1,10,0:2:0:0:
176,152,53633,1,2,0:2:0:0:
268,116,53947,2,0,L|368:103,1,99.9999999999999,2|2,3:2|3:2,0:2:0:0:
408,132,54418,2,0,P|422:180|406:227,1,99.9999999999999,2|2,0:2|3:2,0:2:0:0:
316,264,55046,1,10,0:2:0:0:
316,264,55203,6,0,P|256:248|200:316,1,150,6|0,3:2|3:2,0:2:0:0:
168,344,55832,1,8,0:2:0:0:
76,380,56146,1,8,0:2:0:0:
0,316,56460,2,0,L|6:264,1,50,10|10,0:2|0:2,0:0:0:0:
40,232,56774,2,0,L|34:180,1,50,10|10,0:2|0:2,0:0:0:0:
60,140,57088,1,10,0:2:0:0:
136,72,57402,1,14,0:2:0:0:
224,124,57717,6,0,B|276:136|276:136|328:124,1,99.9999999999999,6|2,3:2|0:2,0:2:0:0:
380,44,58345,1,10,0:2:0:0:
472,76,58659,1,2,0:2:0:0:
476,176,58973,2,0,L|463:276,1,99.9999999999999,2|2,3:2|3:2,0:2:0:0:
428,312,59444,2,0,B|376:324|376:324|324:312,1,99.9999999999999,2|2,0:2|3:2,0:2:0:0:
260,252,60073,1,10,0:2:0:0:
260,252,60230,6,0,B|244:184|244:184|272:132|272:132|256:60,1,200,6|0,3:2|3:2,0:2:0:0:
60,16,61486,2,0,P|16:48|88:152,1,200,6|0,3:2|3:2,0:2:0:0:
228,28,62743,5,4,3:2:0:0:
320,64,63057,1,10,0:2:0:0:
328,164,63371,2,0,L|322:216,1,50,10|8,0:2|0:2,0:0:0:0:
292,252,63685,2,0,L|298:304,1,50,10|8,0:2|0:2,0:0:0:0:
328,340,63999,6,0,B|380:352|380:352|432:340,1,99.9999999999999,10|2,0:2|3:2,0:2:0:0:
460,304,64470,1,10,0:2:0:0:
504,212,64785,1,14,0:2:0:0:
444,140,65099,1,2,3:2:0:0:
444,140,65256,6,0,L|344:127,1,99.9999999999999,10|0,0:2|3:2,0:0:0:0:
308,92,65727,2,0,L|208:105,1,99.9999999999999,10|0,0:2|3:2,0:0:0:0:
176,144,66198,1,10,0:2:0:0:
88,96,66512,1,10,0:2:0:0:
196,376,67298,5,2,3:2:0:0:
196,376,67455,1,14,0:2:0:0:
276,308,67769,6,0,P|292:256|272:200,1,104.999996795654,14|10,0:2|0:2,0:2:0:0:
240,172,68240,2,0,L|136:159,1,104.999996795654,2|2,3:2|3:2,0:0:0:0:
32,176,68868,1,2,3:2:0:0:
4,276,69183,1,2,3:2:0:0:
72,356,69497,2,0,L|175:343,1,104.999996795654,2|2,3:2|3:2,0:0:0:0:
212,308,69968,1,10,0:2:0:0:
304,360,70282,6,0,P|356:376|412:356,1,104.999996795654,14|10,0:2|0:2,0:2:0:0:
436,324,70753,2,0,L|442:272,1,52.4999983978271,2|8,3:2|0:2,0:0:0:0:
460,224,71067,1,10,0:2:0:0:
404,136,71381,2,0,P|352:120|296:140,1,104.999996795654,6|8,3:2|0:2,0:2:0:0:
264,168,71853,1,8,0:2:0:0:
188,240,72167,2,0,L|136:233,1,52.4999983978271,8|10,0:2|0:2,0:0:0:0:
88,216,72481,1,10,0:2:0:0:
36,124,72795,6,0,P|49:73|87:39,1,104.999996795654,14|10,0:2|0:2,0:2:0:0:
140,28,73266,2,0,L|243:40,1,104.999996795654,2|2,3:2|3:2,0:0:0:0:
320,112,73895,1,2,3:2:0:0:
268,204,74209,1,2,3:2:0:0:
324,292,74523,2,0,P|376:308|432:288,1,104.999996795654,2|2,3:2|3:2,0:0:0:0:
460,256,74994,1,10,0:2:0:0:
492,156,75308,6,0,P|479:102|434:64,1,104.999996795654,14|10,0:2|0:2,0:2:0:0:
400,40,75779,2,0,L|348:47,1,52.4999983978271,2|8,3:2|0:2,0:0:0:0:
300,64,76093,1,10,0:2:0:0:
244,156,76408,2,0,L|256:259,1,104.999996795654,6|8,3:2|0:2,0:2:0:0:
232,308,76879,1,8,0:2:0:0:
148,368,77193,2,0,L|96:361,1,52.4999983978271,8|8,0:2|0:2,0:0:0:0:
48,344,77507,1,8,0:2:0:0:
0,252,77821,5,4,3:2:0:0:
64,168,78135,2,0,L|76:63,2,104.999996795654,10|2|10,0:2|3:2|0:2,0:2:0:0:
108,264,79078,1,0,3:2:0:0:
196,204,79392,2,0,P|248:220|304:200,2,104.999996795654,10|2|10,0:2|0:2|0:2,0:2:0:0:
144,112,80334,6,0,P|157:61|195:27,1,104.999996795654,6|10,3:2|0:2,0:0:0:0:
248,24,80806,1,10,0:2:0:0:
336,84,81120,1,10,0:2:0:0:
424,28,81434,2,0,P|460:64|471:115,1,104.999996795654,6|0,3:2|3:2,0:2:0:0:
444,160,81905,1,8,0:2:0:0:
384,248,82219,2,0,L|332:255,1,52.4999983978271,8|8,0:2|0:2,0:0:0:0:
288,228,82533,1,10,0:2:0:0:
252,136,82847,6,0,P|196:108|120:128,1,133.333333333333,6|2,3:2|3:2,0:2:0:0:
82,187,83476,2,0,P|85:249|141:305,1,133.333333333333,6|2,3:2|3:2,0:2:0:0:
209,316,84104,1,6,3:2:0:0:
440,208,84889,5,0,3:2:0:0:
440,208,85046,1,10,0:2:0:0:
368,140,85361,6,0,L|233:156,1,133.333333333333,6|2,3:2|3:2,0:2:0:0:
158,176,85989,2,0,L|174:310,1,133.333333333333,6|2,3:2|3:2,0:2:0:0:
203,383,86618,1,6,3:2:0:0:
356,372,87088,5,2,0:2:0:0:
356,372,87245,2,0,L|456:360,1,99.9999999999999,10|10,0:2|0:2,0:2:0:0:
500,272,87874,6,0,P|516:226|503:178,1,99.9999999999999,14|0,0:2|3:2,0:2:0:0:
468,144,88345,2,0,P|422:128|374:141,1,99.9999999999999,14|0,0:2|3:2,0:2:0:0:
340,176,88816,1,10,0:2:0:0:
268,244,89130,1,10,0:2:0:0:
180,200,89444,1,0,3:2:0:0:
176,100,89758,2,0,L|169:48,1,50,10|10,0:2|0:2,0:0:0:0:
128,20,90073,2,0,L|76:27,1,50,10|10,0:2|0:2,0:0:0:0:
40,60,90387,6,0,P|26:107|42:154,1,99.9999999999999,14|2,0:2|3:2,0:2:0:0:
84,184,90858,2,0,P|97:231|81:278,1,99.9999999999999,14|0,0:2|3:2,0:2:0:0:
60,324,91329,1,10,0:2:0:0:
152,364,91643,2,0,B|220:380|264:332|264:332|308:360|308:360|360:308|424:332,1,300,10|8,0:2|0:2,0:2:0:0:
328,76,95413,5,10,0:2:0:0:
328,76,95570,2,0,L|228:63,2,99.9999999999999,10|10|10,0:2|0:2|0:2,0:2:0:0:
412,128,96512,1,10,0:2:0:0:
412,228,96826,1,14,0:2:0:0:
328,276,97141,1,10,0:2:0:0:
328,276,97298,2,0,P|276:288|324:188,1,250,14|2,3:2|0:2,0:2:0:0:
