osu file format v14

[General]
AudioFilename: audio.mp3
AudioLeadIn: 0
PreviewTime: 67231
Countdown: 0
SampleSet: Soft
StackLeniency: 0.4
Mode: 0
LetterboxInBreaks: 0
WidescreenStoryboard: 1

[Editor]
Bookmarks: 22533
DistanceSpacing: 2.6
BeatDivisor: 4
GridSize: 4
TimelineZoom: 2.4

[Metadata]
Title:Kimeta yo Hand in Hand (TV Size)
TitleUnicode:決めたよHand in Hand (TV Size)
Artist:Aqours
ArtistUnicode:Aqours
Creator:browiec
Version:Insane
Source:ラブライブ!サンシャイン!!
Tags:lovelive! sunshine!! love live school idol project season 1 episode insert song short version ver. xenon- xen xehn kowari -_ex_- japanese pop j-pop jpop anime 畑亜貴 Aki Hata 渡辺拓也 Takuya Takami Chika 高海千歌 Sakurauchi Riko 桜内梨子 Watanabe You 渡辺曜 Inami Anju 伊波杏樹 Aida Rikako 逢田梨香子 Saitou Shuka 斉藤朱夏 CHRONICLE Sailing to the Sunshine ex
BeatmapID:2726493
BeatmapSetID:1315700

[Difficulty]
HPDrainRate:5
CircleSize:3.8
OverallDifficulty:8.2
ApproachRate:9
SliderMultiplier:1.65
SliderTickRate:1

[Events]
//Background and Video events
0,0,"3 successful people.jpeg",0,0
//Break Periods
2,93100,94499
//Storyboard Layer 0 (Background)
//Storyboard Layer 1 (Fail)
//Storyboard Layer 2 (Pass)
//Storyboard Layer 3 (Foreground)
//Storyboard Layer 4 (Overlay)
//Storyboard Sound Samples

[TimingPoints]
-84,314.13612565445,4,2,1,50,1,0
858,-142.857142857143,4,2,1,50,0,0
1172,-125,4,2,1,50,0,0
5884,-125,4,2,1,60,0,0
6198,-111.111111111111,4,2,1,60,0,0
11224,-100,4,2,1,70,0,0
22533,-111.111111111111,4,2,1,60,0,0
42638,-100,4,2,1,70,0,0
47664,-117.647058823529,4,2,1,60,0,0
62743,-111.111111111111,4,2,1,70,0,0
66984,-111.111111111111,4,2,1,20,0,0
67298,-111.111111111111,4,2,1,70,0,0
67769,-95.2380952380952,4,2,1,80,0,0
82847,-100,4,2,1,70,0,0
84889,-125,4,2,1,70,0,0
85361,-100,4,2,1,70,0,0
87245,-125,4,2,1,70,0,0
87874,-100,4,2,1,70,0,0
90387,-95.2380952380952,4,2,1,80,0,0
91643,-153.846153846154,4,2,1,70,0,0
92429,-100,4,2,1,60,0,0
92900,-125,4,2,1,60,0,0
95413,-111.111111111111,4,2,1,70,0,0
97298,-200,4,2,1,50,0,0

[Colours]
Combo1 : 132,132,255
Combo2 : 230,89,111
Combo3 : 245,160,75
Combo4 : 244,240,83

[HitObjects]
344,356,858,6,0,L|352:299,1,57.7499982376099,2|0,0:2|0:2,0:2:0:0:
380,216,1172,6,0,P|347:208|316:215,1,66,2|2,0:2|0:2,0:2:0:0:
256,292,1486,1,10,0:2:0:0:
160,252,1643,2,0,L|176:383,2,132,2|2|2,0:2|0:2|0:2,0:2:0:0:
76,80,2586,5,2,0:2:0:0:
76,80,2743,2,0,P|108:73|139:80,1,66,10|2,0:2|0:2,0:2:0:0:
184,160,3057,1,2,0:2:0:0:
260,76,3214,1,8,0:2:0:0:
260,76,3371,2,0,L|268:142,1,66,10|0,0:2|0:2,0:2:0:0:
296,248,3685,6,0,P|263:241|232:248,1,66,2|2,0:2|0:2,0:2:0:0:
312,340,3999,1,10,0:2:0:0:
384,280,4156,2,0,B|452:260|444:308|512:292,2,132,2|2|2,0:2|0:2|0:2,0:2:0:0:
232,184,5099,1,2,0:2:0:0:
232,184,5256,6,0,P|240:216|233:247,1,66,10|2,0:2|0:2,0:2:0:0:
172,368,5570,1,2,0:2:0:0:
296,312,5727,1,8,3:2:0:0:
144,248,5884,2,0,L|79:239,1,66,14|0,0:2|0:0,0:2:0:0:
16,80,6198,6,0,P|51:72|87:79,1,74.2499977340699,10|2,0:2|0:2,0:2:0:0:
160,152,6512,1,10,0:2:0:0:
240,64,6669,2,0,L|249:137,1,74.2499977340699,2|8,0:2|0:2,0:2:0:0:
336,200,6984,2,0,L|345:126,1,74.2499977340699,2|8,0:2|0:2,0:2:0:0:
432,64,7298,2,0,L|441:137,1,74.2499977340699,2|8,0:2|0:2,0:2:0:0:
488,260,7612,5,2,0:2:0:0:
488,260,7769,2,0,P|453:252|417:259,1,74.2499977340699,10|2,0:2|3:2,0:0:0:0:
360,372,8083,1,10,3:2:0:0:
308,244,8240,1,8,3:2:0:0:
252,376,8397,2,0,P|217:384|181:377,1,74.2499977340699,10|0,0:2|3:2,0:0:0:0:
208,216,8711,6,0,L|217:289,1,74.2499977340699,14|2,0:2|0:2,0:2:0:0:
324,228,9025,1,10,0:2:0:0:
244,132,9183,2,0,P|209:124|173:131,1,74.2499977340699,2|8,0:2|0:2,0:2:0:0:
44,204,9497,2,0,P|79:196|115:203,1,74.2499977340699,2|8,0:2|0:2,0:2:0:0:
194,339,9811,6,0,B|238:299|238:299|202:199,1,148.49999546814,14|2,0:2|3:2,0:2:0:0:
136,88,10282,1,8,3:2:0:0:
280,152,10439,2,0,P|315:160|351:153,1,74.2499977340699,2|2,3:2|0:2,0:2:0:0:
464,32,10753,1,8,0:2:0:0:
464,32,10832,1,8,0:2:0:0:
464,32,10910,1,10,0:2:0:0:
312,72,11067,1,8,0:2:0:0:
444,200,11224,6,0,L|455:119,1,82.5,14|0,0:2|0:2,0:2:0:0:
352,240,11539,1,8,0:2:0:0:
296,88,11696,1,0,3:2:0:0:
240,236,11853,1,8,0:2:0:0:
184,92,12010,2,0,P|144:82|105:91,1,82.5,0|8,3:2|0:2,0:0:0:0:
64,248,12324,6,0,B|148:220|140:284|224:252,1,165,0|0,3:2|3:2,0:2:0:0:
328,140,12795,2,0,L|339:220,1,82.5,8|0,0:2|3:2,0:0:0:0:
440,360,13109,1,10,0:2:0:0:
496,208,13266,1,0,3:2:0:0:
364,316,13423,2,0,P|324:325|285:316,1,82.5,10|0,0:2|0:2,0:2:0:0:
152,128,13737,6,0,L|232:116,1,82.5,14|0,0:2|0:2,0:2:0:0:
440,88,14052,1,8,0:2:0:0:
264,20,14209,1,0,3:2:0:0:
372,180,14366,1,8,0:2:0:0:
360,0,14523,2,0,L|348:80,1,82.5,0|8,3:2|0:2,0:0:0:0:
316,264,14837,6,0,P|276:288|216:200,1,165,0|2,3:2|3:2,0:2:0:0:
160,56,15308,2,0,P|120:46|81:55,1,82.5,10|2,0:2|3:2,0:0:0:0:
116,248,15622,1,10,0:2:0:0:
224,120,15779,1,0,3:2:0:0:
28,208,15936,2,0,P|18:247|27:286,1,82.5,10|0,0:2|0:2,0:2:0:0:
208,384,16251,6,0,L|196:303,1,82.5,14|0,0:2|0:2,0:2:0:0:
312,136,16565,1,8,0:2:0:0:
296,320,16722,1,0,3:2:0:0:
176,192,16879,1,8,0:2:0:0:
372,264,17036,2,0,P|411:273|450:264,1,82.5,0|8,3:2|0:2,0:0:0:0:
440,104,17350,6,0,B|416:96|392:76|392:76|412:200,1,165,0|2,3:2|3:2,0:2:0:0:
276,300,17821,2,0,L|287:219,1,82.5,10|2,0:2|3:2,0:0:0:0:
296,36,18135,1,10,0:2:0:0:
409,183,18292,1,0,3:2:0:0:
220,104,18450,2,0,P|180:94|141:103,1,82.5,10|0,0:2|0:2,0:2:0:0:
40,276,18764,6,0,L|120:287,1,82.5,14|0,0:2|0:2,0:2:0:0:
260,184,19078,1,8,0:2:0:0:
196,348,19235,1,0,3:2:0:0:
108,188,19392,1,8,0:2:0:0:
281,309,19549,2,0,P|321:320|361:310,1,82.5,0|8,3:2|0:2,0:0:0:0:
437,129,19863,6,0,B|381:121|381:121|341:149|341:149|281:141,1,165,6|8,3:2|3:2,0:2:0:0:
236,9,20334,2,0,P|275:21|305:48,1,82.5,10|8,3:2|0:2,0:2:0:0:
152,137,20648,2,0,P|142:97|152:57,1,82.5,10|8,3:2|3:2,0:0:0:0:
281,141,20963,1,10,3:2:0:0:
132,225,21120,6,0,B|180:233|212:205|212:205|244:237|288:233,1,165,6|8,3:2|3:2,0:2:0:0:
345,101,21591,2,0,P|305:113|275:140,1,82.5,2|0,3:2|3:2,0:2:0:0:
376,284,21905,1,10,0:2:0:0:
376,284,21984,1,8,0:2:0:0:
376,284,22062,2,0,L|380:244,1,41.25,8|8,0:2|0:2,0:2:0:0:
468,168,22219,2,0,L|479:248,1,82.5,10|0,0:2|0:2,0:2:0:0:
412,364,22533,6,0,P|376:372|341:364,1,74.2499977340699,6|0,3:2|0:2,0:2:0:0:
208,292,22847,2,0,P|243:300|279:291,1,74.2499977340699,10|0,0:2|0:2,0:2:0:0:
400,192,23162,1,2,3:2:0:0:
240,212,23319,1,0,3:2:0:0:
376,284,23476,2,0,L|385:210,1,74.2499977340699,10|0,0:2|0:2,0:2:0:0:
324,72,23790,6,0,B|249:49|257:109|182:90,1,148.49999546814,2|10,3:2|0:2,0:2:0:0:
80,32,24261,2,0,L|89:105,1,74.2499977340699,2|0,3:2|0:2,0:2:0:0:
0,220,24575,2,0,L|9:146,1,74.2499977340699,2|8,3:2|0:2,0:2:0:0:
96,256,24889,1,2,0:2:0:0:
188,128,25046,6,0,P|236:124|252:216,2,148.49999546814,0|8|0,3:2|0:2|3:2,0:2:0:0:
96,256,25832,1,0,3:2:0:0:
32,104,25989,2,0,P|58:129|94:139,1,74.2499977340699,10|0,0:2|0:2,0:2:0:0:
208,16,26303,6,0,L|134:25,1,74.2499977340699,2|0,3:2|3:2,0:2:0:0:
196,172,26617,1,10,0:2:0:0:
292,48,26774,2,0,P|327:39|363:48,1,74.2499977340699,2|0,3:2|0:2,0:2:0:0:
364,192,27088,2,0,P|338:165|328:129,1,74.2499977340699,2|8,3:2|0:2,0:2:0:0:
488,148,27402,1,2,0:2:0:0:
420,268,27559,6,0,B|332:296|332:296|268:260,1,148.49999546814,4|8,3:2|0:2,0:2:0:0:
216,132,28031,1,2,0:2:0:0:
188,296,28188,2,0,L|178:222,1,74.2499977340699,2|0,3:2|3:2,0:0:0:0:
312,100,28502,2,0,L|302:173,1,74.2499977340699,8|0,0:2|0:2,0:2:0:0:
184,48,28816,6,0,P|148:39|112:48,1,74.2499977340699,2|0,3:2|3:2,0:2:0:0:
24,144,29130,2,0,P|59:135|95:144,1,74.2499977340699,10|0,0:2|3:2,0:2:0:0:
176,280,29444,1,2,0:2:0:0:
232,136,29601,1,0,3:2:0:0:
92,244,29758,2,0,P|83:279|92:315,1,74.2499977340699,10|0,0:2|0:2,0:2:0:0:
249,289,30073,6,0,L|175:279,1,74.2499977340699,2|0,3:2|0:2,0:2:0:0:
300,204,30387,2,0,L|373:194,1,74.2499977340699,10|0,0:2|0:2,0:2:0:0:
232,136,30701,2,0,L|158:126,1,74.2499977340699,2|0,3:2|3:2,0:0:0:0:
32,224,31015,1,10,0:2:0:0:
72,80,31172,1,2,0:2:0:0:
152,224,31329,6,0,P|160:259|151:295,1,74.2499977340699,0|0,3:2|3:2,0:2:0:0:
16,208,31643,2,0,P|42:182|78:172,1,74.2499977340699,8|0,0:2|3:2,0:0:0:0:
240,144,31957,1,10,0:2:0:0:
240,144,32036,1,8,0:2:0:0:
240,144,32114,2,0,L|203:140,1,37.1249988670349,8|8,0:2|0:2,0:2:0:0:
156,52,32272,2,0,L|229:42,1,74.2499977340699,10|0,0:2|3:2,0:2:0:0:
352,4,32586,6,0,P|343:39|352:75,1,74.2499977340699,6|0,3:2|0:2,0:2:0:0:
488,168,32900,2,0,P|461:142|425:132,1,74.2499977340699,10|0,0:2|0:2,0:2:0:0:
272,264,33214,1,2,3:2:0:0:
424,228,33371,1,0,3:2:0:0:
280,140,33528,2,0,L|206:130,1,74.2499977340699,10|0,0:2|0:2,0:2:0:0:
120,280,33842,6,0,B|172:272|172:272|204:292|204:292|264:284,1,148.49999546814,2|10,3:2|0:2,0:2:0:0:
356,368,34313,2,0,P|347:332|356:296,1,74.2499977340699,6|0,3:2|0:2,0:2:0:0:
486,192,34628,2,0,P|459:217|423:227,1,74.2499977340699,2|8,3:2|0:2,0:0:0:0:
280,140,34942,1,6,3:2:0:0:
384,64,35099,6,0,B|404:56|424:36|424:36|416:140,1,148.49999546814,2|8,0:2|0:2,0:2:0:0:
348,288,35570,1,0,0:2:0:0:
280,140,35727,2,0,L|289:213,1,74.2499977340699,0|0,3:2|3:2,0:0:0:0:
188,312,36041,2,0,L|197:238,1,74.2499977340699,10|0,0:2|0:2,0:2:0:0:
112,80,36355,6,0,P|76:71|40:80,1,74.2499977340699,2|0,3:2|3:2,0:0:0:0:
36,232,36669,1,10,0:2:0:0:
160,156,36826,2,0,P|195:147|231:156,1,74.2499977340699,2|0,3:2|0:2,0:2:0:0:
232,300,37141,2,0,P|206:273|196:237,1,74.2499977340699,2|8,3:2|0:2,0:2:0:0:
308,116,37455,1,2,0:2:0:0:
344,288,37612,6,0,B|418:265|410:325|485:306,1,148.49999546814,4|8,3:2|0:2,0:2:0:0:
476,132,38083,1,2,0:2:0:0:
344,196,38240,2,0,P|308:204|272:195,1,74.2499977340699,2|0,3:2|3:2,0:0:0:0:
272,40,38554,2,0,P|308:31|344:40,1,74.2499977340699,8|0,0:2|0:2,0:2:0:0:
188,160,38868,6,0,L|114:150,1,74.2499977340699,2|0,3:2|3:2,0:0:0:0:
16,272,39183,2,0,P|51:261|78:236,1,74.2499977340699,10|0,0:2|3:2,0:2:0:0:
104,56,39497,1,2,0:2:0:0:
4,184,39654,1,0,3:2:0:0:
120,40,39811,2,0,P|155:31|191:39,1,74.2499977340699,10|0,0:2|0:2,0:2:0:0:
164,196,40125,6,0,L|154:122,1,74.2499977340699,2|0,3:2|0:2,0:2:0:0:
292,28,40439,2,0,L|282:101,1,74.2499977340699,10|0,0:2|0:2,0:2:0:0:
344,224,40753,2,0,P|379:232|415:224,1,74.2499977340699,2|0,3:2|3:2,0:0:0:0:
460,56,41067,1,10,0:2:0:0:
512,208,41224,1,2,0:2:0:0:
364,76,41381,6,0,B|280:48|280:48|220:80,1,148.49999546814,0|8,3:2|0:2,0:2:0:0:
184,240,41853,1,2,3:2:0:0:
288,148,42010,2,0,L|278:221,1,74.2499977340699,2|0,0:2|3:2,0:2:0:0:
368,368,42324,1,10,0:2:0:0:
380,204,42481,1,2,0:2:0:0:
280,360,42638,6,0,P|240:370|199:360,1,82.5,12|0,0:2|0:2,0:2:0:0:
68,196,42952,1,8,0:2:0:0:
240,280,43109,1,0,3:2:0:0:
48,328,43266,1,8,0:2:0:0:
152,168,43423,2,0,L|163:248,1,82.5,0|8,3:2|0:2,0:0:0:0:
300,380,43737,6,0,B|308:324|308:324|280:284|280:284|288:224,1,165,0|0,3:2|3:2,0:2:0:0:
464,248,44209,2,0,L|383:259,1,82.5,8|0,0:2|3:2,0:0:0:0:
264,84,44523,1,10,0:2:0:0:
432,160,44680,1,0,3:2:0:0:
248,68,44837,2,0,P|208:58|169:67,1,82.5,10|0,0:2|0:2,0:2:0:0:
284,256,45151,6,0,L|295:176,1,82.5,14|0,0:2|3:2,0:0:0:0:
100,252,45465,1,0,3:2:0:0:
248,336,45622,2,0,P|288:346|327:337,1,82.5,14|0,0:2|3:2,0:0:0:0:
360,156,45936,1,0,3:2:0:0:
196,268,46094,2,0,P|156:278|117:269,1,82.5,14|0,0:2|0:2,0:2:0:0:
208,80,46408,5,14,0:2:0:0:
284,256,46565,1,8,3:2:0:0:
371,74,46722,2,0,L|360:154,1,82.5,8|8,0:2|3:2,0:0:0:0:
484,272,47036,2,0,L|473:192,1,82.5,8|10,0:2|3:2,0:0:0:0:
284,256,47350,1,10,0:2:0:0:
436,352,47507,1,10,3:2:0:0:
336,172,47664,6,0,L|197:154,1,140.250002675056,6|2,3:2|0:2,0:2:0:0:
116,208,48135,1,0,3:2:0:0:
40,84,48292,2,0,P|32:117|40:151,1,70.1250013375282,10|0,0:2|3:2,0:2:0:0:
180,64,48607,2,0,P|155:40|121:30,1,70.1250013375282,2|0,0:2|0:2,0:2:0:0:
116,208,48921,6,0,L|184:200,1,70.1250013375282,2|8,3:2|0:2,0:2:0:0:
268,248,49235,1,2,3:2:0:0:
328,112,49392,2,0,L|335:180,1,70.1250013375282,2|8,0:2|0:2,0:2:0:0:
384,268,49706,2,0,P|417:260|451:268,1,70.1250013375282,2|0,3:2|0:2,0:2:0:0:
348,364,50020,1,10,0:2:0:0:
348,364,50099,1,8,0:2:0:0:
348,364,50177,6,0,L|279:371,1,70.1250013375282,14|0,3:2|0:2,0:2:0:0:
192,300,50491,2,0,L|194:334,3,35.0625006687641,10|8|10|8,0:2|0:2|0:2|0:2,0:0:0:0:
164,216,50806,2,0,L|233:223,1,70.1250013375282,0|2,3:2|0:2,0:2:0:0:
352,156,51120,2,0,L|386:153,3,35.0625006687641,0|0|2|0,3:2|3:2|3:2|3:2,0:2:0:0:
300,92,51435,6,0,L|231:99,1,70.1250013375282,4|0,3:2|0:2,0:2:0:0:
140,12,51748,2,0,L|137:46,3,35.0625006687641,8|8|8|8,0:2|0:2|0:2|0:2,0:0:0:0:
68,92,52062,2,0,L|75:161,1,70.1250013375282,0|0,3:2|0:2,0:2:0:0:
36,288,52376,2,0,L|1:290,3,35.0625006687641,0|0|0|0,3:2|3:2|3:2|3:2,0:2:0:0:
92,352,52690,6,0,P|132:360|180:276,1,140.250002675056,4|2,3:2|0:2,0:2:0:0:
152,192,53162,1,0,3:2:0:0:
152,192,53319,2,0,L|221:199,1,70.1250013375282,10|0,0:2|3:2,0:2:0:0:
312,104,53633,2,0,L|243:111,1,70.1250013375282,2|0,0:2|0:2,0:2:0:0:
324,16,53947,6,0,P|356:25|382:49,1,70.1250013375282,2|8,3:2|0:2,0:2:0:0:
396,144,54261,1,2,3:2:0:0:
476,112,54418,2,0,P|484:144|476:179,1,70.1250013375282,2|8,0:2|0:2,0:2:0:0:
404,300,54732,2,0,P|412:267|404:233,1,70.1250013375282,2|0,3:2|0:2,0:2:0:0:
312,124,55046,1,10,0:2:0:0:
312,124,55125,1,8,0:2:0:0:
312,124,55203,6,0,B|240:100|256:160|176:140,1,140.250002675056,6|0,3:2|0:2,0:2:0:0:
100,248,55675,1,0,3:2:0:0:
80,88,55832,2,0,L|87:157,1,70.1250013375282,8|0,0:2|3:2,0:0:0:0:
24,300,56146,2,0,P|48:276|82:266,1,70.1250013375282,8|0,0:2|3:2,0:2:0:0:
220,372,56460,5,10,0:2:0:0:
176,212,56617,1,10,0:2:0:0:
88,356,56774,1,10,0:2:0:0:
160,196,56931,1,10,0:2:0:0:
236,356,57088,2,0,P|268:364|303:356,1,70.1250013375282,10|0,0:2|3:2,0:0:0:0:
392,228,57402,2,0,L|284:214,1,105.187502006292,14|0,0:2|0:2,0:2:0:0:
224,268,57717,6,0,B|180:244|180:244|84:272,1,140.250002675056,6|2,3:2|0:2,0:2:0:0:
12,228,58188,1,0,3:2:0:0:
80,108,58345,2,0,L|87:177,1,70.1250013375282,10|0,0:2|3:2,0:2:0:0:
180,64,58659,2,0,L|173:133,1,70.1250013375282,2|0,0:2|0:2,0:2:0:0:
224,268,58973,6,0,P|256:276|291:268,1,70.1250013375282,2|8,3:2|0:2,0:2:0:0:
372,216,59287,1,2,3:2:0:0:
284,128,59444,2,0,P|260:152|250:186,1,70.1250013375282,2|8,0:2|0:2,0:2:0:0:
376,120,59758,2,0,L|369:51,1,70.1250013375282,2|0,3:2|0:2,0:2:0:0:
496,200,60073,1,10,0:2:0:0:
496,200,60151,1,8,0:2:0:0:
496,200,60230,6,0,P|463:192|429:200,1,70.1250013375282,6|0,3:2|0:2,0:2:0:0:
352,296,60544,2,0,L|354:330,3,35.0625006687641,10|8|10|8,0:2|0:2|0:2|0:2,0:0:0:0:
296,232,60858,2,0,L|227:225,1,70.1250013375282,0|2,3:2|0:2,0:2:0:0:
152,320,61172,2,0,L|186:317,3,35.0625006687641,0|0|0|0,3:2|3:2|3:2|3:2,0:2:0:0:
76,288,61486,2,0,L|69:219,1,70.1250013375282,6|0,3:2|0:2,0:2:0:0:
36,104,61800,2,0,L|1:101,3,35.0625006687641,8|8|8|8,0:2|0:2|0:2|0:2,0:0:0:0:
96,48,62114,2,0,L|165:41,1,70.1250013375282,0|0,3:2|0:2,0:2:0:0:
252,104,62429,2,0,L|249:138,3,35.0625006687641,0|0|0|0,3:2|3:2|3:2|3:2,0:2:0:0:
312,44,62743,6,0,P|347:35|383:44,1,74.2499977340699,4|0,3:2|0:2,0:2:0:0:
408,208,63057,1,10,0:2:0:0:
504,80,63214,1,8,0:2:0:0:
348,128,63371,1,10,0:2:0:0:
500,208,63528,1,8,0:2:0:0:
384,44,63685,2,0,P|348:34|312:43,1,74.2499977340699,10|8,0:2|0:2,0:0:0:0:
232,240,63999,6,0,B|276:204|276:204|248:108,1,148.49999546814,10|2,0:2|3:2,0:2:0:0:
100,184,64470,2,0,L|173:175,1,74.2499977340699,10|0,0:2|0:2,0:2:0:0:
260,332,64785,2,0,L|187:323,1,74.2499977340699,14|0,0:2|0:2,0:2:0:0:
84,168,65099,1,2,3:2:0:0:
276,236,65256,6,0,P|311:245|347:236,1,74.2499977340699,10|0,0:2|3:2,0:0:0:0:
300,68,65570,1,0,3:2:0:0:
196,204,65727,2,0,P|186:239|195:275,1,74.2499977340699,10|0,0:2|3:2,0:0:0:0:
372,252,66041,1,0,3:2:0:0:
232,128,66198,2,0,P|196:118|160:127,1,74.2499977340699,10|0,0:2|3:2,0:0:0:0:
104,308,66512,6,0,P|56:336|80:240,1,222.74999320221,10|0,0:2|0:2,0:2:0:0:
67,236,67298,5,2,3:2:0:0:
152,156,67455,2,0,L|161:229,1,74.2499977340699,14|2,0:2|0:2,0:2:0:0:
280,372,67769,6,0,P|320:382|362:372,1,86.6249973564149,14|0,0:2|0:2,0:2:0:0:
328,164,68083,1,10,0:2:0:0:
208,324,68240,1,2,3:2:0:0:
236,120,68397,1,8,0:2:0:0:
372,280,68554,2,0,L|457:268,1,86.6249973564149,2|8,3:2|0:2,0:0:0:0:
432,56,68868,6,0,P|442:96|432:138,1,86.6249973564149,2|8,3:2|0:2,0:0:0:0:
280,44,69183,2,0,P|309:14|351:1,1,86.6249973564149,2|8,3:2|0:2,0:0:0:0:
288,216,69497,2,0,L|202:204,1,86.6249973564149,2|8,3:2|0:2,0:0:0:0:
28,88,69811,1,2,3:2:0:0:
120,260,69968,1,10,0:2:0:0:
200,80,70125,1,2,3:2:0:0:
16,216,70282,6,0,B|4:257|4:257|16:298,1,86.6249973564149,14|0,0:2|0:2,0:2:0:0:
224,280,70596,1,10,0:2:0:0:
88,140,70753,2,0,L|2:128,1,86.6249973564149,2|8,3:2|0:2,0:0:0:0:
88,344,71067,1,10,0:2:0:0:
176,176,71224,1,8,0:2:0:0:
248,368,71381,6,0,B|308:356|308:356|348:380|348:380|412:368,1,173.24999471283,6|8,3:2|0:2,0:2:0:0:
508,256,71853,2,0,L|422:244,1,86.6249973564149,8|8,0:2|0:2,0:0:0:0:
280,144,72167,1,8,0:2:0:0:
280,144,72245,1,8,0:2:0:0:
280,144,72324,2,0,L|322:138,1,43.3124986782074,10|8,0:2|0:2,0:2:0:0:
416,68,72481,2,0,P|426:108|416:150,1,86.6249973564149,10|2,0:2|3:2,0:2:0:0:
304,324,72795,6,0,L|292:238,1,86.6249973564149,14|0,0:2|0:2,0:2:0:0:
168,36,73109,1,10,0:2:0:0:
164,248,73266,1,2,3:2:0:0:
300,96,73423,1,8,0:2:0:0:
88,180,73580,2,0,P|47:190|5:180,1,86.6249973564149,2|8,3:2|0:2,0:0:0:0:
184,20,73895,6,0,L|269:8,1,86.6249973564149,2|8,3:2|0:2,0:0:0:0:
400,124,74209,2,0,L|314:112,1,86.6249973564149,2|8,3:2|0:2,0:0:0:0:
184,228,74523,2,0,L|269:216,1,86.6249973564149,2|8,3:2|0:2,0:0:0:0:
436,320,74837,1,2,3:2:0:0:
400,124,74994,1,10,0:2:0:0:
292,300,75151,1,2,3:2:0:0:
488,236,75308,6,0,B|499:195|499:195|488:153,1,86.6249973564149,14|0,0:2|0:2,0:2:0:0:
396,0,75622,1,10,0:2:0:0:
328,200,75779,2,0,L|242:188,1,86.6249973564149,2|8,3:2|0:2,0:0:0:0:
112,32,76094,1,10,0:2:0:0:
296,100,76251,1,8,0:2:0:0:
96,16,76408,6,0,P|51:-3|21:96,1,173.24999471283,6|8,3:2|0:2,0:2:0:0:
124,244,76879,2,0,P|113:203|123:161,1,86.6249973564149,8|8,0:2|0:2,0:0:0:0:
252,208,77193,1,8,0:2:0:0:
252,208,77271,1,8,0:2:0:0:
252,208,77350,2,0,L|209:202,1,43.3124986782074,8|8,0:2|0:2,0:2:0:0:
160,76,77507,2,0,L|245:64,1,86.6249973564149,8|0,0:2|3:2,0:2:0:0:
380,180,77821,6,0,B|420:84|420:84|380:24,2,173.24999471283,4|10|2,3:2|0:2|3:2,0:2:0:0:
324,336,78607,1,0,3:2:0:0:
260,152,78764,2,0,L|272:237,1,86.6249973564149,10|0,0:2|0:2,0:2:0:0:
180,376,79078,6,0,P|139:387|97:377,1,86.6249973564149,0|0,3:2|3:2,0:2:0:0:
0,244,79392,2,0,P|41:255|83:245,1,86.6249973564149,10|0,0:2|3:2,0:2:0:0:
224,72,79706,1,2,0:2:0:0:
36,164,79863,1,0,3:2:0:0:
220,244,80020,2,0,L|305:232,1,86.6249973564149,10|0,0:2|0:2,0:2:0:0:
432,92,80334,6,0,P|443:133|433:175,1,86.6249973564149,6|0,3:2|3:2,0:0:0:0:
324,328,80648,1,10,0:2:0:0:
268,120,80806,2,0,L|353:132,1,86.6249973564149,10|0,0:2|0:2,0:2:0:0:
496,292,81120,2,0,L|411:304,1,86.6249973564149,10|0,0:2|0:2,0:2:0:0:
232,204,81434,6,0,B|144:176|160:252|68:224,1,173.24999471283,6|0,3:2|3:2,0:2:0:0:
16,20,81905,1,8,0:2:0:0:
192,112,82062,1,0,3:2:0:0:
0,140,82219,1,8,0:2:0:0:
0,140,82297,1,8,0:2:0:0:
0,140,82376,2,0,L|43:134,1,43.3124986782074,8|8,0:2|0:2,0:2:0:0:
128,16,82533,2,0,L|213:28,1,86.6249973564149,10|0,0:2|3:2,0:2:0:0:
328,176,82847,6,0,B|367:168|367:168|392:183|392:183|432:176,2,110,6|2|2,3:2|3:2|3:2,0:2:0:0:
256,280,83476,6,0,B|216:272|216:272|191:287|191:287|151:280,2,110,6|2|2,3:2|3:2|3:2,0:2:0:0:
360,360,84104,5,6,3:2:0:0:
360,360,84889,5,0,3:2:0:0:
436,268,85046,2,0,L|370:276,1,66,10|0,0:2|0:2,0:2:0:0:
228,372,85361,6,0,L|214:260,2,110,6|2|2,3:2|3:2|3:2,0:2:0:0:
64,300,85989,6,0,L|77:188,2,110,6|2|2,3:2|3:2|3:2,0:2:0:0:
214,262,86617,5,6,3:2:0:0:
214,262,87088,5,2,0:2:0:0:
284,152,87245,2,0,L|292:218,1,66,10|0,0:2|3:2,0:2:0:0:
376,272,87559,2,0,L|384:206,1,66,10|2,0:2|0:2,0:2:0:0:
440,56,87874,6,0,B|384:92|384:92|284:56,1,165,14|0,0:2|3:2,0:2:0:0:
124,24,88345,2,0,P|188:44|176:132,1,165,14|0,0:2|3:2,0:2:0:0:
24,148,88816,2,0,P|53:119|91:107,1,82.5,10|0,0:2|3:2,0:2:0:0:
112,284,89130,6,0,L|100:204,1,82.5,10|0,0:2|0:2,0:2:0:0:
224,100,89444,2,0,L|212:180,1,82.5,0|0,3:2|3:2,0:0:0:0:
280,352,89758,1,10,0:2:0:0:
368,192,89915,1,10,0:2:0:0:
192,292,90073,1,10,0:2:0:0:
376,348,90230,1,10,0:2:0:0:
211,181,90387,6,0,P|170:170|128:180,1,86.6249973564149,14|0,0:2|0:2,0:2:0:0:
184,380,90701,1,2,3:2:0:0:
288,224,90858,2,0,B|376:196|360:272|452:244,1,173.24999471283,14|0,0:2|3:2,0:2:0:0:
420,76,91329,2,0,P|431:117|421:159,1,86.6249973564149,10|2,0:2|3:2,0:0:0:0:
312,308,91643,6,0,P|268:308|220:168,1,214.49999018097,10|0,0:2|0:2,0:2:0:0:
288,224,92429,5,0,3:2:0:0:
368,144,92586,2,0,L|377:225,1,82.5,8|0,0:2|0:2,0:2:0:0:
388,368,92900,5,2,3:2:0:0:
388,368,95099,6,0,L|323:360,1,66,8|0,0:2|0:0,0:0:0:0:
184,240,95413,5,10,0:2:0:0:
344,200,95570,2,0,P|353:234|344:270,1,74.2499977340699,10|0,0:2|3:2,0:2:0:0:
352,112,95884,2,0,P|386:121|413:146,1,74.2499977340699,10|0,0:2|3:2,0:2:0:0:
279,61,96198,2,0,P|304:35|339:24,1,74.2499977340699,10|0,0:2|3:2,0:2:0:0:
264,232,96512,6,0,L|117:213,2,148.49999546814,10|14|10,0:2|0:2|0:2,0:2:0:0:
384,144,97298,6,0,B|359:184|384:230|384:230|369:245|369:245|401:286|376:333,1,206.25,14|2,3:2|0:2,0:2:0:0:
