osu file format v14

[General]
AudioFilename: audio.mp3
AudioLeadIn: 0
PreviewTime: 10608
Countdown: 1
SampleSet: Soft
StackLeniency: 0.3
Mode: 2
LetterboxInBreaks: 0
WidescreenStoryboard: 1

[Editor]
Bookmarks: 9823,42650
DistanceSpacing: 1.3
BeatDivisor: 4
GridSize: 8
TimelineZoom: 2

[Metadata]
Title:Kimeta yo Hand in Hand
TitleUnicode:決めたよHand in Hand
Artist:Aqours
ArtistUnicode:Aqours
Creator:JeirYagtama
Version:Rain
Source:ラブライブ!サンシャイン!!
Tags:ラブライブ!サンシャイン!! school idol project Takami Chika 高海千歌 Sakurauchi Riko 桜内梨子 Watanabe You 渡辺 曜 Inami Anju 伊波杏樹 Aida Rikako 逢田梨香子 Saitou Shuka 斉藤朱夏
BeatmapID:1325552
BeatmapSetID:628782

[Difficulty]
HPDrainRate:7
CircleSize:4.5
OverallDifficulty:8
ApproachRate:9
SliderMultiplier:1.2
SliderTickRate:1

[Events]
//Background and Video events
0,0,"hanfg.png",0,0
//Break Periods
//Storyboard Layer 0 (Background)
//Storyboard Layer 1 (Fail)
//Storyboard Layer 2 (Pass)
//Storyboard Layer 3 (Foreground)
//Storyboard Sound Samples

[TimingPoints]
-72,314.13612565445,4,2,3,40,1,0
870,-74.0740740740741,4,2,3,40,0,0
5896,-74.0740740740741,4,2,3,50,0,0
6210,-74.0740740740741,4,2,3,60,0,0
8723,-74.0740740740741,4,2,3,70,0,0
9823,-74.0740740740741,4,2,3,80,0,0
10058,-74.0740740740741,4,2,3,80,0,0
10137,-74.0740740740741,4,2,3,80,0,0
10373,-74.0740740740741,4,2,3,80,0,0
10452,-74.0740740740741,4,2,3,80,0,0
10608,-74.0740740740741,4,2,1,70,0,0
11236,-74.0740740740741,4,2,1,80,0,1
19875,-74.0740740740741,4,2,1,90,0,1
20189,-74.0740740740741,4,2,1,80,0,1
20346,-74.0740740740741,4,2,1,80,0,1
20660,-74.0740740740741,4,2,1,85,0,1
21132,-74.0740740740741,4,2,1,90,0,1
21446,-74.0740740740741,4,2,1,90,0,1
21917,-74.0740740740741,4,2,1,90,0,1
22388,-74.0740740740741,4,2,1,90,0,1
22545,-74.0740740740741,4,2,1,70,0,0
22859,-74.0740740740741,4,2,1,60,0,0
32519,-74.0740740740741,4,2,1,5,0,0
32598,-74.0740740740741,4,2,1,80,0,0
32912,-74.0740740740741,4,2,1,70,0,0
42650,-74.0740740740741,4,2,1,70,0,0
44770,-74.0740740740741,4,2,1,70,0,0
44849,-74.0740740740741,4,2,1,70,0,0
45085,-74.0740740740741,4,2,1,70,0,0
45163,-74.0740740740741,4,2,1,80,0,0
45242,-74.0740740740741,4,2,1,80,0,0
45399,-74.0740740740741,4,2,1,80,0,0
45477,-74.0740740740741,4,2,1,85,0,0
45634,-74.0740740740741,4,2,1,85,0,0
45791,-74.0740740740741,4,2,1,90,0,0
46027,-74.0740740740741,4,2,1,90,0,0
46106,-74.0740740740741,4,2,1,90,0,0
46341,-74.0740740740741,4,2,1,90,0,0
46420,-74.0740740740741,4,2,1,80,0,0
46734,-74.0740740740741,4,2,1,85,0,0
47048,-74.0740740740741,4,2,1,90,0,0
47676,-74.0740740740741,4,2,1,85,0,0
47990,-74.0740740740741,4,2,1,60,0,0
52702,-74.0740740740741,4,2,1,60,0,0
56472,-74.0740740740741,4,2,1,65,0,0
56786,-74.0740740740741,4,2,1,70,0,0
57100,-74.0740740740741,4,2,1,75,0,0
57414,-74.0740740740741,4,2,1,80,0,0
57729,-74.0740740740741,4,2,1,85,0,0
58043,-74.0740740740741,4,2,1,60,0,0
62126,-74.0740740740741,4,2,1,70,0,0
62441,-74.0740740740741,4,2,1,75,0,0
62755,-74.0740740740741,4,2,1,80,0,0
63069,-74.0740740740741,4,2,1,85,0,0
63383,-74.0740740740741,4,2,1,90,0,0
63697,-74.0740740740741,4,2,1,95,0,0
64011,-74.0740740740741,4,2,1,100,0,0
64797,-74.0740740740741,4,2,1,100,0,0
65111,-74.0740740740741,4,2,1,90,0,0
65268,-74.0740740740741,4,2,1,90,0,0
65739,-74.0740740740741,4,2,1,100,0,0
67310,-74.0740740740741,4,2,1,80,0,0
67781,-74.0740740740741,4,2,1,90,0,1
68095,-74.0740740740741,4,2,1,80,0,1
72179,-74.0740740740741,4,2,1,80,0,1
72650,-74.0740740740741,4,2,1,80,0,1
77205,-74.0740740740741,4,2,1,80,0,1
77676,-74.0740740740741,4,2,1,80,0,1
77833,-74.0740740740741,4,2,1,90,0,1
78147,-74.0740740740741,4,2,1,70,0,1
82231,-74.0740740740741,4,2,1,70,0,1
82702,-74.0740740740741,4,2,1,70,0,1
82859,-74.0740740740741,4,2,1,80,0,1
84116,-74.0740740740741,4,2,1,90,0,1
84901,-74.0740740740741,4,2,1,80,0,1
85058,-74.0740740740741,4,2,1,90,0,1
85373,-74.0740740740741,4,2,1,80,0,1
86629,-74.0740740740741,4,2,1,90,0,1
87100,-74.0740740740741,4,2,1,80,0,1
89456,-74.0740740740741,4,2,1,85,0,1
89770,-74.0740740740741,4,2,1,90,0,1
90085,-74.0740740740741,4,2,1,95,0,1
90399,-74.0740740740741,4,2,1,100,0,1
90713,-74.0740740740741,4,2,1,80,0,1
90870,-74.0740740740741,4,2,1,100,0,1
91184,-74.0740740740741,4,2,1,80,0,1
91655,-74.0740740740741,4,2,1,100,0,1
91969,-74.0740740740741,4,2,1,10,0,1
92284,-74.0740740740741,4,2,1,70,0,1
92598,-74.0740740740741,4,2,1,70,0,0
92912,-74.0740740740741,4,2,3,60,0,0
95111,-74.0740740740741,4,2,1,60,0,0
95425,-74.0740740740741,4,2,1,80,0,0
95582,-74.0740740740741,4,2,1,70,0,0
97310,-74.0740740740741,4,2,2,80,0,0
97624,-74.0740740740741,4,2,2,10,0,0
98252,-74.0740740740741,4,2,1,5,0,0

[Colours]
Combo1 : 253,0,253
Combo2 : 255,128,64
Combo3 : 0,128,255

[HitObjects]
64,192,870,5,2,0:0:0:0:
144,88,1027,1,0,0:0:0:0:
300,88,1184,6,0,L|208:88,1,81.0000003089905,2|0,0:0|0:0,0:0:0:0:
144,192,1498,1,8,0:0:0:0:
304,288,1655,2,0,L|392:288,1,81.0000003089905,2|0,0:0|0:0,0:0:0:0:
460,192,1969,2,0,L|379:192,1,81.0000003089905,0|8,0:0|0:0,0:0:0:0:
224,192,2284,2,0,L|305:192,1,81.0000003089905,2|0,0:0|0:0,0:0:0:0:
464,268,2598,2,0,L|383:268,1,81.0000003089905,0|2,0:0|0:0,0:0:0:0:
269,192,2912,2,0,L|188:192,1,81.0000003089905,0|2,0:0|0:0,0:0:0:0:
64,192,3226,5,8,0:0:0:0:
300,80,3383,2,0,P|390:130|376:184,1,162.000000617981,8|2,0:0|0:0,0:0:0:0:
271,192,3854,5,0,0:0:0:0:
184,196,4011,1,8,0:0:0:0:
353,187,4168,2,0,L|434:187,1,81.0000003089905,2|0,0:0|0:0,0:0:0:0:
276,188,4482,2,0,L|195:188,1,81.0000003089905,0|8,0:0|0:0,0:0:0:0:
353,187,4797,2,0,L|272:187,1,81.0000003089905,2|0,0:0|0:0,0:0:0:0:
429,191,5111,2,0,L|510:191,1,81.0000003089905,0|8,0:0|0:0,0:0:0:0:
353,187,5425,2,0,L|272:187,1,81.0000003089905,0|2,0:0|0:0,0:0:0:0:
429,191,5739,5,8,0:0:0:0:
136,193,5896,2,0,P|93:251|163:308,1,162.000000617981,12|6,0:0|0:0,0:0:0:0:
199,316,6367,5,0,0:0:0:0:
360,320,6524,1,8,0:0:0:0:
280,316,6681,2,0,L|168:316,1,81.0000003089905,2|0,0:0|0:0,0:0:0:0:
284,208,6996,2,0,L|365:208,1,81.0000003089905,0|8,0:0|0:0,0:0:0:0:
179,320,7310,2,0,L|260:320,1,81.0000003089905,0|0,0:0|0:0,0:0:0:0:
425,208,7624,2,0,L|344:208,1,81.0000003089905,0|8,0:0|0:0,0:0:0:0:
224,160,7938,2,0,L|143:160,1,81.0000003089905,0|2,0:0|0:0,0:0:0:0:
295,318,8252,5,8,0:0:0:0:
64,320,8409,2,0,P|12:265|55:204,1,162.000000617981,8|6,0:0|0:0,0:0:0:0:
144,200,8880,5,0,0:0:0:0:
304,200,9037,1,8,0:0:0:0:
144,200,9194,2,0,L|225:200,1,81.0000003089905,2|0,0:0|0:0,0:0:0:0:
385,200,9509,2,0,L|304:200,1,81.0000003089905,0|8,0:0|0:0,0:0:0:0:
160,232,9823,6,0,P|156:160|196:108,1,121.500000463486,4|0,0:0|0:0,0:0:0:0:
352,232,10137,2,0,P|356:160|316:108,1,121.500000463486,4|0,0:0|0:0,0:0:0:0:
120,108,10451,2,0,L|208:108,1,81.0000003089905,4|8,0:0|0:0,0:0:0:0:
330,119,10765,5,8,0:0:0:0:
365,137,10843,1,0,0:0:0:0:
391,168,10922,1,8,0:0:0:0:
401,207,11000,1,8,0:0:0:0:
396,247,11079,1,8,0:0:0:0:
368,280,11158,1,8,0:0:0:0:
56,108,11236,6,0,L|144:108,1,81.0000003089905,4|0,0:0|0:0,0:0:0:0:
291,108,11551,2,0,L|210:108,1,81.0000003089905,8|0,0:0|0:0,0:0:0:0:
55,182,11865,2,0,L|143:182,1,81.0000003089905,8|0,0:0|0:0,0:0:0:0:
210,108,12179,1,8,0:0:0:0:
122,108,12336,1,0,0:0:0:0:
29,105,12493,1,8,0:0:0:0:
210,108,12650,1,0,0:0:0:0:
122,108,12807,1,8,0:0:0:0:
292,109,12964,1,0,0:0:0:0:
491,192,13121,6,0,L|384:192,1,81.0000003089905,8|0,0:0|0:0,0:0:0:0:
194,191,13435,2,0,L|278:191,1,81.0000003089905,8|2,0:0|0:0,0:0:0:0:
491,192,13749,6,0,P|482:129|383:96,1,162.000000617981,4|8,0:0|0:0,0:0:0:0:
275,191,14221,1,0,0:0:0:0:
182,97,14378,2,0,L|263:97,1,81.0000003089905,8|0,0:0|0:0,0:0:0:0:
414,98,14692,2,0,L|333:98,1,81.0000003089905,8|0,0:0|0:0,0:0:0:0:
166,101,15006,1,8,0:0:0:0:
122,43,15163,1,0,0:0:0:0:
66,89,15320,1,8,0:0:0:0:
1,55,15477,1,0,0:0:0:0:
224,192,15634,6,0,L|310:193,1,81.0000003089905,8|0,0:0|0:0,0:0:0:0:
464,192,15948,2,0,L|368:192,1,81.0000003089905,8|2,0:0|0:0,0:0:0:0:
164,82,16263,6,0,P|90:109|108:195,1,162.000000617981,4|8,0:0|0:0,0:0:0:0:
257,193,16734,1,0,0:0:0:0:
438,191,16891,2,0,L|336:191,1,81.0000003089905,8|0,0:0|0:0,0:0:0:0:
192,193,17205,2,0,L|273:193,1,81.0000003089905,8|0,0:0|0:0,0:0:0:0:
480,137,17519,1,8,0:0:0:0:
418,89,17676,1,0,0:0:0:0:
379,154,17833,1,8,0:0:0:0:
336,88,17990,1,0,0:0:0:0:
16,48,18147,6,0,L|97:48,1,81.0000003089905,8|0,0:0|0:0,0:0:0:0:
257,48,18462,2,0,L|176:48,1,81.0000003089905,8|2,0:0|0:0,0:0:0:0:
416,192,18776,2,0,P|487:160|464:64,1,162.000000617981,4|8,0:0|0:0,0:0:0:0:
293,44,19247,1,0,0:0:0:0:
485,84,19404,2,0,L|394:85,1,81.0000003089905,8|0,0:0|0:0,0:0:0:0:
293,44,19718,1,8,0:0:0:0:
60,196,19875,6,0,P|69:132|162:118,1,162.000000617981,4|0,0:0|0:0,0:0:0:0:
372,136,20346,1,8,0:0:0:0:
288,136,20503,1,0,0:0:0:0:
168,44,20660,1,8,0:0:0:0:
252,44,20817,1,0,0:0:0:0:
332,44,20975,1,8,0:0:0:0:
116,41,21132,6,0,P|50:66|29:153,1,162.000000617981,4|0,0:0|0:0,0:0:0:0:
268,140,21603,1,8,0:0:0:0:
160,140,21760,1,0,0:0:0:0:
388,140,21917,5,8,0:0:0:0:
420,143,21995,1,2,0:0:0:0:
448,160,22074,1,8,0:0:0:0:
464,189,22152,1,0,0:0:0:0:
472,220,22231,1,4,0:0:0:0:
336,232,22388,1,0,0:0:0:0:
112,40,22545,6,0,P|60:76|48:175,1,162.000000617981,4|8,0:0|0:0,0:0:0:0:
240,192,23017,1,0,0:0:0:0:
368,192,23174,2,0,L|449:192,2,81.0000003089905,2|0|8,0:0|0:0|0:0,0:0:0:0:
240,192,23645,1,0,0:0:0:0:
91,69,23802,2,0,B|23:110|23:110|119:162,1,162.000000617981,2|8,0:0|0:0,0:0:0:0:
256,72,24273,2,0,B|324:113|324:113|251:152,1,162.000000617981,2|0,0:0|0:0,0:0:0:0:
17,73,24744,2,0,B|99:73,1,81.0000003089905,8|0,0:0|0:0,0:0:0:0:
331,117,25058,6,0,B|404:78|404:78|336:37,1,162.000000617981,2|8,0:0|0:0,0:0:0:0:
212,37,25530,1,0,0:0:0:0:
62,85,25687,2,0,L|0:175,1,81.0000003089905,2|0,0:0|0:0,0:0:0:0:
166,193,26001,2,0,L|211:259,1,81.0000003089905,8|0,0:0|0:0,0:0:0:0:
384,80,26315,2,0,B|222:80,1,162.000000617981,2|8,0:0|0:0,0:0:0:0:
60,80,26786,2,0,B|222:80,1,162.000000617981,2|0,0:0|0:0,0:0:0:0:
480,65,27257,2,0,L|394:65,1,81.0000003089905,8|0,0:0|0:0,0:0:0:0:
139,144,27571,6,0,P|125:199|217:261,1,162.000000617981,4|8,0:0|0:0,0:0:0:0:
314,268,28043,1,0,0:0:0:0:
214,145,28200,2,0,L|296:145,1,81.0000003089905,2|0,0:0|0:0,0:0:0:0:
449,146,28514,2,0,L|368:146,1,81.0000003089905,8|0,0:0|0:0,0:0:0:0:
133,145,28828,2,0,L|214:145,2,81.0000003089905,2|0|8,0:0|0:0|0:0,0:0:0:0:
19,114,29299,1,0,0:0:0:0:
131,67,29456,2,0,L|211:68,2,81.0000003089905,0|2|8,0:0|0:0|0:0,0:0:0:0:
302,111,29927,1,0,0:0:0:0:
445,137,30085,6,0,P|460:217|403:280,1,162.000000617981,2|8,0:0|0:0,0:0:0:0:
257,275,30556,1,0,0:0:0:0:
87,301,30713,2,0,L|41:234,1,81.0000003089905,2|0,0:0|0:0,0:0:0:0:
204,188,31027,2,0,L|249:121,1,81.0000003089905,8|0,0:0|0:0,0:0:0:0:
405,100,31341,6,0,L|486:100,1,81.0000003089905,2|0,0:0|0:0,0:0:0:0:
304,101,31655,2,0,L|223:101,1,81.0000003089905,8|0,0:0|0:0,0:0:0:0:
60,104,31969,5,8,0:0:0:0:
25,124,32047,1,0,0:0:0:0:
7,160,32126,1,8,0:0:0:0:
11,199,32204,1,0,0:0:0:0:
35,231,32283,1,8,0:0:0:0:
158,194,32441,1,0,0:0:0:0:
397,192,32598,6,0,B|465:233|465:233|392:272,1,162.000000617981,4|8,0:0|0:0,0:0:0:0:
256,271,33069,1,0,0:0:0:0:
120,272,33226,2,0,L|39:272,2,81.0000003089905,2|0|8,0:0|0:0|0:0,0:0:0:0:
16,192,33697,1,0,0:0:0:0:
272,192,33854,2,0,L|110:192,1,162.000000617981,2|8,0:0|0:0,0:0:0:0:
368,96,34325,2,0,L|480:96,1,81.0000003089905,4|0,0:0|0:0,0:0:0:0:
289,96,34640,2,0,L|208:96,1,81.0000003089905,0|8,0:0|0:0,0:0:0:0:
80,96,34954,1,4,0:0:0:0:
320,96,35111,6,0,P|288:152|176:160,1,162.000000617981,8|8,0:0|0:0,0:0:0:0:
80,176,35582,1,0,0:0:0:0:
200,248,35739,2,0,L|304:248,2,81.0000003089905,2|0|8,0:0|0:0|0:0,0:0:0:0:
80,176,36210,1,0,0:0:0:0:
320,160,36367,2,0,P|408:200|400:256,1,162.000000617981,2|8,0:0|0:0,0:0:0:0:
248,160,36838,2,0,P|160:200|168:256,1,162.000000617981,2|0,0:0|0:0,0:0:0:0:
408,168,37310,2,0,L|489:168,1,81.0000003089905,8|0,0:0|0:0,0:0:0:0:
248,160,37624,6,0,P|160:200|168:256,1,162.000000617981,4|8,0:0|0:0,0:0:0:0:
304,264,38095,1,0,0:0:0:0:
489,168,38252,2,0,L|408:168,1,81.0000003089905,2|0,0:0|0:0,0:0:0:0:
232,168,38566,2,0,L|313:168,1,81.0000003089905,8|0,0:0|0:0,0:0:0:0:
72,168,38880,2,0,L|153:168,2,81.0000003089905,2|0|8,0:0|0:0|0:0,0:0:0:0:
232,168,39352,1,0,0:0:0:0:
152,88,39509,2,0,L|71:88,2,81.0000003089905,0|2|8,0:0|0:0|0:0,0:0:0:0:
272,168,39980,1,0,0:0:0:0:
71,88,40137,6,0,L|263:88,1,162.000000617981,2|8,0:0|0:0,0:0:0:0:
64,88,40608,1,0,0:0:0:0:
233,88,40765,2,0,L|145:88,1,81.0000003089905,2|0,0:0|0:0,0:0:0:0:
321,88,41079,2,0,L|402:88,1,81.0000003089905,8|0,0:0|0:0,0:0:0:0:
176,192,41393,6,0,L|-16:192,1,162.000000617981,2|8,0:0|0:0,0:0:0:0:
176,192,41865,1,0,0:0:0:0:
328,192,42022,2,0,L|490:192,1,162.000000617981,2|8,0:0|0:0,0:0:0:0:
328,192,42493,1,0,0:0:0:0:
96,168,42650,6,0,B|64:192|64:192|104:224,1,81.0000003089905,4|0,0:0|0:0,0:0:0:0:
232,168,42964,1,8,0:0:0:0:
96,168,43121,1,0,0:0:0:0:
328,168,43278,2,0,B|360:192|360:192|327:217,1,81.0000003089905,8|0,0:0|0:0,0:0:0:0:
216,168,43592,1,8,0:0:0:0:
96,168,43749,1,0,0:0:0:0:
328,168,43907,2,0,L|409:168,1,81.0000003089905,8|0,0:0|0:0,0:0:0:0:
216,168,44221,1,8,0:0:0:0:
328,168,44378,1,0,0:0:0:0:
64,120,44535,6,0,B|32:152|32:152|64:192,1,81.0000003089905,8|0,0:0|0:0,0:0:0:0:
233,179,44849,2,0,B|256:152|256:152|224:120,1,81.0000003089905,8|0,0:0|0:0,0:0:0:0:
44,232,45163,6,0,P|18:144|125:136,1,202.500000772476,8|0,0:0|0:0,0:0:0:0:
290,330,45634,2,0,P|316:242|229:216,1,202.500000772476,8|0,0:0|0:0,0:0:0:0:
44,232,46106,2,0,L|181:231,1,121.500000463486,8|0,0:0|0:0,0:0:0:0:
353,231,46420,5,8,0:0:0:0:
294,173,46577,1,2,0:0:0:0:
372,152,46734,1,8,0:0:0:0:
448,124,46891,1,2,0:0:0:0:
294,173,47048,1,8,0:0:0:0:
218,201,47205,1,0,0:0:0:0:
140,222,47362,1,8,0:0:0:0:
199,280,47519,1,0,0:0:0:0:
451,222,47676,6,0,P|458:134|370:142,1,162.000000617981,4|2,0:0|0:0,0:0:0:0:
285,117,48147,1,0,0:0:0:0:
120,216,48304,2,0,P|113:128|201:136,1,162.000000617981,8|0,0:0|0:0,0:0:0:0:
285,117,48776,1,2,0:0:0:0:
169,113,48933,2,0,L|78:113,2,81.0000003089905,8|0|2,0:0|0:0|0:0,0:0:0:0:
258,114,49404,2,0,L|339:114,2,81.0000003089905,8|0|0,0:0|0:0|0:0,0:0:0:0:
413,115,49875,1,2,0:0:0:0:
258,114,50032,5,8,0:0:0:0:
258,65,50111,1,8,0:0:0:0:
260,35,50189,2,0,B|257:127,1,81.0000003089905,4|0,0:0|0:0,0:0:0:0:
82,112,50503,1,8,0:0:0:0:
68,170,50581,1,8,0:0:0:0:
50,228,50660,1,8,0:0:0:0:
36,287,50739,1,8,0:0:0:0:
50,228,50818,2,0,B|47:134,1,81.0000003089905,4|0,0:0|0:0,0:0:0:0:
257,115,51132,5,8,0:0:0:0:
298,141,51210,1,8,0:0:0:0:
322,183,51289,1,8,0:0:0:0:
320,231,51367,1,8,0:0:0:0:
302,276,51446,2,0,L|259:179,1,81.0000003089905,4|0,0:0|0:0,0:0:0:0:
105,200,51760,5,8,0:0:0:0:
70,172,51838,1,8,0:0:0:0:
40,137,51917,1,8,0:0:0:0:
9,101,51995,1,8,0:0:0:0:
16,51,52074,2,0,L|61:119,1,81.0000003089905,4|0,0:0|0:0,0:0:0:0:
144,56,52388,1,8,0:0:0:0:
240,56,52545,1,0,0:0:0:0:
480,200,52702,6,0,L|416:48,1,162.000000617981,4|2,0:0|0:0,0:0:0:0:
