osu file format v14

[General]
AudioFilename: audio.mp3
AudioLeadIn: 0
PreviewTime: 10608
Countdown: 1
SampleSet: Soft
StackLeniency: 0.2
Mode: 0
LetterboxInBreaks: 0
WidescreenStoryboard: 0

[Editor]
Bookmarks: 9823,31341,31812,42650,47676
DistanceSpacing: 2
BeatDivisor: 4
GridSize: 32
TimelineZoom: 2

[Metadata]
Title:Kimeta yo Hand in Hand
TitleUnicode:決めたよHand in Hand
Artist:Aqours
ArtistUnicode:Aqours
Creator:JeirYagtama
Version:Insane
Source:ラブライブ!サンシャイン!!
Tags:ラブライブ!サンシャイン!! school idol project Takami Chika 高海千歌 Sakurauchi Riko 桜内梨子 Watanabe You 渡辺 曜 Inami Anju 伊波杏樹 Aida Rikako 逢田梨香子 Saitou Shuka 斉藤朱夏
BeatmapID:1325551
BeatmapSetID:628782

[Difficulty]
HPDrainRate:7
CircleSize:4.1
OverallDifficulty:8
ApproachRate:9
SliderMultiplier:1.4
SliderTickRate:1

[Events]
//Background and Video events
0,0,"hanfg.png",0,0
//Break Periods
//Storyboard Layer 0 (Background)
//Storyboard Layer 1 (Fail)
//Storyboard Layer 2 (Pass)
//Storyboard Layer 3 (Foreground)
//Storyboard Sound Samples

[TimingPoints]
-72,314.13612565445,4,2,3,40,1,0
870,-100,4,2,3,40,0,0
3226,-100,4,2,3,40,0,0
3697,-100,4,2,3,40,0,0
5739,-100,4,2,3,40,0,0
5896,-100,4,2,3,50,0,0
6210,-100,4,2,3,60,0,0
8252,-100,4,2,3,60,0,0
8723,-100,4,2,3,70,0,0
9823,-125,4,2,3,80,0,0
10058,-125,4,2,3,80,0,0
10137,-100,4,2,3,80,0,0
10373,-100,4,2,3,80,0,0
10451,-83.3333333333333,4,2,3,80,0,0
10608,-83.3333333333333,4,2,1,70,0,0
10765,-83.3333333333333,4,2,1,70,0,0
11236,-90.9090909090909,4,2,1,80,0,1
11551,-90.9090909090909,4,2,1,80,0,1
19875,-90.9090909090909,4,2,1,90,0,1
20189,-90.9090909090909,4,2,1,80,0,1
20346,-90.9090909090909,4,2,1,80,0,1
20660,-90.9090909090909,4,2,1,85,0,1
21132,-90.9090909090909,4,2,1,90,0,1
21446,-90.9090909090909,4,2,1,90,0,1
21917,-90.9090909090909,4,2,1,90,0,1
22388,-90.9090909090909,4,2,1,90,0,1
22467,-90.9090909090909,4,2,1,90,0,1
22545,-100,4,2,1,70,0,0
22859,-100,4,2,1,60,0,0
24980,-100,4,2,1,60,0,0
25058,-100,4,2,1,60,0,0
31341,-100,4,2,1,60,0,0
31655,-100,4,2,1,60,0,0
31969,-100,4,2,1,60,0,0
31969,-100,4,2,1,60,0,0
32519,-100,4,2,1,5,0,0
32598,-100,4,2,1,80,0,0
32912,-100,4,2,1,70,0,0
42650,-90.9090909090909,4,2,1,70,0,0
45163,-90.9090909090909,4,2,1,80,0,0
45477,-90.9090909090909,4,2,1,85,0,0
45791,-90.9090909090909,4,2,1,90,0,0
46420,-90.9090909090909,4,2,1,80,0,0
46734,-90.9090909090909,4,2,1,85,0,0
47048,-90.9090909090909,4,2,1,90,0,0
47676,-100,4,2,1,85,0,0
47990,-100,4,2,1,60,0,0
50032,-90.9090909090909,4,2,1,60,0,0
52702,-100,4,2,1,60,0,0
56472,-100,4,2,1,65,0,0
56786,-100,4,2,1,70,0,0
57100,-100,4,2,1,75,0,0
57414,-100,4,2,1,80,0,0
57729,-100,4,2,1,85,0,0
58043,-100,4,2,1,60,0,0
60085,-90.9090909090909,4,2,1,60,0,0
62126,-90.9090909090909,4,2,1,70,0,0
62441,-90.9090909090909,4,2,1,75,0,0
62755,-90.9090909090909,4,2,1,80,0,0
63069,-90.9090909090909,4,2,1,85,0,0
63383,-90.9090909090909,4,2,1,90,0,0
63697,-90.9090909090909,4,2,1,95,0,0
64011,-90.9090909090909,4,2,1,100,0,0
65111,-90.9090909090909,4,2,1,90,0,0
65268,-90.9090909090909,4,2,1,90,0,0
65739,-90.9090909090909,4,2,1,100,0,0
67310,-90.9090909090909,4,2,1,80,0,0
67781,-83.3333333333333,4,2,1,90,0,1
68095,-83.3333333333333,4,2,1,80,0,1
72179,-83.3333333333333,4,2,1,80,0,1
72493,-83.3333333333333,4,2,1,80,0,1
72571,-83.3333333333333,4,2,1,80,0,1
72650,-83.3333333333333,4,2,1,80,0,1
72729,-83.3333333333333,4,2,1,80,0,1
72807,-83.3333333333333,4,2,1,80,0,1
77205,-83.3333333333333,4,2,1,80,0,1
77284,-83.3333333333333,4,2,1,80,0,1
77362,-83.3333333333333,4,2,1,80,0,1
77441,-83.3333333333333,4,2,1,80,0,1
77519,-83.3333333333333,4,2,1,80,0,1
77598,-83.3333333333333,4,2,1,80,0,1
77676,-83.3333333333333,4,2,1,80,0,1
77833,-83.3333333333333,4,2,1,90,0,1
78147,-83.3333333333333,4,2,1,70,0,1
82231,-83.3333333333333,4,2,1,70,0,1
82702,-83.3333333333333,4,2,1,70,0,1
82859,-76.9230769230769,4,2,1,80,0,1
84116,-83.3333333333333,4,2,1,90,0,1
84901,-83.3333333333333,4,2,1,80,0,1
85058,-83.3333333333333,4,2,1,90,0,1
85373,-76.9230769230769,4,2,1,80,0,1
86629,-76.9230769230769,4,2,1,90,0,1
87100,-76.9230769230769,4,2,1,80,0,1
87886,-83.3333333333333,4,2,1,80,0,1
89456,-83.3333333333333,4,2,1,85,0,1
89613,-83.3333333333333,4,2,1,85,0,1
89770,-83.3333333333333,4,2,1,90,0,1
90085,-83.3333333333333,4,2,1,95,0,1
90399,-83.3333333333333,4,2,1,100,0,1
90713,-83.3333333333333,4,2,1,80,0,1
90870,-83.3333333333333,4,2,1,100,0,1
91184,-83.3333333333333,4,2,1,80,0,1
91655,-83.3333333333333,4,2,1,100,0,1
91969,-83.3333333333333,4,2,1,10,0,1
92284,-83.3333333333333,4,2,1,70,0,1
92598,-100,4,2,1,70,0,0
92912,-100,4,2,3,60,0,0
95111,-100,4,2,1,60,0,0
95425,-100,4,2,1,80,0,0
95582,-100,4,2,1,70,0,0
95818,-100,4,2,1,70,0,0
95896,-100,4,2,1,70,0,0
96132,-100,4,2,1,70,0,0
96210,-100,4,2,1,70,0,0
96446,-100,4,2,1,70,0,0
96524,-100,4,2,1,70,0,0
96760,-100,4,2,1,70,0,0
96838,-100,4,2,1,70,0,0
97074,-100,4,2,1,70,0,0
97152,-100,4,2,1,70,0,0
97310,-100,4,2,2,80,0,0
97624,-100,4,2,2,10,0,0
98252,-100,4,2,1,5,0,0

[Colours]
Combo1 : 242,133,0
Combo2 : 255,183,197
Combo3 : 28,107,160

[HitObjects]
51,182,870,6,0,L|126:174,1,70,2|0,0:0|0:0,0:0:0:0:
165,79,1184,2,0,L|256:68,1,70,2|0,0:0|0:0,0:0:0:0:
302,152,1498,1,8,0:0:0:0:
353,60,1655,2,0,L|492:43,1,140,2|0,0:0|0:0,0:0:0:0:
450,162,2126,1,8,0:0:0:0:
485,283,2284,2,0,L|340:264,1,140,2|0,0:0|0:0,0:0:0:0:
233,301,2755,1,2,0:0:0:0:
130,227,2912,2,0,L|60:238,1,70,0|2,0:0|0:0,0:0:0:0:
141,334,3226,5,8,0:0:0:0:
213,222,3383,1,8,0:0:0:0:
213,222,3697,6,0,L|304:211,1,70,2|0,0:0|0:0,0:0:0:0:
197,111,4011,1,8,0:0:0:0:
120,220,4168,2,0,P|158:285|232:316,1,140,2|0,0:0|0:0,0:0:0:0:
282,213,4639,1,8,0:0:0:0:
350,110,4797,2,0,P|410:142|443:203,1,140,2|0,0:0|0:0,0:0:0:0:
374,304,5268,1,8,0:0:0:0:
282,213,5425,2,0,L|213:226,1,70,0|2,0:0|0:0,0:0:0:0:
277,320,5739,5,8,0:0:0:0:
368,199,5896,1,12,0:0:0:0:
368,199,6210,6,0,L|456:182,1,70,6|0,0:0|0:0,0:0:0:0:
351,92,6524,1,8,0:0:0:0:
230,221,6681,2,0,L|387:195,1,140,2|0,0:0|0:0,0:0:0:0:
223,108,7152,1,8,0:0:0:0:
91,243,7310,2,0,L|260:216,1,140,0|0,0:0|0:0,0:0:0:0:
81,127,7781,1,8,0:0:0:0:
173,52,7938,2,0,L|250:40,1,70,0|2,0:0|0:0,0:0:0:0:
163,160,8252,5,8,0:0:0:0:
288,135,8409,1,8,0:0:0:0:
288,135,8723,6,0,L|357:123,1,70,6|0,0:0|0:0,0:0:0:0:
302,233,9037,1,8,0:0:0:0:
271,56,9194,2,0,L|431:30,1,140,2|0,0:0|0:0,0:0:0:0:
464,118,9665,1,8,0:0:0:0:
302,233,9823,6,0,P|259:229|216:254,1,84,4|0,0:0|0:0,0:0:0:0:
142,150,10137,2,0,L|263:137,1,105,4|0,0:0|0:0,0:0:0:0:
287,48,10451,2,0,L|198:57,1,83.9999974365235,4|8,0:0|0:0,0:0:0:0:
66,172,10765,5,8,0:0:0:0:
55,217,10844,1,0,0:0:0:0:
77,256,10922,1,8,0:0:0:0:
106,291,11001,1,8,0:0:0:0:
150,302,11079,1,8,0:0:0:0:
200,305,11158,1,8,0:0:0:0:
237,294,11236,6,0,L|318:264,1,77.0000023498536,4|0,0:0|0:0,0:0:0:0:
348,165,11551,2,0,L|275:191,1,77.0000023498536,8|0,0:0|0:0,0:0:0:0:
313,85,11865,2,0,L|385:58,1,77.0000023498536,8|0,0:0|0:0,0:0:0:0:
441,140,12179,1,8,0:0:0:0:
500,51,12336,1,0,0:0:0:0:
385,58,12493,2,0,L|313:85,1,77.0000023498536,8|0,0:0|0:0,0:0:0:0:
275,191,12807,2,0,L|348:165,1,77.0000023498536,8|0,0:0|0:0,0:0:0:0:
204,120,13121,6,0,P|134:124|66:185,1,154.000004699707,8|8,0:0|0:0,0:0:0:0:
165,209,13592,1,2,0:0:0:0:
112,294,13749,6,0,L|39:320,1,77.0000023498536,4|0,0:0|0:0,0:0:0:0:
225,327,14064,2,0,L|297:300,1,77.0000023498536,8|0,0:0|0:0,0:0:0:0:
437,192,14378,2,0,L|364:218,1,77.0000023498536,8|0,0:0|0:0,0:0:0:0:
234,193,14692,1,8,0:0:0:0:
315,122,14849,1,0,0:0:0:0:
297,299,15006,2,0,L|225:327,1,77.0000023498536,8|0,0:0|0:0,0:0:0:0:
364,219,15320,2,0,L|437:192,1,77.0000023498536,8|0,0:0|0:0,0:0:0:0:
315,122,15634,6,0,P|239:118|177:48,1,154.000004699707,8|8,0:0|0:0,0:0:0:0:
83,66,16106,1,2,0:0:0:0:
79,196,16263,6,0,L|162:254,1,77.0000023498536,4|0,0:0|0:0,0:0:0:0:
277,244,16577,2,0,L|213:199,1,77.0000023498536,8|0,0:0|0:0,0:0:0:0:
344,198,16891,2,0,L|407:242,1,77.0000023498536,8|0,0:0|0:0,0:0:0:0:
473,147,17205,1,8,0:0:0:0:
404,53,17362,1,0,0:0:0:0:
407,242,17519,2,0,L|344:198,1,77.0000023498536,8|0,0:0|0:0,0:0:0:0:
213,199,17833,2,0,L|277:244,1,77.0000023498536,8|0,0:0|0:0,0:0:0:0:
216,101,18147,6,0,P|152:71|59:85,1,154.000004699707,8|8,0:0|0:0,0:0:0:0:
134,152,18619,1,2,0:0:0:0:
79,271,18776,6,0,L|182:271,1,77.0000023498536,4|0,0:0|0:0,0:0:0:0:
289,348,19090,2,0,L|212:348,1,77.0000023498536,8|0,0:0|0:0,0:0:0:0:
355,268,19404,2,0,L|432:268,1,77.0000023498536,8|0,0:0|0:0,0:0:0:0:
461,156,19718,1,8,0:0:0:0:
337,171,19875,6,0,P|262:155|200:79,1,154.000004699707,4|0,0:0|0:0,0:0:0:0:
68,191,20346,1,8,0:0:0:0:
97,68,20503,1,0,0:0:0:0:
140,292,20660,1,8,0:0:0:0:
169,169,20817,1,0,0:0:0:0:
274,261,20975,1,8,0:0:0:0:
368,174,21132,6,0,P|447:132|466:55,1,154.000004699707,4|0,0:0|0:0,0:0:0:0:
306,86,21603,1,8,0:0:0:0:
381,89,21760,1,0,0:0:0:0:
229,91,21917,5,8,0:0:0:0:
229,91,21996,1,2,0:0:0:0:
229,91,22074,2,0,L|228:135,1,38.5000011749268,8|0,0:0|0:0,0:0:0:0:
225,241,22231,2,0,P|256:291|325:321,1,115.50000352478,4|0,0:0|0:0,0:0:0:0:
449,224,22545,6,0,B|413:204|384:217|384:217|351:240|310:218,1,140,4|8,0:0|0:0,0:0:0:0:
225,241,23017,1,0,0:0:0:0:
132,288,23174,2,0,L|59:296,1,70,2|0,0:0|0:0,0:0:0:0:
113,173,23488,2,0,L|182:165,1,70,8|0,0:0|0:0,0:0:0:0:
294,123,23802,2,0,P|361:136|439:170,1,140,2|8,0:0|0:0,0:0:0:0:
467,297,24273,2,0,P|400:284|322:250,1,140,2|0,0:0|0:0,0:0:0:0:
186,219,24744,2,0,P|153:228|122:244,1,70,8|0,0:0|0:0,0:0:0:0:
242,281,25058,6,0,P|254:176|222:147,1,140,2|8,0:0|0:0,0:0:0:0:
95,157,25530,1,0,0:0:0:0:
121,244,25687,2,0,P|153:228|186:219,1,70,2|0,0:0|0:0,0:0:0:0:
307,256,26001,2,0,P|273:264|242:280,1,70,8|0,0:0|0:0,0:0:0:0:
344,171,26315,2,0,P|375:155|489:131,1,140,2|8,0:0|0:0,0:0:0:0:
378,45,26786,2,0,P|309:56|245:84,1,140,2|0,0:0|0:0,0:0:0:0:
234,204,27257,2,0,P|265:188|298:179,1,70,8|0,0:0|0:0,0:0:0:0:
193,280,27571,6,0,P|154:181|177:145,1,140,4|8,0:0|0:0,0:0:0:0:
234,204,28043,1,0,0:0:0:0:
276,299,28200,2,0,P|307:314|340:323,1,70,2|0,0:0|0:0,0:0:0:0:
464,281,28514,2,0,P|430:272|399:256,1,70,8|0,0:0|0:0,0:0:0:0:
243,127,28828,2,0,P|282:149|381:161,1,140,2|8,0:0|0:0,0:0:0:0:
508,106,29299,2,0,P|438:101|375:71,1,140,0|2,0:0|0:0,0:0:0:0:
243,127,29770,2,0,P|209:118|178:102,1,70,8|0,0:0|0:0,0:0:0:0:
328,264,30085,6,0,P|258:259|195:229,1,140,2|8,0:0|0:0,0:0:0:0:
80,149,30556,1,0,0:0:0:0:
107,266,30713,2,0,P|73:257|42:241,1,70,2|0,0:0|0:0,0:0:0:0:
162,333,31027,2,0,P|193:348|226:357,1,70,8|0,0:0|0:0,0:0:0:0:
328,264,31341,2,0,P|359:248|392:239,1,70,2|0,0:0|0:0,0:0:0:0:
255,190,31655,2,0,P|223:174|190:165,1,70,8|0,0:0|0:0,0:0:0:0:
125,65,31969,5,8,0:0:0:0:
78,77,32048,1,0,0:0:0:0:
49,115,32126,1,8,0:0:0:0:
28,159,32205,1,0,0:0:0:0:
34,204,32284,2,0,P|69:243|130:263,1,105,8|8,0:0|0:0,0:0:0:0:
196,341,32598,6,0,P|264:346|318:304,1,140,4|8,0:0|0:0,0:0:0:0:
241,258,33069,1,0,0:0:0:0:
409,281,33226,2,0,P|453:289|497:304,1,70,2|0,0:0|0:0,0:0:0:0:
364,196,33540,2,0,P|330:186|295:180,1,70,8|0,0:0|0:0,0:0:0:0:
376,46,33854,5,2,0:0:0:0:
434,140,34011,1,2,0:0:0:0:
282,92,34168,1,8,0:0:0:0:
152,194,34325,2,0,P|186:188|220:178,1,70,4|0,0:0|0:0,0:0:0:0:
117,94,34640,2,0,P|83:103|48:109,1,70,0|8,0:0|0:0,0:0:0:0:
65,248,34954,1,4,0:0:0:0:
263,293,35111,6,0,P|216:319|109:339,1,140,8|8,0:0|0:0,0:0:0:0:
65,248,35582,1,0,0:0:0:0:
152,194,35739,2,0,P|186:188|220:179,1,70,2|0,0:0|0:0,0:0:0:0:
305,67,36053,2,0,P|271:75|236:81,1,70,8|0,0:0|0:0,0:0:0:0:
332,162,36367,2,0,P|375:156|463:117,1,140,2|8,0:0|0:0,0:0:0:0:
407,245,36838,2,0,P|344:276|276:289,1,140,2|0,0:0|0:0,0:0:0:0:
155,217,37310,2,0,P|121:225|86:231,1,70,8|0,0:0|0:0,0:0:0:0:
267,67,37624,6,0,P|204:98|136:111,1,140,4|8,0:0|0:0,0:0:0:0:
245,187,38095,1,0,0:0:0:0:
352,135,38252,2,0,P|385:126|420:120,1,70,2|0,0:0|0:0,0:0:0:0:
512,224,38566,2,0,P|477:229|443:238,1,70,8|0,0:0|0:0,0:0:0:0:
300,347,38880,2,0,P|340:331|443:329,1,140,2|8,0:0|0:0,0:0:0:0:
324,241,39352,2,0,P|254:239|188:260,1,140,0|2,0:0|0:0,0:0:0:0:
51,205,39823,2,0,P|84:195|119:190,1,70,8|0,0:0|0:0,0:0:0:0:
218,91,40137,6,0,P|148:85|82:107,1,140,2|8,0:0|0:0,0:0:0:0:
214,173,40608,1,0,0:0:0:0:
352,231,40765,2,0,P|343:196|331:163,1,70,2|0,0:0|0:0,0:0:0:0:
403,44,41079,2,0,P|415:76|423:110,1,70,8|0,0:0|0:0,0:0:0:0:
437,249,41393,2,0,P|376:267|308:333,1,140,2|8,0:0|0:0,0:0:0:0:
216,342,41865,1,0,0:0:0:0:
173,246,42022,2,0,P|121:199|52:178,1,140,2|8,0:0|0:0,0:0:0:0:
36,39,42493,1,0,0:0:0:0:
151,130,42650,6,0,P|142:95|125:57,1,77.0000023498536,4|0,0:0|0:0,0:0:0:0:
297,43,42964,1,8,0:0:0:0:
233,139,43121,1,0,0:0:0:0:
342,175,43278,6,0,P|357:210|367:247,1,77.0000023498536,8|0,0:0|0:0,0:0:0:0:
334,56,43592,1,8,0:0:0:0:
230,107,43749,1,0,0:0:0:0:
307,193,43906,6,0,P|303:231|293:268,1,77.0000023498536,8|0,0:0|0:0,0:0:0:0:
187,221,44221,1,8,0:0:0:0:
293,268,44378,1,0,0:0:0:0:
170,335,44535,6,0,P|133:347|95:354,1,77.0000023498536,8|0,0:0|0:0,0:0:0:0:
19,267,44849,2,0,P|56:260|93:247,1,77.0000023498536,8|0,0:0|0:0,0:0:0:0:
134,139,45163,6,0,P|97:153|59:158,1,77.0000023498536,8|0,0:0|0:0,0:0:0:0:
78,52,45477,1,8,0:0:0:0:
197,179,45634,6,0,P|234:193|272:198,1,77.0000023498536,8|0,0:0|0:0,0:0:0:0:
253,92,45948,1,8,0:0:0:0:
396,233,46106,6,0,P|359:247|321:252,1,77.0000023498536,8|0,0:0|0:0,0:0:0:0:
340,146,46420,1,8,0:0:0:0:
472,122,46577,1,2,0:0:0:0:
340,146,46734,1,8,0:0:0:0:
413,46,46891,1,2,0:0:0:0:
469,212,47048,2,0,P|431:226|370:233,1,77.0000023498536,8|0,0:0|0:0,0:0:0:0:
272,325,47362,2,0,P|310:328|348:324,1,77.0000023498536,8|0,0:0|0:0,0:0:0:0:
223,235,47676,6,0,B|152:241|152:241|77:197,1,140,4|2,0:0|0:0,0:0:0:0:
16,132,48147,1,0,0:0:0:0:
110,127,48304,2,0,B|169:161|169:161|240:155,1,140,8|0,0:0|0:0,0:0:0:0:
312,98,48776,1,2,0:0:0:0:
409,153,48933,2,0,L|486:144,1,70,8|0,0:0|0:0,0:0:0:0:
497,233,49247,1,2,0:0:0:0:
432,297,49404,1,8,0:0:0:0:
351,255,49561,2,0,L|274:246,1,70,0|0,0:0|0:0,0:0:0:0:
216,310,49875,1,2,0:0:0:0:
112,267,50032,5,8,0:0:0:0:
112,267,50111,1,8,0:0:0:0:
112,267,50189,2,0,P|100:218|81:186,1,77.0000023498536,4|0,0:0|0:0,0:0:0:0:
221,119,50503,5,8,0:0:0:0:
221,119,50582,1,8,0:0:0:0:
221,119,50660,1,8,0:0:0:0:
221,119,50739,1,8,0:0:0:0:
221,119,50818,2,0,P|233:70|252:38,1,77.0000023498536,4|0,0:0|0:0,0:0:0:0:
413,140,51132,5,8,0:0:0:0:
413,140,51211,1,8,0:0:0:0:
413,140,51289,1,8,0:0:0:0:
413,140,51368,1,8,0:0:0:0:
413,140,51447,2,0,P|401:189|382:221,1,77.0000023498536,4|0,0:0|0:0,0:0:0:0:
231,320,51760,5,8,0:0:0:0:
231,320,51839,1,8,0:0:0:0:
231,320,51917,1,8,0:0:0:0:
231,320,51996,1,8,0:0:0:0:
232,320,52075,2,0,P|215:285|207:247,1,77.0000023498536,4|0,0:0|0:0,0:0:0:0:
87,333,52388,1,8,0:0:0:0:
43,174,52545,1,0,0:0:0:0:
183,68,52702,6,0,B|142:61|114:76|114:76|86:89|40:81,1,140,4|2,0:0|0:0,0:0:0:0:
43,174,53174,1,0,0:0:0:0:
132,157,53331,2,0,B|172:150|200:165|200:165|228:178|274:170,1,140,8|0,0:0|0:0,0:0:0:0:
272,263,53803,1,2,0:0:0:0:
361,272,53959,2,0,P|354:310|332:355,1,70,8|2,0:0|0:0,0:0:0:0:
433,349,54273,1,2,0:0:0:0:
486,275,54430,1,8,0:0:0:0:
431,202,54587,2,0,P|443:169|449:135,1,70,0|0,0:0|0:0,0:0:0:0:
412,51,54901,1,2,0:0:0:0:
334,98,55058,5,8,0:0:0:0:
334,98,55137,1,8,0:0:0:0:
334,98,55215,2,0,B|292:93|292:93|265:99|265:99|239:85|239:85|179:76,1,140,4|2,0:0|0:0,0:0:0:0:
118,122,55687,1,0,0:0:0:0:
320,201,55844,2,0,B|280:195|280:195|254:181|254:181|227:187|227:187|185:182,1,140,8|8,0:0|0:0,0:0:0:0:
108,231,56315,1,0,0:0:0:0:
153,358,56472,5,8,0:0:0:0:
243,263,56629,1,2,0:0:0:0:
370,310,56786,1,8,0:0:0:0:
252,187,56943,1,2,0:0:0:0:
416,234,57100,2,0,P|439:208|456:177,1,70,8|0,0:0|0:0,0:0:0:0:
396,44,57414,2,0,P|412:74|436:100,1,70,8|0,0:0|0:0,0:0:0:0:
306,60,57729,6,0,P|237:58|179:129,1,140,4|2,0:0|0:0,0:0:0:0:
135,161,58200,1,0,0:0:0:0:
216,209,58357,2,0,P|147:207|89:278,1,140,8|0,0:0|0:0,0:0:0:0:
45,310,58828,1,2,0:0:0:0:
189,350,58985,2,0,L|174:271,1,70,8|0,0:0|0:0,0:0:0:0:
269,343,59299,1,2,0:0:0:0:
319,243,59456,2,0,L|304:172,1,70,8|0,0:0|0:0,0:0:0:0:
382,94,59770,2,0,L|396:162,1,70,0|8,0:0|0:0,0:0:0:0:
210,45,60085,5,8,0:0:0:0:
216,53,60163,1,8,0:0:0:0:
216,53,60242,2,0,P|235:105|233:157,1,77.0000023498536,4|0,0:0|0:0,0:0:0:0:
92,201,60556,5,8,0:0:0:0:
92,201,60634,1,8,0:0:0:0:
92,201,60713,1,8,0:0:0:0:
92,201,60791,1,8,0:0:0:0:
92,201,60870,2,0,P|46:232|18:276,1,77.0000023498536,4|0,0:0|0:0,0:0:0:0:
215,326,61184,5,8,0:0:0:0:
215,326,61262,1,8,0:0:0:0:
215,326,61341,1,8,0:0:0:0:
215,326,61419,1,8,0:0:0:0:
215,326,61498,2,0,P|260:294|311:282,1,77.0000023498536,4|0,0:0|0:0,0:0:0:0:
322,110,61812,5,8,0:0:0:0:
322,110,61890,1,8,0:0:0:0:
322,110,61969,1,8,0:0:0:0:
322,110,62047,1,8,0:0:0:0:
322,110,62126,2,0,P|286:124|256:148,1,77.0000023498536,4|0,0:0|0:0,0:0:0:0:
180,226,62441,1,8,0:0:0:0:
327,193,62598,1,0,0:0:0:0:
148,85,62755,6,0,P|72:101|58:199,1,154.000004699707,4|8,0:0|0:0,0:0:0:0:
43,284,63226,1,2,0:0:0:0:
127,163,63383,1,8,0:0:0:0:
229,279,63540,1,2,0:0:0:0:
91,230,63697,1,8,0:0:0:0:
262,178,63854,1,2,0:0:0:0:
148,85,64011,6,0,P|72:101|58:199,1,154.000004699707,4|2,0:0|0:0,0:0:0:0:
229,88,64482,2,0,P|273:76|328:76,1,77.0000023498536,4|0,0:0|0:0,0:0:0:0:
456,118,64797,2,0,P|417:121|380:131,1,77.0000023498536,4|0,0:0|0:0,0:0:0:0:
437,238,65111,1,2,0:0:0:0:
250,211,65268,6,0,P|294:199|349:199,1,77.0000023498536,8|0,0:0|0:0,0:0:0:0:
376,288,65582,1,2,0:0:0:0:
253,299,65739,2,0,P|224:294|161:198,1,154.000004699707,4|2,0:0|0:0,0:0:0:0:
38,242,66210,1,8,0:0:0:0:
134,337,66367,1,2,0:0:0:0:
77,162,66524,5,4,0:0:0:0:
77,162,67310,5,2,0:0:0:0:
120,260,67467,1,8,0:0:0:0:
201,177,67624,1,0,0:0:0:0:
313,89,67781,6,0,P|359:84|401:67,1,83.9999974365235,4|0,0:0|0:0,0:0:0:0:
512,138,68095,2,0,P|472:152|430:156,1,83.9999974365235,8|0,0:0|0:0,0:0:0:0:
364,275,68409,1,8,0:0:0:0:
334,172,68566,1,0,0:0:0:0:
259,292,68723,1,8,0:0:0:0:
103,256,68880,6,0,P|57:261|15:278,1,83.9999974365235,0|8,0:0|0:0,0:0:0:0:
155,179,69195,2,0,P|194:164|236:160,1,83.9999974365235,0|8,0:0|0:0,0:0:0:0:
84,117,69509,2,0,P|42:120|2:135,1,83.9999974365235,0|8,0:0|0:0,0:0:0:0:
128,36,69823,1,0,0:0:0:0:
155,179,69980,1,8,0:0:0:0:
277,76,70137,1,0,0:0:0:0:
382,195,70294,6,0,B|435:210|497:245|497:245|450:268,1,167.999994873047,4|8,0:0|0:0,0:0:0:0:
327,289,70765,2,0,B|273:273|211:238|211:238|258:215,1,167.999994873047,0|0,0:0|0:0,0:0:0:0:
299,118,71236,1,8,0:0:0:0:
157,183,71393,2,0,P|132:230|137:285,1,83.9999974365235,4|0,0:0|0:0,0:0:0:0:
63,139,71708,2,0,P|38:92|43:37,1,83.9999974365235,4|2,0:0|0:0,0:0:0:0:
120,72,72022,1,4,0:0:0:0:
247,51,72179,5,8,0:0:0:0:
291,69,72257,1,0,0:0:0:0:
338,59,72336,1,8,0:0:0:0:
381,78,72414,1,0,0:0:0:0:
405,120,72493,2,0,L|411:180,1,41.9999987182618,8|8,0:0|0:0,0:0:0:0:
315,183,72650,2,0,L|319:225,1,41.9999987182618,8|8,0:0|0:0,0:0:0:0:
201,248,72807,6,0,L|215:352,1,83.9999974365235,4|0,0:0|0:0,0:0:0:0:
91,280,73121,2,0,L|79:196,1,83.9999974365235,8|0,0:0|0:0,0:0:0:0:
214,149,73435,1,8,0:0:0:0:
102,89,73592,1,0,0:0:0:0:
213,30,73749,1,8,0:0:0:0:
321,84,73907,6,0,P|363:84|419:109,1,83.9999974365235,0|8,0:0|0:0,0:0:0:0:
511,190,74221,2,0,P|469:190|413:215,1,83.9999974365235,0|8,0:0|0:0,0:0:0:0:
307,277,74535,2,0,P|349:277|405:302,1,83.9999974365235,0|8,0:0|0:0,0:0:0:0:
350,164,74849,1,0,0:0:0:0:
264,71,75006,1,8,0:0:0:0:
223,190,75163,1,0,0:0:0:0:
130,71,75320,6,0,B|63:100|31:162|31:162|92:186,1,167.999994873047,4|8,0:0|0:0,0:0:0:0:
152,292,75791,2,0,B|219:263|251:201|251:201|190:177,1,167.999994873047,4|4,0:0|0:0,0:0:0:0:
59,173,76263,1,8,0:0:0:0:
229,69,76420,2,0,P|302:78|355:176,1,167.999994873047,4|2,0:0|0:0,0:0:0:0:
426,319,76891,1,8,0:0:0:0:
390,235,77048,1,0,0:0:0:0:
235,321,77205,6,0,L|256:285,1,41.9999987182618,8|0,0:0|0:0,0:0:0:0:
124,322,77362,2,0,L|144:285,1,41.9999987182618,8|0,0:0|0:0,0:0:0:0:
167,245,77519,1,8,0:0:0:0:
142,204,77597,1,8,0:0:0:0:
98,186,77676,1,8,0:0:0:0:
72,146,77754,1,8,0:0:0:0:
77,99,77833,6,0,P|100:64|156:37,1,83.9999974365235,4|0,0:0|0:0,0:0:0:0:
264,58,78147,2,0,P|228:80|205:115,1,83.9999974365235,8|0,0:0|0:0,0:0:0:0:
262,220,78462,2,0,P|299:144|404:116,1,167.999994873047,2|8,0:0|0:0,0:0:0:0:
357,212,78933,1,0,0:0:0:0:
258,298,79090,2,0,P|234:332|199:354,1,83.9999974365235,2|0,0:0|0:0,0:0:0:0:
75,311,79404,2,0,P|110:289|133:254,1,83.9999974365235,8|0,0:0|0:0,0:0:0:0:
157,82,79718,2,0,P|120:158|15:186,1,167.999994873047,2|8,0:0|0:0,0:0:0:0:
63,94,80189,1,0,0:0:0:0:
271,128,80346,6,0,B|248:97|248:97|289:57|334:48|387:71,1,167.999994873047,4|2,0:0|0:0,0:0:0:0:
385,224,80818,2,0,P|358:176|351:134,1,83.9999974365235,4|0,0:0|0:0,0:0:0:0:
181,133,81132,2,0,P|191:173|214:208,1,83.9999974365235,2|2,0:0|0:0,0:0:0:0:
331,329,81446,2,0,P|247:307|165:346,1,167.999994873047,4|0,0:0|0:0,0:0:0:0:
60,309,81917,1,8,0:0:0:0:
123,198,82074,1,0,0:0:0:0:
47,141,82231,5,8,0:0:0:0:
69,86,82310,1,0,0:0:0:0:
121,59,82388,1,8,0:0:0:0:
175,81,82467,1,0,0:0:0:0:
209,131,82545,1,8,0:0:0:0:
225,187,82624,1,8,0:0:0:0:
277,213,82702,1,8,0:0:0:0:
400,157,82859,6,0,B|422:125|397:94|397:94|374:58|400:24,2,121.333327779134,8|8|8,0:0|0:0|0:0,0:0:0:0:
442,349,83488,2,0,B|420:317|445:286|445:286|468:250|442:216,2,121.333327779134,8|8|8,0:0|0:0|0:0,0:0:0:0:
252,252,84116,2,0,B|139:225|87:275|78:313|85:352|131:378|164:369|229:305|201:199,1,419.999987182618,8|2,0:0|0:0,0:0:0:0:
361,149,85058,1,8,0:0:0:0:
243,28,85215,1,0,0:0:0:0:
85,155,85373,6,0,B|87:130|87:130|105:98|105:98|87:63|87:63|86:10,2,121.333327779134,8|8|8,0:0|0:0|0:0,0:0:0:0:
159,345,86001,2,0,B|156:320|156:320|138:288|138:288|156:253|156:253|157:200,2,121.333327779134,8|8|8,0:0|0:0|0:0,0:0:0:0:
319,152,86629,2,0,B|385:145|443:91|443:91|401:79,1,181.999991668702,8|0,0:0|0:0,0:0:0:0:
313,43,87100,1,2,0:0:0:0:
477,173,87257,5,8,0:0:0:0:
506,58,87414,1,0,0:0:0:0:
319,152,87571,1,8,0:0:0:0:
382,266,87729,1,0,0:0:0:0:
222,314,87886,6,0,P|185:307|141:272,1,83.9999974365235,8|0,0:0|0:0,0:0:0:0:
216,219,88200,1,2,0:0:0:0:
150,96,88357,2,0,P|113:103|69:138,1,83.9999974365235,8|0,0:0|0:0,0:0:0:0:
144,191,88671,1,0,0:0:0:0:
281,97,88828,2,0,P|318:104|362:139,1,83.9999974365235,8|0,0:0|0:0,0:0:0:0:
315,280,89142,2,0,B|381:292|437:238|437:238|402:219,1,167.999994873047,8|2,0:0|0:0,0:0:0:0:
325,193,89613,1,2,0:0:0:0:
302,359,89770,5,2,0:0:0:0:
199,235,89927,1,2,0:0:0:0:
85,336,90085,1,2,0:0:0:0:
249,300,90242,1,2,0:0:0:0:
96,251,90399,6,0,P|57:175|115:98,1,167.999994873047,4|8,0:0|0:0,0:0:0:0:
279,209,90870,2,0,P|218:156|141:177,1,167.999994873047,4|0,0:0|0:0,0:0:0:0:
239,83,91341,1,8,0:0:0:0:
200,238,91498,6,0,B|245:303|245:303|267:320|302:295|344:311|344:311|366:275|397:277|414:249|414:249|428:183,1,335.999989746094,4|0,0:0|0:0,0:0:0:0:
312,211,92284,1,0,0:0:0:0:
439,114,92441,1,2,0:0:0:0:
311,41,92598,1,8,0:0:0:0:
103,119,92912,5,2,0:0:0:0:
59,262,93069,2,0,P|85:285|139:295,1,70,0|0,0:0|0:0,0:0:0:0:
192,178,93383,2,0,P|165:201|132:211,1,70,2|0,0:0|0:0,0:0:0:0:
224,264,93697,2,0,P|250:287|304:297,1,70,2|0,0:0|0:0,0:0:0:0:
358,176,94011,2,0,P|331:199|298:209,1,70,2|0,0:0|0:0,0:0:0:0:
380,264,94325,2,0,P|406:287|460:297,1,70,2|0,0:0|0:0,0:0:0:0:
478,209,94640,1,0,0:0:0:0:
439,119,94797,2,0,P|405:108|379:85,1,70,2|0,0:0|0:0,0:0:0:0:
240,101,95111,2,0,P|196:68|131:62,1,105,8|0,0:0|0:0,0:0:0:0:
164,143,95425,5,8,0:0:0:0:
77,267,95582,2,0,P|120:292|158:333,1,105,8|0,0:0|0:0,0:0:0:0:
298,328,95896,2,0,P|262:289|217:262,1,105,8|0,0:0|0:0,0:0:0:0:
356,240,96210,2,0,P|399:265|437:306,1,105,8|0,0:0|0:0,0:0:0:0:
448,119,96524,2,0,P|416:73|350:43,1,105,8|0,0:0|0:0,0:0:0:0:
264,161,96838,2,0,P|319:156|378:114,1,105,8|0,0:0|0:0,0:0:0:0:
291,73,97153,1,8,0:0:0:0:
86,207,97310,2,0,B|138:223|117:287|162:316|207:340|229:296|229:296|230:240|165:270,1,280,4|0,0:0|0:0,0:0:0:0:
