osu file format v14

[General]
AudioFilename: audio.mp3
AudioLeadIn: 0
PreviewTime: 10530
Countdown: 0
SampleSet: Soft
StackLeniency: 0.7
Mode: 0
LetterboxInBreaks: 0
WidescreenStoryboard: 0

[Editor]
Bookmarks: 873,1030,1187,5900,6214,8727,10769,11240,13125,13282,13439,13596,15638,15795,15952,16109,18151,18308,18465,18622,19879,21135,22549,28046,31345,31659,31973,32601,41397,41554,41711,41868,42025,42653,44538,44695,44852,45009,45167,46423,47208,47680,50193,50821,51449,52078,52706,55219,56475,57732,60245,60873,61502,62130,62758,64015,65271,66528,67784,71397,72811,76423,77208,77837,81449,82863,84119,85376,86633,87889,89774,89931,90088,90245,91659,92915,95428,97313,98256
DistanceSpacing: 2.3
BeatDivisor: 4
GridSize: 4
TimelineZoom: 1.9

[Metadata]
Title:Kimeta yo Hand in Hand
TitleUnicode:決めたよHand in Hand
Artist:Aqours
ArtistUnicode:Aqours
Creator:-Nitrous
Version:Sotarks' Ultimate
Source:Lovelive! Sunshine!!
Tags:ラブライブ!サンシャイン!! school idol project Takami Chika 高海千歌 Sakurauchi Riko 桜内梨子 Watanabe You 渡辺 曜 Inami Anju 伊波杏樹 Aida Rikako 逢田梨香子 Saitou Shuka 斉藤朱夏 Akitoshi Corinn Sotarks Kalibe
BeatmapID:1109552
BeatmapSetID:507355

[Difficulty]
HPDrainRate:6.2
CircleSize:4.2
OverallDifficulty:9
ApproachRate:9.6
SliderMultiplier:1.92
SliderTickRate:1

[Events]
//Background and Video events
Video,994,"Kimeta yo Hand in Hand.avi"
0,0,"BGSotarks2.jpg",0,0
//Break Periods
//Storyboard Layer 0 (Background)
//Storyboard Layer 1 (Fail)
//Storyboard Layer 2 (Pass)
//Storyboard Layer 3 (Foreground)
//Storyboard Sound Samples

[TimingPoints]
-72,314.13612565445,4,2,22,42,1,0
870,-121.951219512195,4,2,22,42,0,0
948,-121.951219512195,4,2,22,5,0,0
1027,-121.951219512195,4,2,22,42,0,0
1106,-121.951219512195,4,2,22,5,0,0
1184,-108.695652173913,4,2,0,52,0,0
5660,-108.695652173913,4,2,2,52,0,0
6132,-108.695652173913,4,2,2,5,0,0
6210,-98.0392156862745,4,2,22,52,0,0
11236,-89.2857142857143,4,2,22,62,0,0
22545,-98.0392156862745,4,2,22,52,0,0
47676,-121.951219512195,4,3,22,52,0,0
55844,-121.951219512195,4,2,22,52,0,0
56472,-121.951219512195,4,2,22,32,0,0
56629,-121.951219512195,4,2,22,42,0,0
56786,-121.951219512195,4,2,22,52,0,0
56943,-121.951219512195,4,2,22,62,0,0
57100,-98.0392156862744,4,2,22,72,0,0
57650,-98.0392156862744,4,2,22,5,0,0
57729,-121.951219512195,4,3,22,52,0,0
62756,-121.951219512195,4,2,22,62,0,0
63069,-121.951219512195,4,2,22,32,0,0
63227,-121.951219512195,4,2,22,42,0,0
63383,-121.951219512195,4,2,22,52,0,0
63540,-121.951219512195,4,2,22,62,0,0
63697,-121.951219512195,4,2,22,72,0,0
64011,-81.9672131147541,4,2,22,72,0,0
66838,-81.9672131147541,4,2,22,42,0,0
67310,-81.9672131147541,4,2,22,52,0,0
67467,-108.695652173913,4,2,22,72,0,0
67702,-98.0392156862744,4,3,22,5,0,0
67781,-89.2857142857143,4,3,22,72,0,0
77833,-108.695652173913,4,2,22,62,0,0
77835,-108.695652173913,4,2,22,62,0,0
80818,-98.0392156862745,4,2,22,62,0,0
81053,-98.0392156862745,4,2,22,5,0,0
81132,-81.9672131147541,4,2,22,62,0,0
81367,-81.9672131147541,4,2,22,5,0,0
81446,-81.9672131147541,4,2,22,62,0,0
81760,-98.0392156862745,4,2,22,62,0,0
82964,-98.0392156862745,4,2,22,5,0,0
83069,-98.0392156862745,4,2,22,62,0,0
83174,-98.0392156862745,4,2,22,5,0,0
83278,-98.0392156862745,4,2,22,62,0,0
83383,-98.0392156862745,4,2,22,5,0,0
83488,-98.0392156862745,4,2,22,62,0,0
83592,-98.0392156862745,4,2,22,5,0,0
83697,-98.0392156862745,4,2,22,62,0,0
83802,-98.0392156862745,4,2,22,5,0,0
83907,-98.0392156862745,4,2,22,62,0,0
84011,-98.0392156862745,4,2,22,5,0,0
84116,-98.0392156862745,4,2,22,62,0,0
85477,-98.0392156862745,4,2,22,5,0,0
85582,-98.0392156862745,4,2,22,62,0,0
85687,-98.0392156862745,4,2,22,5,0,0
85791,-98.0392156862745,4,2,22,62,0,0
85896,-98.0392156862745,4,2,22,5,0,0
86001,-98.0392156862745,4,2,22,62,0,0
86106,-98.0392156862745,4,2,22,5,0,0
86210,-98.0392156862745,4,2,22,62,0,0
86315,-98.0392156862745,4,2,22,5,0,0
86420,-98.0392156862745,4,2,22,62,0,0
86524,-98.0392156862745,4,2,22,5,0,0
86629,-98.0392156862745,4,2,22,62,0,0
87887,-98.0392156862745,4,2,22,62,0,0
89772,-98.0392156862745,4,2,22,32,0,0
89929,-98.0392156862745,4,2,22,42,0,0
90086,-98.0392156862745,4,2,22,62,0,0
90243,-98.0392156862745,4,2,22,72,0,0
92913,-138.888888888889,4,2,22,42,0,0
95426,-98.0392156862745,4,2,22,62,0,0
98254,-98.0392156862745,4,2,22,12,0,0

[Colours]
Combo1 : 236,179,121
Combo2 : 255,245,130
Combo3 : 66,222,255
Combo4 : 255,89,89

[HitObjects]
386,113,870,6,0,P|338:121|329:125,1,39.3600006005859,2|0,0:0|0:0,0:0:0:0:
290,203,1027,2,0,P|270:207|251:207,1,39.3600006005859,2|0,0:0|0:0,0:0:0:0:
77,152,1184,6,0,P|115:141|174:136,1,88.3199970351563,2|0,0:0|0:0,0:0:0:0:
304,207,1498,1,8,0:0:0:0:
188,61,1655,5,2,0:0:0:0:
102,335,1969,1,2,0:0:0:0:
188,61,2284,1,2,0:0:0:0:
102,335,2598,5,2,0:0:0:0:
70,177,2755,1,10,0:0:0:0:
247,249,2912,1,2,0:0:0:0:
127,249,3069,5,2,0:0:0:0:
183,75,3226,1,8,0:0:0:0:
295,173,3383,2,0,P|229:170|196:180,1,88.3199970351563,10|0,0:0|0:0,0:0:0:0:
53,311,3698,6,0,L|38:199,1,88.3199970351563,2|0,0:0|0:0,0:0:0:0:
98,65,4012,1,8,0:0:0:0:
163,257,4169,5,2,0:0:0:0:
387,61,4483,1,2,0:0:0:0:
163,257,4797,1,2,0:0:0:0:
387,61,5111,5,2,0:0:0:0:
430,223,5268,1,2,0:0:0:0:
249,144,5425,1,2,0:0:0:0:
375,148,5582,5,2,0:0:0:0:
156,186,5739,1,0,1:0:0:0:
276,40,5896,6,0,L|288:200,1,132.479995552735,8|0,0:0|0:0,0:0:0:0:
336,268,6210,6,0,L|232:252,1,97.9200005976563,10|0,0:0|0:0,0:0:0:0:
52,336,6524,2,0,L|156:320,1,97.9200005976563,8|2,0:0|0:0,0:0:0:0:
104,160,6838,5,8,0:0:0:0:
128,240,6996,1,2,0:0:0:0:
288,100,7153,5,8,0:0:0:0:
264,180,7310,1,2,0:0:0:0:
72,64,7467,6,0,P|32:120|20:160,1,97.9200005976563,8|2,0:0|0:0,0:0:0:0:
239,253,7781,5,8,0:0:0:0:
104,148,7938,1,0,1:0:0:0:
160,340,8095,5,8,0:0:0:0:
191,160,8252,1,0,1:0:0:0:
70,286,8409,5,8,0:0:0:0:
288,324,8566,1,0,1:0:0:0:
8,208,8723,6,0,B|76:196|154:233|154:233|184:276,2,195.840001195313,14|8|8,0:0|0:0|0:0,0:0:0:0:
80,112,9509,1,2,0:0:0:0:
80,280,9666,1,8,0:0:0:0:
128,48,9823,5,4,1:0:0:0:
128,48,10137,1,2,0:0:0:0:
8,207,10294,1,8,0:0:0:0:
80,112,10451,1,0,1:0:0:0:
80,112,10765,5,8,0:0:0:0:
129,132,10844,1,8,0:0:0:0:
182,130,10922,1,8,0:0:0:0:
233,113,11001,1,8,0:0:0:0:
285,99,11079,1,8,0:0:0:0:
338,103,11158,1,8,0:0:0:0:
388,125,11236,6,0,P|402:197|405:248,1,107.5200013125,12|0,0:0|0:0,0:0:0:0:
141,333,11551,1,8,0:0:0:0:
390,343,11708,1,0,0:0:0:0:
258,106,11865,1,8,0:0:0:0:
233,297,12022,1,0,0:0:0:0:
397,109,12179,1,8,0:0:0:0:
195,202,12336,6,0,P|266:217|331:216,1,107.5200013125,0|8,1:0|0:0,0:0:0:0:
155,91,12650,1,0,1:0:0:0:
132,306,12807,2,0,P|114:237|108:177,1,107.5200013125,8|0,0:0|1:0,0:0:0:0:
236,9,13121,5,12,0:0:0:0:
193,251,13278,1,0,1:0:0:0:
354,28,13435,5,8,0:0:0:0:
410,295,13592,1,0,1:0:0:0:
96,115,13749,6,0,B|151:92|201:123|201:123|253:151|325:121,1,215.040002625,12|8,0:0|0:0,0:0:0:0:
142,189,14220,1,0,1:0:0:0:
261,12,14377,1,8,0:0:0:0:
341,211,14534,1,0,0:0:0:0:
84,105,14691,1,8,0:0:0:0:
409,141,14848,6,0,P|329:129|279:129,1,107.5200013125,0|8,1:0|0:0,0:0:0:0:
121,202,15163,1,0,1:0:0:0:
243,35,15320,1,8,0:0:0:0:
268,206,15477,1,0,1:0:0:0:
9,106,15634,5,12,0:0:0:0:
310,109,15791,1,0,1:0:0:0:
49,250,15948,5,8,0:0:0:0:
366,273,16105,1,0,1:0:0:0:
119,29,16262,6,0,B|117:100|117:100|184:238,1,215.040002625,12|8,0:0|0:0,0:0:0:0:
196,68,16733,1,0,1:0:0:0:
27,262,16891,1,8,0:0:0:0:
262,225,17047,1,0,1:0:0:0:
54,52,17204,1,8,0:0:0:0:
97,320,17362,6,0,P|105:257|99:196,1,107.5200013125,0|0,1:0|0:0,0:0:0:0:
32,35,17676,1,0,1:0:0:0:
226,135,17833,1,8,0:0:0:0:
74,133,17990,1,0,1:0:0:0:
273,21,18147,5,12,0:0:0:0:
362,297,18304,1,0,1:0:0:0:
355,0,18461,5,8,0:0:0:0:
278,319,18618,1,0,1:0:0:0:
491,75,18775,6,0,B|417:59|417:59|361:78|361:78|232:56,1,215.040002625,12|8,0:0|0:0,0:0:0:0:
122,171,19246,1,0,1:0:0:0:
424,140,19403,1,0,0:0:0:0:
264,55,19560,1,0,1:0:0:0:
168,288,19718,1,8,0:0:0:0:
99,30,19875,6,0,P|64:87|44:243,1,215.040002625,4|8,1:0|0:0,0:0:0:0:
286,126,20346,1,8,0:0:0:0:
167,64,20503,1,8,3:0:0:0:
223,224,20660,1,8,3:0:0:0:
271,100,20817,1,0,1:0:0:0:
180,145,20974,1,0,1:0:0:0:
413,352,21131,6,0,B|426:308|426:308|413:263|413:263|439:210|438:113,1,215.040002625,4|0,1:0|1:0,0:0:0:0:
329,331,21602,1,8,0:0:0:0:
298,144,21759,1,0,0:0:0:0:
184,316,21916,5,8,0:0:0:0:
237,311,21996,1,8,0:0:0:0:
291,306,22074,1,8,0:0:0:0:
344,301,22153,1,8,0:0:0:0:
398,296,22231,1,8,0:0:0:0:
140,321,22388,1,8,3:0:0:0:
448,167,22545,6,0,P|473:250|474:382,2,195.840001195313,4|8|0,0:0|0:0|1:0,0:0:0:0:
340,54,23330,1,0,1:0:0:0:
312,237,23487,2,0,P|285:169|274:119,1,97.9200005976563,8|0,0:0|0:0,0:0:0:0:
432,18,23801,6,0,P|418:64|398:109,1,97.9200005976563,0|0,1:0|1:0,0:0:0:0:
207,166,24115,1,8,0:0:0:0:
388,192,24273,2,0,P|453:200|493:214,1,97.9200005976563,0|0,1:0|0:0,0:0:0:0:
131,194,24587,1,0,1:0:0:0:
265,56,24744,1,8,0:0:0:0:
314,261,24901,1,0,0:0:0:0:
121,83,25058,6,0,L|95:298,2,195.840001195313,0|8|0,1:0|0:0|1:0,0:0:0:0:
179,223,25843,1,0,1:0:0:0:
35,136,26000,2,0,L|47:38,1,97.9200005976563,8|0,0:0|0:0,0:0:0:0:
214,185,26314,6,0,L|201:282,1,97.9200005976563,0|0,1:0|1:0,0:0:0:0:
124,63,26629,1,8,0:0:0:0:
97,277,26786,2,0,L|109:179,1,97.9200005976563,0|0,1:0|0:0,0:0:0:0:
128,34,27100,1,0,1:0:0:0:
212,200,27257,1,8,0:0:0:0:
46,112,27414,1,0,0:0:0:0:
355,114,27571,6,0,B|268:163|242:72|140:132,1,195.840001195313,4|8,1:0|0:0,0:0:0:0:
301,42,28042,1,0,0:0:0:0:
343,233,28199,1,0,1:0:0:0:
215,186,28356,1,0,1:0:0:0:
402,151,28513,2,0,P|336:148|281:168,1,97.9200005976563,8|0,0:0|0:0,0:0:0:0:
149,288,28827,5,0,1:0:0:0:
106,140,28985,1,0,1:0:0:0:
63,324,29142,2,0,L|52:214,1,97.9200005976563,8|0,0:0|1:0,0:0:0:0:
197,88,29456,2,0,L|187:185,1,97.9200005976563,0|0,0:0|1:0,0:0:0:0:
208,7,29770,1,8,0:0:0:0:
98,150,29927,1,0,0:0:0:0:
9,46,30084,6,0,P|98:49|206:94,2,195.840001195313,0|8|0,1:0|0:0|1:0,0:0:0:0:
144,148,30869,1,0,0:0:0:0:
246,31,31026,2,0,P|309:22|355:26,1,97.9200005976563,8|0,0:0|0:0,0:0:0:0:
354,220,31341,5,2,1:0:0:0:
315,98,31498,1,0,1:0:0:0:
240,299,31655,5,8,0:0:0:0:
279,177,31812,1,0,0:0:0:0:
356,330,31969,5,8,0:0:0:0:
308,341,32047,1,8,0:0:0:0:
261,327,32126,1,8,0:0:0:0:
214,321,32204,1,8,0:0:0:0:
169,341,32283,1,8,0:0:0:0:
320,245,32440,1,8,3:0:0:0:
67,357,32597,6,0,B|53:216|53:216|72:161,2,195.840001195313,4|8|0,1:0|0:0|1:0,0:0:0:0:
136,223,33382,1,0,1:0:0:0:
48,70,33540,2,0,P|67:158|85:187,1,97.9200005976563,8|0,0:0|0:0,0:0:0:0:
350,90,33854,6,0,P|293:68|250:64,1,97.9200005976563,0|0,1:0|1:0,0:0:0:0:
129,106,34168,1,8,0:0:0:0:
400,174,34325,2,0,P|433:110|441:70,1,97.9200005976563,0|0,1:0|0:0,0:0:0:0:
275,148,34639,1,0,1:0:0:0:
402,325,34796,1,0,0:0:0:0:
443,74,34954,1,0,1:0:0:0:
211,257,35110,6,0,P|296:252|430:204,2,195.840001195313,0|8|0,1:0|0:0|1:0,0:0:0:0:
282,135,35896,1,0,1:0:0:0:
385,315,36053,2,0,P|400:249|397:191,1,97.9200005976563,8|0,0:0|0:0,0:0:0:0:
196,83,36367,6,0,P|198:131|211:178,1,97.9200005976563,0|0,1:0|1:0,0:0:0:0:
325,26,36681,1,8,0:0:0:0:
400,219,36838,2,0,L|404:105,1,97.9200005976563,0|0,1:0|0:0,0:0:0:0:
214,276,37152,2,0,L|210:162,1,97.9200005976563,0|8,1:0|0:0,0:0:0:0:
402,355,37466,1,0,0:0:0:0:
144,197,37623,6,0,B|209:178|209:178|344:241,1,195.840001195313,4|8,1:0|0:0,0:0:0:0:
208,287,38094,1,0,0:0:0:0:
275,109,38252,1,0,1:0:0:0:
333,240,38409,1,0,1:0:0:0:
144,197,38566,2,0,B|210:179|210:179|256:199,1,97.9200005976563,8|0,0:0|0:0,0:0:0:0:
366,334,38880,5,0,1:0:0:0:
396,165,39037,1,0,1:0:0:0:
430,245,39194,2,0,L|311:238,1,97.9200005976563,8|0,0:0|1:0,0:0:0:0:
240,72,39508,1,0,0:0:0:0:
206,237,39665,1,0,0:0:0:0:
164,158,39822,2,0,L|283:151,1,97.9200005976563,8|0,0:0|0:0,0:0:0:0:
152,339,40136,6,0,B|1:351|1:351|67:321,2,195.840001195313,4|8|0,1:0|0:0|1:0,0:0:0:0:
173,148,40922,1,0,1:0:0:0:
230,359,41079,2,0,P|216:287|200:240,1,97.9200005976563,8|0,0:0|0:0,0:0:0:0:
83,80,41393,5,0,1:0:0:0:
140,315,41550,1,0,1:0:0:0:
304,148,41707,1,8,0:0:0:0:
35,153,41864,1,0,1:0:0:0:
345,225,42021,2,0,P|256:217|220:197,1,97.9200005976563,0|0,0:0|1:0,0:0:0:0:
158,36,42335,1,8,0:0:0:0:
75,240,42492,1,0,0:0:0:0:
389,66,42649,6,0,P|297:68|193:111,1,195.840001195313,4|8,1:0|0:0,0:0:0:0:
446,140,43121,1,0,1:0:0:0:
182,23,43278,1,8,0:0:0:0:
293,237,43435,1,0,1:0:0:0:
391,54,43592,1,8,0:0:0:0:
358,305,43749,6,0,P|371:266|372:190,1,97.9200005976563,0|8,1:0|0:0,0:0:0:0:
278,35,44063,1,0,1:0:0:0:
469,138,44220,1,8,0:0:0:0:
203,200,44377,1,0,1:0:0:0:
361,20,44534,5,12,0:0:0:0:
434,279,44691,1,0,1:0:0:0:
267,48,44848,5,8,0:0:0:0:
194,307,45005,1,0,1:0:0:0:
477,107,45163,6,0,P|402:97|354:95,1,97.9200005976563,4|0,1:0|0:0,0:0:0:0:
115,157,45477,1,0,0:0:0:0:
444,187,45634,6,0,P|369:177|321:175,1,97.9200005976563,4|0,1:0|0:0,0:0:0:0:
82,237,45948,1,0,0:0:0:0:
383,264,46105,6,0,P|308:254|260:252,1,97.9200005976563,4|0,1:0|0:0,0:0:0:0:
43,319,46419,5,8,0:0:0:0:
383,264,46576,1,8,0:0:0:0:
82,237,46733,1,8,0:0:0:0:
444,187,46891,1,8,0:0:0:0:
115,157,47047,1,8,0:0:0:0:
285,252,47204,5,0,3:0:0:0:
258,98,47362,1,8,3:0:0:0:
285,252,47519,1,2,3:0:0:0:
360,27,47676,6,0,P|348:112|301:183,1,157.440002402344,4|2,0:0|0:0,0:0:0:0:
277,63,48148,1,0,0:0:0:0:
408,171,48305,2,0,P|425:241|427:285,1,78.7200012011719,8|0,0:0|0:0,0:0:0:0:
218,208,48619,2,0,P|224:169|235:131,1,78.7200012011719,2|0,0:0|0:0,0:0:0:0:
315,319,48933,5,4,0:0:0:0:
324,135,49090,2,0,L|319:243,1,78.7200012011719,8|2,0:0|0:0,0:0:0:0:
239,360,49404,2,0,L|235:281,1,78.7200012011719,0|8,0:0|0:0,0:0:0:0:
327,111,49719,1,0,0:0:0:0:
316,307,49876,1,2,0:0:0:0:
183,211,50033,1,0,0:0:0:0:
225,201,50111,1,0,0:0:0:0:
265,190,50190,6,0,B|319:199|319:199|374:183|374:183|446:193,1,157.440002402344,4|8,0:0|0:0,0:0:0:0:
459,201,50582,1,8,0:0:0:0:
413,223,50660,1,8,0:0:0:0:
386,266,50739,1,8,0:0:0:0:
378,314,50818,6,0,P|316:266|239:262,1,157.440002402344,4|4,0:0|0:0,0:0:0:0:
211,291,51211,1,4,0:0:0:0:
179,306,51290,1,4,0:0:0:0:
144,305,51368,1,4,0:0:0:0:
105,284,51446,6,0,P|130:234|111:115,1,157.440002402344,4|8,0:0|0:0,0:0:0:0:
168,149,51839,1,8,0:0:0:0:
214,139,51917,1,8,0:0:0:0:
257,111,51996,1,8,0:0:0:0:
276,72,52075,6,0,B|298:37|298:37|336:152,1,157.440002402344,4|4,0:0|0:0,0:0:0:0:
353,193,52467,1,4,0:0:0:0:
358,154,52545,1,4,0:0:0:0:
366,115,52624,1,4,0:0:0:0:
373,76,52702,5,4,0:0:0:0:
373,76,53017,2,0,L|357:164,1,78.7200012011719
206,300,53331,2,0,L|199:221,1,78.7200012011719,8|0,0:0|0:0,0:0:0:0:
284,113,53645,2,0,L|277:191,1,78.7200012011719,2|0,0:0|0:0,0:0:0:0:
376,316,53959,5,4,0:0:0:0:
289,198,54116,2,0,L|401:192,1,78.7200012011719,8|0,0:0|0:0,0:0:0:0:
203,205,54431,1,0,0:0:0:0:
379,113,54588,1,8,0:0:0:0:
169,144,54745,2,0,P|174:219|191:322,1,157.440002402344,2|0,0:0|0:0,0:0:0:0:
241,172,55137,1,0,0:0:0:0:
218,153,55216,6,0,B|170:145|170:145|125:163|125:163|48:146,1,157.440002402344,4|0,0:0|0:0,0:0:0:0:
254,250,55687,1,0,0:0:0:0:
321,73,55844,2,0,L|336:162,1,78.7200012011719,8|0,0:0|0:0,0:0:0:0:
163,286,56158,2,0,L|176:208,1,78.7200012011719,8|0,0:0|0:0,0:0:0:0:
400,108,56472,5,8,0:0:0:0:
243,258,56629,1,8,0:0:0:0:
214,67,56786,5,8,0:0:0:0:
410,287,56943,1,0,0:0:0:0:
430,83,57100,5,8,0:0:0:0:
221,280,57257,1,0,1:0:0:0:
310,32,57414,6,0,P|319:90|310:180,1,146.880000896484,8|0,0:0|0:0,0:0:0:0:
232,188,57729,6,0,P|307:177|348:264,1,157.440002402344,4|0,0:0|0:0,0:0:0:0:
247,100,58199,1,0,0:0:0:0:
172,260,58357,2,0,P|154:195|151:154,1,78.7200012011719,8|0,0:0|0:0,0:0:0:0:
72,55,58670,2,0,P|65:93|52:131,1,78.7200012011719,0|0,0:0|0:0,0:0:0:0:
168,84,58985,5,4,0:0:0:0:
82,219,59142,2,0,P|172:178|183:176,1,78.7200012011719,8|0,0:0|0:0,0:0:0:0:
278,216,59456,1,2,0:0:0:0:
462,179,59613,2,0,P|372:138|361:136,1,78.7200012011719,8|2,0:0|0:0,0:0:0:0:
278,200,59927,1,0,0:0:0:0:
131,107,60084,1,0,0:0:0:0:
170,108,60162,1,0,0:0:0:0:
204,126,60241,6,0,P|257:154|362:106,1,157.440002402344,4|8,0:0|0:0,0:0:0:0:
305,128,60634,1,8,0:0:0:0:
261,145,60712,1,8,0:0:0:0:
222,171,60791,1,8,0:0:0:0:
190,206,60869,6,0,P|137:227|147:151,1,157.440002402344,0|4,0:0|0:0,0:0:0:0:
155,189,61262,1,4,0:0:0:0:
164,226,61340,1,4,0:0:0:0:
188,257,61419,1,4,0:0:0:0:
225,277,61498,6,0,B|271:288|271:288|384:225,1,157.440002402344,0|8,0:0|0:0,0:0:0:0:
327,232,61890,1,8,0:0:0:0:
283,230,61968,1,8,0:0:0:0:
242,201,62047,1,8,0:0:0:0:
221,155,62126,6,0,P|222:103|317:119,1,157.440002402344,0|4,0:0|0:0,0:0:0:0:
262,124,62519,1,4,0:0:0:0:
224,134,62597,1,4,0:0:0:0:
185,132,62676,1,4,0:0:0:0:
148,117,62754,5,4,0:0:0:0:
148,117,63068,5,8,0:0:0:0:
114,280,63225,1,8,0:0:0:0:
223,80,63382,5,8,0:0:0:0:
186,311,63540,1,8,0:0:0:0:
298,42,63697,5,8,0:0:0:0:
265,344,63854,1,8,0:0:0:0:
371,3,64011,6,0,B|388:55|388:55|350:135|366:243,1,234.23999034961,12|0,0:0|0:0,0:0:0:0:
61,205,64482,2,0,B|39:222|39:222|154:215,1,117.119995174805,8|0,0:0|0:0,0:0:0:0:
364,230,64797,2,0,B|425:244|425:244|242:267,1,234.23999034961,8|0,0:0|0:0,0:0:0:0:
195,41,65268,5,8,0:0:0:0:
157,300,65425,1,0,1:0:0:0:
254,153,65582,1,0,1:0:0:0:
81,76,65739,5,8,0:0:0:0:
338,182,65896,1,0,0:0:0:0:
167,114,66053,1,0,1:0:0:0:
428,223,66210,5,8,0:0:0:0:
287,74,66367,1,0,1:0:0:0:
228,373,66524,6,0,B|247:332|247:332|226:283|226:283|257:239|253:146,1,234.23999034961,12|0,0:0|0:0,0:0:0:0:
253,152,67309,2,0,P|287:155|319:166,1,58.5599975874024,0|0,3:0|3:0,0:0:0:0:
47,212,67467,6,0,P|127:197|192:240,1,132.479995552735,8|0,0:0|0:0,0:0:0:0:
268,300,67781,6,0,P|336:324|400:300,1,107.5200013125,4|0,0:0|0:0,0:0:0:0:
408,96,68095,1,8,0:0:0:0:
452,344,68252,2,0,L|432:212,1,107.5200013125,0|8,0:0|0:0,0:0:0:0:
336,28,68566,2,0,L|319:134,1,107.5200013125,0|8,0:0|0:0,0:0:0:0:
372,308,68880,1,0,0:0:0:0:
412,84,69037,5,8,0:0:0:0:
244,168,69195,1,0,0:0:0:0:
472,152,69352,1,8,0:0:0:0:
196,96,69509,2,0,P|268:92|328:124,1,107.5200013125,0|8,0:0|0:0,0:0:0:0:
365,323,69822,1,0,0:0:0:0:
316,228,69979,1,8,0:0:0:0:
438,255,70136,1,0,0:0:0:0:
129,321,70293,6,0,P|97:244|102:202,1,107.5200013125,8|0,0:0|0:0,0:0:0:0:
225,37,70608,1,8,0:0:0:0:
182,239,70765,1,0,0:0:0:0:
320,67,70922,5,8,0:0:0:0:
69,146,71079,1,0,0:0:0:0:
377,198,71236,1,8,0:0:0:0:
91,57,71393,6,0,B|108:215|108:215|142:142,1,215.040002625,0|0,0:0|0:0,0:0:0:0:
71,291,71865,1,8,0:0:0:0:
185,63,72022,1,0,0:0:0:0:
10,218,72179,5,0,0:0:0:0:
60,200,72257,1,0,0:0:0:0:
112,210,72336,2,0,P|169:227|180:233,1,53.76000065625,0|0,3:0|0:0,0:0:0:0:
255,324,72493,2,0,P|271:275|285:250,1,53.76000065625,8|0,0:0|0:0,0:0:0:0:
357,125,72650,2,0,P|416:134|436:145,1,53.76000065625,0|0,1:0|0:0,0:0:0:0:
417,301,72807,6,0,P|381:232|375:191,1,107.5200013125,12|0,0:0|0:0,0:0:0:0:
467,32,73121,1,8,0:0:0:0:
299,184,73278,2,0,B|232:203|232:203|174:188,1,107.5200013125,0|8,0:0|0:0,0:0:0:0:
94,57,73592,1,0,0:0:0:0:
53,274,73749,1,8,0:0:0:0:
182,86,73907,6,0,L|195:196,1,107.5200013125,0|8,0:0|0:0,0:0:0:0:
291,19,74221,1,0,0:0:0:0:
363,310,74378,2,0,L|375:203,1,107.5200013125,8|0,0:0|0:0,0:0:0:0:
258,110,74692,1,0,0:0:0:0:
177,302,74849,1,0,0:0:0:0:
292,224,75006,1,8,0:0:0:0:
167,207,75163,1,0,0:0:0:0:
415,240,75320,6,0,P|419:163|407:113,1,107.5200013125,8|0,0:0|0:0,0:0:0:0:
249,36,75634,1,8,0:0:0:0:
83,265,75791,2,0,P|79:188|91:138,1,107.5200013125,0|8,0:0|0:0,0:0:0:0:
278,1,76106,2,0,P|285:54|279:107,1,107.5200013125,0|8,0:0|0:0,0:0:0:0:
57,314,76420,6,0,P|42:214|72:67,1,215.040002625,4|8,0:0|0:0,0:0:0:0:
154,340,76891,1,0,0:0:0:0:
156,69,77048,1,8,0:0:0:0:
45,175,77205,5,4,0:0:0:0:
98,171,77283,1,4,0:0:0:0:
152,168,77362,1,4,0:0:0:0:
205,165,77440,1,4,0:0:0:0:
259,161,77519,2,0,L|321:156,1,53.76000065625,8|0,0:0|0:0,0:0:0:0:
414,232,77676,2,0,L|467:236,1,53.76000065625,0|0,1:0|0:0,0:0:0:0:
333,54,77833,6,0,P|312:162|327:257,2,176.639994070313,4|8|0,1:0|0:0|1:0,0:0:0:0:
395,211,78619,1,0,1:0:0:0:
240,100,78776,2,0,P|163:83|130:85,1,88.3199970351563,8|0,0:0|0:0,0:0:0:0:
6,210,79090,5,0,1:0:0:0:
169,161,79247,1,0,1:0:0:0:
46,16,79404,1,8,0:0:0:0:
83,178,79561,2,0,L|74:79,1,88.3199970351563,0|0,1:0|0:0,0:0:0:0:
126,255,79875,1,0,1:0:0:0:
159,59,80032,2,0,L|166:146,1,88.3199970351563,8|0,0:0|0:0,0:0:0:0:
385,266,80346,6,0,B|337:271|337:271|265:246,1,88.3199970351563,4|0,1:0|0:0,0:0:0:0:
233,86,80660,1,8,0:0:0:0:
160,240,80818,6,0,P|238:231|327:286,1,146.880000896484,8|0,0:0|0:0,0:0:0:0:
452,241,81132,6,0,P|380:213|285:287,1,175.679992762207,8|0,0:0|0:0,0:0:0:0:
112,169,81446,6,0,P|191:159|303:294,1,234.23999034961,4|0,1:0|1:0,0:0:0:0:
212,50,81917,5,8,0:0:0:0:
157,249,82074,1,0,1:0:0:0:
48,42,82231,5,8,0:0:0:0:
51,90,82309,1,8,0:0:0:0:
55,139,82388,1,8,0:0:0:0:
59,188,82466,1,8,0:0:0:0:
63,237,82545,2,0,P|128:235|170:258,1,97.9200005976563,8|0,0:0|1:0,0:0:0:0:
430,189,82859,6,0,P|361:196|348:201,1,65.2800003984375,8|0,0:0|0:0,0:0:0:0:
165,258,83069,2,0,P|234:251|247:246,1,65.2800003984375,8|0,0:0|0:0,0:0:0:0:
398,116,83278,6,0,P|341:156|332:167,1,65.2800003984375,8|0,0:0|0:0,0:0:0:0:
203,308,83488,2,0,P|259:267|268:256,1,65.2800003984375,8|0,0:0|0:0,0:0:0:0:
317,81,83697,6,0,P|294:146|293:160,1,65.2800003984375,8|0,0:0|0:0,0:0:0:0:
267,350,83907,2,0,P|289:284|290:270,1,65.2800003984375,8|0,0:0|0:0,0:0:0:0:
221,81,84116,5,12,0:0:0:0:
214,94,84901,5,0,1:0:0:0:
289,289,85058,2,0,P|236:264|196:269,1,97.9200005976563,8|0,0:0|0:0,0:0:0:0:
41,296,85373,6,0,L|48:390,1,65.2800003984375,8|0,0:0|0:0,0:0:0:0:
198,268,85582,2,0,L|191:362,1,65.2800003984375,8|0,0:0|0:0,0:0:0:0:
107,184,85791,6,0,L|114:278,1,65.2800003984375,8|0,0:0|0:0,0:0:0:0:
304,150,86001,2,0,L|296:266,1,65.2800003984375,8|0,0:0|0:0,0:0:0:0:
185,88,86210,6,0,L|192:182,1,65.2800003984375,8|0,0:0|0:0,0:0:0:0:
402,39,86419,2,0,L|395:133,1,65.2800003984375,8|0,0:0|0:0,0:0:0:0:
264,21,86629,5,12,0:0:0:0:
259,32,87257,5,8,0:0:0:0:
231,290,87414,1,0,1:0:0:0:
326,73,87571,5,8,0:0:0:0:
354,331,87728,1,0,1:0:0:0:
128,115,87886,6,0,B|197:95|197:95|331:164,1,195.840001195313,12|0,0:0|1:0,0:0:0:0:
49,337,88357,2,0,P|16:277|113:305,1,195.840001195313,12|0,0:0|1:0,0:0:0:0:
370,352,88828,2,0,P|434:340|434:286,1,97.9200005976563,12|0,0:0|1:0,0:0:0:0:
199,97,89142,5,12,0:0:0:0:
206,99,89770,1,8,0:0:0:0:
372,142,89927,1,8,0:0:0:0:
92,182,90085,1,8,0:0:0:0:
467,241,90242,1,8,0:0:0:0:
33,263,90399,6,0,B|3:210|3:210|3:101|74:58,1,195.840001195313,12|0,0:0|1:0,0:0:0:0:
300,337,90870,2,0,B|323:284|323:284|305:228|305:228|325:175|322:106,1,195.840001195313,12|0,0:0|1:0,0:0:0:0:
159,26,91341,1,12,0:0:0:0:
236,271,91498,1,0,1:0:0:0:
380,78,91655,6,0,B|337:58|280:67|240:104|227:160|227:160|197:110|145:99|92:120|67:166|68:210,1,391.680002390625,12|0,0:0|0:0,0:0:0:0:
336,149,92441,1,0,1:0:0:0:
155,201,92598,1,8,0:0:0:0:
353,304,92912,5,2,0:0:0:0:
336,149,93069,2,0,L|326:238,1,69.1200016875,2|0,0:0|0:0,0:0:0:0:
253,339,93383,2,0,L|260:270,1,69.1200016875,2|0,0:0|0:0,0:0:0:0:
186,188,93697,2,0,L|273:188,1,69.1200016875,2|0,0:0|0:0,0:0:0:0:
397,217,94011,6,0,L|310:217,1,69.1200016875,2|0,0:0|0:0,0:0:0:0:
237,50,94325,2,0,L|255:193,1,138.240003375,2|2,0:0|1:0,0:0:0:0:
317,83,94797,1,2,1:0:0:0:
177,309,95111,1,8,0:0:0:0:
64,60,95425,5,12,0:0:0:0:
33,283,95582,1,8,0:0:0:0:
133,159,95739,1,0,1:0:0:0:
284,336,95896,1,8,0:0:0:0:
256,211,96053,1,0,1:0:0:0:
104,348,96210,1,8,0:0:0:0:
85,221,96367,1,0,1:0:0:0:
297,354,96524,5,8,0:0:0:0:
221,62,96838,1,8,0:0:0:0:
184,344,97153,5,0,1:0:0:0:
218,88,97310,6,0,B|274:81|274:81|324:52|324:52|374:79|374:79|357:130|392:171|424:243|542:185|468:39|397:73|350:181|322:270|203:218,1,587.520003585938,12|0,0:0|0:0,0:0:0:0:
