osu file format v14

[General]
AudioFilename: audio.mp3
AudioLeadIn: 0
PreviewTime: 10530
Countdown: 0
SampleSet: Soft
StackLeniency: 0.7
Mode: 0
LetterboxInBreaks: 0
WidescreenStoryboard: 0

[Editor]
DistanceSpacing: 1.1
BeatDivisor: 2
GridSize: 4
TimelineZoom: 1

[Metadata]
Title:Kimeta yo Hand in Hand
TitleUnicode:決めたよHand in Hand
Artist:Aqours
ArtistUnicode:Aqours
Creator:-Nitrous
Version:Normal
Source:Lovelive! Sunshine!!
Tags:ラブライブ!サンシャイン!! school idol project Takami Chika 高海千歌 Sakurauchi Riko 桜内梨子 Watanabe You 渡辺 曜 Inami Anju 伊波杏樹 Aida Rikako 逢田梨香子 Saitou Shuka 斉藤朱夏 Akitoshi Corinn Sotarks Kalibe
BeatmapID:1084044
BeatmapSetID:507355

[Difficulty]
HPDrainRate:4
CircleSize:3
OverallDifficulty:4
ApproachRate:5
SliderMultiplier:0.9
SliderTickRate:1

[Events]
//Background and Video events
Video,994,"Kimeta yo Hand in Hand.avi"
0,0,"aqoursfirstyears.jpg",0,0
//Break Periods
//Storyboard Layer 0 (Background)
//Storyboard Layer 1 (Fail)
//Storyboard Layer 2 (Pass)
//Storyboard Layer 3 (Foreground)
//Storyboard Sound Samples

[TimingPoints]
-72,314.13612565445,4,2,3,40,1,0
5896,-100,4,2,3,60,0,0
10608,-100,4,2,1,50,0,0
11236,-100,4,2,1,80,0,1
22545,-100,4,2,1,70,0,0
47990,-100,4,2,1,60,0,0
60242,-100,4,2,1,70,0,0
62755,-100,4,2,1,80,0,0
67781,-100,4,2,1,80,0,1
92912,-100,4,2,3,60,0,0
95111,-100,4,2,1,60,0,0
97310,-100,4,2,1,70,0,0

[Colours]
Combo1 : 255,128,64
Combo2 : 128,128,192
Combo3 : 0,128,192

[HitObjects]
71,145,870,6,0,P|115:152|159:146,1,90,2|2,0:0|0:0,0:0:0:0:
215,64,1498,2,0,P|257:158|220:226,1,180,8|8,0:0|0:0,0:0:0:0:
39,288,2755,2,0,P|30:246|41:185,1,90,2|2,0:0|0:0,0:0:0:0:
55,154,3226,1,8,0:0:0:0:
55,154,3383,6,0,P|103:164|170:149,1,90,8|2,0:0|0:0,0:0:0:0:
221,98,4011,2,0,B|256:76|305:63|305:63|342:89|411:91,1,180,8|8,0:0|0:0,0:0:0:0:
391,287,5268,2,0,P|343:278|295:287,1,90,8|2,0:0|0:0,0:0:0:0:
264,316,5739,1,8,0:0:0:0:
264,316,5896,6,0,P|219:322|175:313,1,90,12|6,0:0|0:0,0:0:0:0:
87,268,6524,2,0,L|82:166,1,90,8|0,0:0|0:0,0:0:0:0:
134,93,7153,2,0,P|180:99|241:85,1,90,8|2,0:0|0:0,0:0:0:0:
301,31,7781,2,0,B|317:76|317:76|313:126,1,90,8|2,0:0|0:0,0:0:0:0:
285,159,8252,1,8,0:0:0:0:
285,159,8409,6,0,P|278:204|297:269,1,90,8|6,0:0|0:0,0:0:0:0:
369,300,9037,2,0,P|376:255|357:190,1,90,8|0,0:0|0:0,0:0:0:0:
391,115,9666,1,8,0:0:0:0:
391,115,9823,2,0,B|428:138|428:138|452:180,2,90,4|4|4,0:0|0:0|0:0,0:0:0:0:
348,89,10608,2,0,L|245:88,1,90,8|8,0:0|0:0,0:0:0:0:
159,92,11236,6,0,B|153:137|124:171|124:171|148:214|205:230,1,180,4|8,0:0|0:0,0:0:0:0:
274,168,12179,1,8,0:0:0:0:
350,230,12493,2,0,L|345:325,2,90,8|8|8,0:0|0:0|0:0,0:0:0:0:
398,145,13435,1,8,0:0:0:0:
481,91,13749,6,0,P|406:46|311:98,1,180,4|8,0:0|0:0,0:0:0:0:
251,143,14692,1,8,0:0:0:0:
161,184,15006,2,0,L|154:284,1,90,8|8,0:0|0:0,0:0:0:0:
213,353,15634,2,0,P|258:361|303:346,1,90,8|8,0:0|0:0,0:0:0:0:
252,263,16263,6,0,B|282:238|325:234|325:234|372:268|442:259,1,180,4|8,0:0|0:0,0:0:0:0:
488,188,17205,1,8,0:0:0:0:
428,108,17519,2,0,L|433:14,2,90,8|8|8,0:0|0:0|0:0,0:0:0:0:
346,163,18462,1,8,0:0:0:0:
275,93,18776,6,0,B|246:73|206:68|206:68|208:125|162:170,1,180,4|8,0:0|0:0,0:0:0:0:
91,227,19718,1,8,0:0:0:0:
91,227,19875,2,0,P|129:259|186:264,1,90,4|0,0:0|0:0,0:0:0:0:
208,239,20346,2,0,P|252:230|305:242,1,90,8|8,0:0|0:0,0:0:0:0:
379,290,20975,1,8,0:0:0:0:
379,290,21132,2,0,P|392:244|376:181,1,90,4|0,0:0|0:0,0:0:0:0:
351,168,21603,2,0,P|345:123|358:80,2,90,8|8|4,0:0|0:0|0:0,0:0:0:0:
441,126,22545,5,4,0:0:0:0:
503,202,22859,2,0,P|506:248|497:297,1,90,8|2,0:0|0:0,0:0:0:0:
416,346,23488,1,8,0:0:0:0:
331,294,23802,2,0,P|280:288|228:295,1,90,2|8,0:0|0:0,0:0:0:0:
195,310,24273,2,0,P|197:262|192:196,1,90,2|0,0:0|0:0,0:0:0:0:
176,174,24744,1,8,0:0:0:0:
214,82,25058,5,2,0:0:0:0:
291,143,25373,2,0,P|338:148|394:137,1,90,8|2,0:0|0:0,0:0:0:0:
427,129,25844,1,0,0:0:0:0:
427,129,26001,2,0,L|433:237,1,90,8|2,0:0|0:0,0:0:0:0:
367,294,26629,2,0,P|324:289|257:300,1,90,8|0,0:0|0:0,0:0:0:0:
193,345,27257,1,8,0:0:0:0:
94,357,27571,1,4,0:0:0:0:
29,283,27886,6,0,P|19:237|22:173,1,90,8|2,0:0|0:0,0:0:0:0:
42,150,28357,1,0,0:0:0:0:
42,150,28514,2,0,P|85:153|148:144,1,90,8|2,0:0|0:0,0:0:0:0:
169,239,29142,2,0,B|211:219|211:219|239:167,1,90,8|2,0:0|0:0,0:0:0:0:
267,88,29770,1,8,0:0:0:0:
360,119,30085,6,0,P|374:173|366:217,2,90,2|8|2,0:0|0:0|0:0,0:0:0:0:
276,173,31027,1,8,0:0:0:0:
200,236,31341,2,0,P|157:251|107:246,2,90,2|8|8,0:0|0:0|0:0,0:0:0:0:
142,155,32284,1,8,0:0:0:0:
51,195,32598,6,0,P|32:249|50:300,1,90,4|8,0:0|0:0,0:0:0:0:
117,339,33226,1,2,0:0:0:0:
192,274,33540,2,0,P|235:262|288:264,1,90,8|2,0:0|0:0,0:0:0:0:
372,297,34168,1,8,0:0:0:0:
372,297,34325,2,0,P|374:248|352:194,1,90,4|0,0:0|0:0,0:0:0:0:
337,166,34797,1,8,0:0:0:0:
249,120,35111,6,0,P|239:80|250:26,2,90,8|8|2,0:0|0:0|0:0,0:0:0:0:
338,76,36053,1,8,0:0:0:0:
428,116,36367,2,0,P|443:158|443:211,1,90,2|8,0:0|0:0,0:0:0:0:
427,249,36838,2,0,P|380:246|323:261,1,90,2|0,0:0|0:0,0:0:0:0:
296,281,37310,1,8,0:0:0:0:
197,293,37624,6,0,P|189:250|202:190,1,90,4|8,0:0|0:0,0:0:0:0:
228,111,38252,2,0,L|327:105,1,90,2|8,0:0|0:0,0:0:0:0:
416,94,38880,1,2,0:0:0:0:
477,171,39195,2,0,B|490:217|490:217|480:271,1,90,8|2,0:0|0:0,0:0:0:0:
410,326,39823,1,8,0:0:0:0:
328,269,40137,6,0,P|284:260|239:269,2,90,2|8|2,0:0|0:0|0:0,0:0:0:0:
282,356,41079,1,8,0:0:0:0:
185,332,41393,2,0,P|161:293|162:237,1,90,2|8,0:0|0:0,0:0:0:0:
170,151,42022,2,0,P|215:156|274:144,1,90,2|8,0:0|0:0,0:0:0:0:
340,93,42650,5,4,0:0:0:0:
430,132,42964,2,0,P|442:177|436:230,1,90,8|8,0:0|0:0,0:0:0:0:
380,299,43592,1,8,0:0:0:0:
301,238,43907,2,0,P|253:234|201:256,2,90,8|8|8,0:0|0:0|0:0,0:0:0:0:
266,330,44849,1,8,0:0:0:0:
363,348,45163,6,0,P|408:352|458:342,1,90,8|8,0:0|0:0,0:0:0:0:
485,308,45634,2,0,P|477:268|479:208,1,90,8|8,0:0|0:0,0:0:0:0:
483,169,46106,1,8,0:0:0:0:
399,115,46420,1,8,0:0:0:0:
36,48,47676,6,0,P|25:91|37:146,1,90,4|2,0:0|0:0,0:0:0:0:
109,197,48304,1,8,0:0:0:0:
296,134,48933,2,0,B|345:119|373:93|373:93|413:123|421:183,1,180,8|8,0:0|0:0,0:0:0:0:
238,251,50189,6,0,P|166:199|153:97,2,180,4|4|4,0:0|0:0|0:0,0:0:0:0:
291,334,51760,2,0,B|325:305|325:305|335:239,1,90,8|4,0:0|0:0,0:0:0:0:
290,170,52388,1,8,0:0:0:0:
370,112,52702,2,0,B|418:124|443:154|443:154|497:121|505:57,1,180,4|8,0:0|0:0,0:0:0:0:
307,35,53959,6,0,P|275:118|314:197,1,180,8|0,0:0|0:0,0:0:0:0:
168,331,55215,2,0,B|147:302|113:290|113:290|97:260|101:211,1,135,4|0,0:0|0:0,0:0:0:0:
101,177,55844,1,8,0:0:0:0:
138,85,56158,1,8,0:0:0:0:
226,129,56472,2,0,B|270:140|270:140|319:128,1,90,8|8,0:0|0:0,0:0:0:0:
399,80,57100,2,0,P|411:128|398:176,1,90,8|8,0:0|0:0,0:0:0:0:
333,238,57729,6,0,B|286:216|246:214|246:214|253:258|243:303,1,180,4|8,0:0|0:0,0:0:0:0:
56,236,58985,2,0,B|100:250|145:237|145:237|129:190|156:133,1,180,8|0,0:0|0:0,0:0:0:0:
334,78,60242,2,0,P|256:37|174:68,2,180,4|4|4,0:0|0:0|0:0,0:0:0:0:
403,148,61812,2,0,L|396:255,1,90,8|4,0:0|0:0,0:0:0:0:
377,335,62441,1,8,0:0:0:0:
297,275,62755,6,0,B|251:266|251:266|194:275,1,90,4|8,0:0|0:0,0:0:0:0:
156,357,63383,2,0,P|121:325|109:267,1,90,8|8,0:0|0:0,0:0:0:0:
91,187,64011,1,4,0:0:0:0:
136,99,64325,1,2,0:0:0:0:
136,99,64482,2,0,P|182:110|229:99,1,90,4|4,0:0|0:0,0:0:0:0:
306,47,65111,5,2,0:0:0:0:
306,47,65268,2,0,P|318:93|304:155,1,90,8|2,0:0|0:0,0:0:0:0:
294,180,65739,2,0,B|247:188|247:188|199:221|182:277,1,135,4|8,0:0|0:0,0:0:0:0:
138,340,66524,1,4,0:0:0:0:
39,30,67467,5,8,0:0:0:0:
109,98,67781,2,0,P|104:149|111:197,1,90,4|8,0:0|0:0,0:0:0:0:
124,234,68252,1,2,0:0:0:0:
196,301,68566,1,8,0:0:0:0:
274,240,68880,2,0,P|316:233|366:238,1,90,8|8,0:0|0:0,0:0:0:0:
457,266,69509,2,0,L|455:169,1,90,8|0,0:0|0:0,0:0:0:0:
454,126,69980,1,8,0:0:0:0:
377,62,70294,6,0,P|329:53|271:68,1,90,4|8,0:0|0:0,0:0:0:0:
245,84,70765,1,2,0:0:0:0:
160,135,71079,1,8,0:0:0:0:
233,201,71393,2,0,B|241:247|241:247|238:291,1,90,4|8,0:0|0:0,0:0:0:0:
160,351,72022,2,0,L|65:353,1,90,4|8,0:0|0:0,0:0:0:0:
20,351,72493,1,8,0:0:0:0:
4,253,72807,6,0,P|-1:206|14:162,1,90,4|8,0:0|0:0,0:0:0:0:
40,125,73278,1,2,0:0:0:0:
128,81,73592,1,8,0:0:0:0:
217,125,73907,2,0,P|260:133|306:124,1,90,8|8,0:0|0:0,0:0:0:0:
399,95,74535,2,0,L|399:185,1,90,8|0,0:0|0:0,0:0:0:0:
401,234,75006,1,8,0:0:0:0:
341,313,75320,6,0,P|296:319|252:311,1,90,4|8,0:0|0:0,0:0:0:0:
207,291,75791,2,0,L|207:198,1,90,4|4,0:0|0:0,0:0:0:0:
260,117,76420,2,0,P|310:109|366:118,1,90,4|2,0:0|0:0,0:0:0:0:
395,128,76891,2,0,B|399:177|399:177|392:225,1,90,8|8,0:0|0:0,0:0:0:0:
359,310,77519,1,8,0:0:0:0:
263,336,77833,5,4,0:0:0:0:
176,288,78147,2,0,P|165:244|179:187,1,90,8|2,0:0|0:0,0:0:0:0:
197,104,78776,1,8,0:0:0:0:
276,45,79090,1,2,0:0:0:0:
360,95,79404,2,0,P|407:104|452:95,2,90,8|2|8,0:0|0:0|0:0,0:0:0:0:
296,171,80346,6,0,P|309:213|310:277,1,90,4|2,0:0|0:0,0:0:0:0:
311,308,80818,2,0,P|269:303|209:317,1,90,4|2,0:0|0:0,0:0:0:0:
148,377,81446,2,0,P|123:306|159:234,1,135,4|8,0:0|0:0,0:0:0:0:
181,161,82231,2,0,B|279:156,1,90,8|8,0:0|0:0,0:0:0:0:
369,155,82859,6,0,B|401:193|416:234|416:234|387:277|389:341,2,180,8|8|8,0:0|0:0|0:0,0:0:0:0:
85,66,85058,1,8,0:0:0:0:
183,57,85373,6,0,B|231:64|271:52|271:52|273:104|292:166,2,180,8|8|8,0:0|0:0|0:0,0:0:0:0:
50,122,87100,1,2,0:0:0:0:
50,122,87257,2,0,P|44:171|54:229,1,90,8|8,0:0|0:0,0:0:0:0:
114,285,87886,6,0,P|158:275|211:284,1,90,8|2,0:0|0:0,0:0:0:0:
239,313,88357,2,0,P|283:318|327:308,1,90,8|0,0:0|0:0,0:0:0:0:
373,290,88828,1,8,0:0:0:0:
413,199,89142,1,8,0:0:0:0:
364,113,89456,1,2,0:0:0:0:
275,68,89770,2,0,P|231:61|178:69,1,90,2|2,0:0|0:0,0:0:0:0:
100,116,90399,6,0,P|91:163|96:214,1,90,4|8,0:0|0:0,0:0:0:0:
93,254,90870,2,0,P|137:251|199:260,1,90,4|0,0:0|0:0,0:0:0:0:
219,289,91341,2,0,P|261:298|314:290,1,90,8|4,0:0|0:0,0:0:0:0:
399,256,91969,2,0,L|404:160,1,90,2|8,0:0|0:0,0:0:0:0:
408,67,92598,1,8,0:0:0:0:
317,106,92912,6,0,P|249:123|176:101,1,135,2|2,0:0|0:0,0:0:0:0:
100,59,93697,2,0,B|88:107|88:107|101:152,1,90,2|2,0:0|0:0,0:0:0:0:
144,233,94325,2,0,P|187:241|238:230,1,90,2|0,0:0|0:0,0:0:0:0:
278,215,94797,1,2,0:0:0:0:
370,178,95111,5,8,0:0:0:0:
453,230,95425,1,8,0:0:0:0:
453,230,95582,2,8,L|450:328,1,90,8|8,0:0|0:0,0:0:0:0:
351,328,96210,2,0,P|307:321|260:328,2,90,8|8|8,0:0|0:0|0:0,0:0:0:0:
364,229,97153,2,0,L|368:168,1,45,8|4,0:0|0:0,0:0:0:0:
