osu file format v14

[General]
AudioFilename: audio.mp3
AudioLeadIn: 0
PreviewTime: 10530
Countdown: 0
SampleSet: Soft
StackLeniency: 0.7
Mode: 0
LetterboxInBreaks: 0
WidescreenStoryboard: 0

[Editor]
DistanceSpacing: 1.6
BeatDivisor: 4
GridSize: 4
TimelineZoom: 1.9

[Metadata]
Title:Kimeta yo Hand in Hand
TitleUnicode:決めたよHand in Hand
Artist:Aqours
ArtistUnicode:Aqours
Creator:-Nitrous
Version:Hard
Source:Lovelive! Sunshine!!
Tags:ラブライブ!サンシャイン!! school idol project Takami Chika 高海千歌 Sakurauchi Riko 桜内梨子 Watanabe You 渡辺 曜 Inami Anju 伊波杏樹 Aida Rikako 逢田梨香子 Saitou Shuka 斉藤朱夏 Akitoshi Corinn Sotarks Kalibe
BeatmapID:1084982
BeatmapSetID:507355

[Difficulty]
HPDrainRate:5
CircleSize:3.5
OverallDifficulty:5
ApproachRate:7
SliderMultiplier:1.2
SliderTickRate:1

[Events]
//Background and Video events
Video,994,"Kimeta yo Hand in Hand.avi"
0,0,"aqoursfirstyears.jpg",0,0
//Break Periods
//Storyboard Layer 0 (Background)
//Storyboard Layer 1 (Fail)
//Storyboard Layer 2 (Pass)
//Storyboard Layer 3 (Foreground)
//Storyboard Sound Samples

[TimingPoints]
-72,314.13612565445,4,2,3,40,1,0
870,-100,4,2,3,40,0,0
6210,-100,4,2,3,60,0,0
10765,-100,4,2,1,40,0,0
11236,-90.9090909090909,4,2,1,80,0,1
22545,-100,4,2,1,70,0,0
47990,-100,4,2,1,60,0,0
60242,-100,4,2,1,70,0,0
64011,-100,4,2,1,80,0,0
67310,-100,4,2,1,70,0,0
67781,-90.9090909090909,4,2,1,80,0,1
92912,-100,4,2,3,60,0,0
95111,-100,4,2,1,60,0,0
97310,-100,4,2,1,70,0,0

[Colours]
Combo1 : 255,128,64
Combo2 : 128,128,192
Combo3 : 0,128,192

[HitObjects]
483,126,870,6,0,L|421:120,1,60,2|0,0:0|0:0,0:0:0:0:
342,171,1184,2,0,L|267:156,2,60,2|0|8,0:0|0:0|0:0,0:0:0:0:
416,231,1655,2,0,P|374:286|304:285,1,120,2|0,0:0|0:0,0:0:0:0:
231,276,2127,1,8,0:0:0:0:
156,215,2284,6,0,L|167:90,1,120,2|0,0:0|0:0,0:0:0:0:
238,32,2755,2,0,P|266:30|301:34,1,60,2|0,0:0|0:0,0:0:0:0:
388,64,3069,2,0,B|390:98|390:98|385:131,1,60,2|8,0:0|0:0,0:0:0:0:
363,216,3383,1,8,0:0:0:0:
175,252,3697,6,0,L|167:312,2,60,2|0|8,0:0|0:0|0:0,0:0:0:0:
242,184,4168,2,0,P|183:157|111:180,1,120,2|0,0:0|0:0,0:0:0:0:
58,230,4640,1,8,0:0:0:0:
9,147,4797,6,0,P|0:85|27:24,1,120,2|0,0:0|0:0,0:0:0:0:
91,97,5268,2,0,B|119:101|119:101|155:96,1,60,8|0,0:0|0:0,0:0:0:0:
235,53,5582,2,0,P|244:87|241:121,1,60,2|8,0:0|0:0,0:0:0:0:
210,202,5896,1,12,0:0:0:0:
379,295,6210,6,0,B|375:324|375:324|378:354,2,60,6|0|8,0:0|0:0|0:0,0:0:0:0:
444,224,6681,1,2,0:0:0:0:
375,154,6838,2,0,P|346:148|317:153,1,60,0|0,0:0|0:0,0:0:0:0:
266,70,7153,2,0,P|243:91|228:116,1,60,8|0,0:0|0:0,0:0:0:0:
244,212,7467,6,0,P|173:195|136:143,1,120,2|8,0:0|0:0,0:0:0:0:
105,73,7938,1,0,0:0:0:0:
23,124,8095,2,0,B|15:154|15:154|17:192,1,60,2|8,0:0|0:0,0:0:0:0:
96,237,8409,2,0,B|99:271|99:271|91:303,1,60,8|2,0:0|0:0,0:0:0:0:
186,318,8723,6,0,L|175:382,2,60,6|0|8,0:0|0:0|0:0,0:0:0:0:
236,236,9195,1,2,0:0:0:0:
308,298,9352,2,0,P|339:305|381:299,1,60,0|0,0:0|0:0,0:0:0:0:
453,260,9666,1,8,0:0:0:0:
353,105,9823,6,0,P|361:166|345:227,2,120,4|4|4,0:0|0:0|0:0,0:0:0:0:
277,44,10608,1,8,0:0:0:0:
182,60,10765,1,8,0:0:0:0:
182,60,10844,1,0,0:0:0:0:
182,60,10922,2,0,L|160:98,3,30,8|8|8|8,0:0|0:0|0:0|0:0,0:0:0:0:
201,126,11236,6,0,P|136:118|64:134,1,132.00000402832,4|8,0:0|0:0,0:0:0:0:
4,213,11708,1,0,0:0:0:0:
87,277,11865,2,0,P|90:315|82:351,1,66.0000020141602,8|0,0:0|0:0,0:0:0:0:
181,298,12179,2,0,B|177:264|177:264|186:224,1,66.0000020141602,8|0,0:0|0:0,0:0:0:0:
249,150,12493,6,0,B|245:118|245:118|251:85,2,66.0000020141602,8|0|8,0:0|0:0|0:0,0:0:0:0:
336,209,12964,1,0,0:0:0:0:
421,146,13121,2,0,P|452:142|488:148,2,66.0000020141602,8|0|8,0:0|0:0|0:0,0:0:0:0:
286,308,13749,6,0,P|220:324|145:304,1,132.00000402832,4|8,0:0|0:0,0:0:0:0:
79,241,14221,1,0,0:0:0:0:
148,161,14378,2,0,L|157:88,1,66.0000020141602,8|0,0:0|0:0,0:0:0:0:
242,34,14692,2,0,L|249:115,1,66.0000020141602,8|0,0:0|0:0,0:0:0:0:
330,165,15006,6,0,P|323:198|321:240,2,66.0000020141602,8|0|8,0:0|0:0|0:0,0:0:0:0:
400,85,15477,1,0,0:0:0:0:
469,164,15634,2,0,P|476:197|478:239,2,66.0000020141602,8|0|8,0:0|0:0|0:0,0:0:0:0:
298,39,16263,6,0,P|230:55|158:33,1,132.00000402832,4|8,0:0|0:0,0:0:0:0:
72,1,16734,1,0,0:0:0:0:
7,84,16891,2,0,P|5:118|18:162,1,66.0000020141602,8|0,0:0|0:0,0:0:0:0:
90,219,17205,1,8,0:0:0:0:
90,219,17362,1,0,0:0:0:0:
190,186,17519,6,0,P|223:191|258:185,2,66.0000020141602,8|0|8,0:0|0:0|0:0,0:0:0:0:
112,114,17990,1,0,0:0:0:0:
12,148,18147,2,0,P|0:179|-2:223,2,66.0000020141602,8|0|8,0:0|0:0|0:0,0:0:0:0:
198,48,18776,6,0,P|262:37|333:51,1,132.00000402832,4|8,0:0|0:0,0:0:0:0:
425,87,19247,1,0,0:0:0:0:
344,155,19404,2,0,P|337:191|345:237,1,66.0000020141602,8|0,0:0|0:0,0:0:0:0:
411,298,19718,1,8,0:0:0:0:
279,341,19875,6,0,L|143:336,1,132.00000402832,4|0,0:0|0:0,0:0:0:0:
86,249,20346,1,8,0:0:0:0:
86,249,20503,1,0,0:0:0:0:
167,182,20660,2,0,P|170:149|166:116,2,66.0000020141602,8|0|8,0:0|0:0|0:0,0:0:0:0:
272,264,21132,6,0,B|315:249|315:249|356:255|356:255|421:236,1,132.00000402832,4|0,0:0|0:0,0:0:0:0:
500,212,21603,1,8,0:0:0:0:
500,212,21760,1,0,0:0:0:0:
467,312,21917,1,8,0:0:0:0:
467,312,21996,1,2,0:0:0:0:
467,312,22074,1,8,0:0:0:0:
426,171,22231,1,4,0:0:0:0:
426,171,22545,5,4,0:0:0:0:
250,250,22859,2,0,B|190:263|190:263|130:250,1,120,8|2,0:0|0:0,0:0:0:0:
40,221,23331,1,0,0:0:0:0:
107,152,23488,2,0,L|106:92,1,60,8|0,0:0|0:0,0:0:0:0:
175,25,23802,6,0,P|235:36|308:22,1,120,2|8,0:0|0:0,0:0:0:0:
388,35,24273,2,0,P|417:88|385:153,1,120,2|0,0:0|0:0,0:0:0:0:
337,214,24744,1,8,0:0:0:0:
174,112,25058,6,0,L|54:114,1,120,2|8,0:0|0:0,0:0:0:0:
21,205,25530,1,0,0:0:0:0:
87,274,25687,2,0,P|92:306|88:333,2,60,2|0|8,0:0|0:0|0:0,0:0:0:0:
242,161,26315,6,0,P|285:118|363:118,1,120,2|8,0:0|0:0,0:0:0:0:
437,108,26786,1,2,0:0:0:0:
440,205,26943,2,0,P|439:238|449:278,1,60,0|0,0:0|0:0,0:0:0:0:
352,236,27257,2,0,P|354:195|329:161,1,60,8|0,0:0|0:0,0:0:0:0:
259,218,27571,6,0,P|204:237|128:230,1,120,4|8,0:0|0:0,0:0:0:0:
64,178,28043,1,0,0:0:0:0:
2,254,28200,2,0,B|1:286|1:286|8:325,1,60,2|0,0:0|0:0,0:0:0:0:
90,359,28514,1,8,0:0:0:0:
277,316,28828,6,0,B|270:285|270:285|269:247,1,60,2|2,0:0|0:0,0:0:0:0:
301,165,29142,1,8,0:0:0:0:
301,165,29299,1,0,0:0:0:0:
389,202,29456,2,0,P|418:202|448:195,2,60,2|2|8,0:0|0:0|0:0,0:0:0:0:
410,108,29927,1,0,0:0:0:0:
323,67,30085,6,0,P|293:64|264:70,1,60,2|0,0:0|0:0,0:0:0:0:
168,75,30399,2,0,P|169:45|178:16,2,60,8|0|2,0:0|0:0|0:0,0:0:0:0:
206,162,30870,1,0,0:0:0:0:
123,210,31027,2,0,P|91:213|63:209,1,60,8|0,0:0|0:0,0:0:0:0:
66,305,31341,6,0,B|70:337|70:337|68:377,1,60,2|0,0:0|0:0,0:0:0:0:
162,346,31655,2,0,B|160:318|160:318|164:286,1,60,8|0,0:0|0:0,0:0:0:0:
212,203,31969,2,0,L|288:214,1,60,8|8,0:0|0:0,0:0:0:0:
366,227,32284,1,8,0:0:0:0:
282,68,32598,6,0,P|221:54|152:69,1,120,4|8,0:0|0:0,0:0:0:0:
86,117,33069,1,0,0:0:0:0:
136,198,33226,2,0,B|138:233|138:233|132:269,1,60,2|0,0:0|0:0,0:0:0:0:
217,209,33540,2,0,B|215:174|215:174|221:138,1,60,8|0,0:0|0:0,0:0:0:0:
308,184,33854,6,0,P|367:193|433:184,1,120,2|8,0:0|0:0,0:0:0:0:
510,139,34325,2,0,P|502:202|509:286,1,120,4|0,0:0|0:0,0:0:0:0:
446,335,34797,1,8,0:0:0:0:
360,292,34954,1,4,0:0:0:0:
280,345,35111,6,0,P|220:358|156:340,1,120,8|8,0:0|0:0,0:0:0:0:
83,292,35582,1,0,0:0:0:0:
142,216,35739,2,0,P|146:184|144:148,1,60,2|0,0:0|0:0,0:0:0:0:
72,92,36053,1,8,0:0:0:0:
255,36,36367,6,0,P|310:18|377:41,1,120,2|8,0:0|0:0,0:0:0:0:
312,110,36838,2,0,P|303:175|314:238,1,120,2|0,0:0|0:0,0:0:0:0:
399,264,37310,2,0,B|404:296|404:296|399:332,1,60,8|0,0:0|0:0,0:0:0:0:
310,356,37624,6,0,P|248:369|182:350,1,120,4|8,0:0|0:0,0:0:0:0:
109,309,38095,1,0,0:0:0:0:
167,232,38252,2,0,P|168:202|164:172,1,60,2|0,0:0|0:0,0:0:0:0:
245,120,38566,2,0,P|243:149|247:179,1,60,8|0,0:0|0:0,0:0:0:0:
299,260,38880,5,2,0:0:0:0:
299,260,39037,1,2,0:0:0:0:
345,176,39195,2,0,P|375:170|416:172,1,60,8|0,0:0|0:0,0:0:0:0:
470,239,39509,1,2,0:0:0:0:
470,239,39666,1,2,0:0:0:0:
503,149,39823,2,0,L|504:82,1,60,8|0,0:0|0:0,0:0:0:0:
424,35,40137,6,0,P|369:49|296:26,1,120,2|8,0:0|0:0,0:0:0:0:
119,67,40765,2,0,L|120:138,1,60,2|0,0:0|0:0,0:0:0:0:
214,141,41079,2,0,L|200:207,1,60,8|0,0:0|0:0,0:0:0:0:
146,278,41393,5,2,0:0:0:0:
146,278,41551,1,0,0:0:0:0:
225,331,41708,2,0,P|256:335|290:330,1,60,8|0,0:0|0:0,0:0:0:0:
367,379,42022,2,0,P|375:323|355:254,1,120,2|8,0:0|0:0,0:0:0:0:
307,181,42493,1,0,0:0:0:0:
225,232,42650,6,0,P|161:242|93:226,1,120,4|8,0:0|0:0,0:0:0:0:
36,165,43121,1,0,0:0:0:0:
103,97,43278,2,0,P|107:62|101:24,1,60,8|0,0:0|0:0,0:0:0:0:
192,74,43592,2,0,P|188:109|194:147,1,60,8|0,0:0|0:0,0:0:0:0:
282,162,43907,6,0,P|262:195|234:218,1,60,8|0,0:0|0:0,0:0:0:0:
156,243,44221,2,0,P|179:279|206:295,1,60,8|0,0:0|0:0,0:0:0:0:
281,323,44535,2,0,P|333:311|403:324,1,120,8|8,0:0|0:0,0:0:0:0:
446,135,45163,6,0,P|445:107|434:60,2,60,8|0|8,0:0|0:0|0:0,0:0:0:0:
384,208,45634,2,0,P|356:201|316:201,2,60,8|0|8,0:0|0:0|0:0,0:0:0:0:
478,224,46106,1,8,0:0:0:0:
331,347,46420,6,0,P|337:317|334:281,1,60,8|2,0:0|0:0,0:0:0:0:
252,239,46734,1,8,0:0:0:0:
252,239,46891,1,2,0:0:0:0:
172,292,47048,2,0,P|140:293|99:281,1,60,8|0,0:0|0:0,0:0:0:0:
32,339,47362,2,0,P|20:305|21:263,1,60,8|0,0:0|0:0,0:0:0:0:
77,205,47676,6,0,P|87:152|78:74,1,120,4|2,0:0|0:0,0:0:0:0:
149,18,48147,1,0,0:0:0:0:
201,97,48304,2,0,P|255:116|330:102,1,120,8|0,0:0|0:0,0:0:0:0:
478,5,48933,6,0,P|464:57|472:138,1,120,8|2,0:0|0:0,0:0:0:0:
502,211,49404,1,8,0:0:0:0:
439,283,49561,2,0,P|379:292|312:277,1,120,8|2,0:0|0:0,0:0:0:0:
235,325,50032,5,8,0:0:0:0:
235,325,50111,1,8,0:0:0:0:
235,325,50189,2,0,P|250:266|241:183,1,120,4|8,0:0|0:0,0:0:0:0:
182,136,50660,1,8,0:0:0:0:
182,136,50739,1,8,0:0:0:0:
182,136,50818,2,0,P|244:145|320:126,1,120,4|8,0:0|0:0,0:0:0:0:
443,7,51446,6,0,P|435:66|448:138,1,120,4|0,0:0|0:0,0:0:0:0:
502,201,51917,1,8,0:0:0:0:
502,201,51996,1,8,0:0:0:0:
502,201,52074,2,0,P|447:193|373:202,1,120,4|8,0:0|0:0,0:0:0:0:
312,264,52545,1,0,0:0:0:0:
224,224,52702,6,0,P|207:170|208:95,1,120,4|2,0:0|0:0,0:0:0:0:
266,31,53174,1,0,0:0:0:0:
357,61,53331,2,0,P|412:72|490:55,1,120,8|0,0:0|0:0,0:0:0:0:
443,251,53959,6,0,L|367:257,1,60,8|2,0:0|0:0,0:0:0:0:
308,316,54273,2,0,L|233:312,1,60,2|8,0:0|0:0,0:0:0:0:
159,276,54587,2,0,P|136:217|138:144,1,120,0|2,0:0|0:0,0:0:0:0:
174,73,55058,1,8,0:0:0:0:
174,73,55137,1,8,0:0:0:0:
174,73,55215,6,0,P|227:86|297:72,1,120,4|2,0:0|0:0,0:0:0:0:
379,37,55687,1,0,0:0:0:0:
456,93,55844,2,0,L|453:167,1,60,8|0,0:0|0:0,0:0:0:0:
446,248,56158,1,8,0:0:0:0:
446,248,56315,1,0,0:0:0:0:
360,204,56472,6,0,P|327:198|292:204,1,60,8|2,0:0|0:0,0:0:0:0:
239,275,56786,1,8,0:0:0:0:
155,235,56943,1,2,0:0:0:0:
89,305,57100,2,0,P|62:249|73:174,1,120,8|8,0:0|0:0,0:0:0:0:
208,64,57729,6,0,P|263:75|334:63,1,120,4|2,0:0|0:0,0:0:0:0:
415,32,58200,1,0,0:0:0:0:
492,88,58357,2,0,L|486:228,1,120,8|0,0:0|0:0,0:0:0:0:
336,328,58985,6,0,B|338:299|338:299|332:258,1,60,8|0,0:0|0:0,0:0:0:0:
296,180,59299,2,0,B|267:186|267:186|216:182,1,60,2|8,0:0|0:0,0:0:0:0:
156,133,59613,1,0,0:0:0:0:
72,180,59770,2,0,P|79:236|64:304,1,120,0|8,0:0|0:0,0:0:0:0:
43,340,60163,1,8,0:0:0:0:
43,340,60242,6,0,P|103:333|170:342,1,120,4|8,0:0|0:0,0:0:0:0:
254,364,60713,1,8,0:0:0:0:
254,364,60791,1,8,0:0:0:0:
254,364,60870,2,0,P|240:300|254:239,1,120,4|8,0:0|0:0,0:0:0:0:
159,77,61498,6,0,P|167:136|156:197,1,120,4|8,0:0|0:0,0:0:0:0:
92,266,61969,1,8,0:0:0:0:
92,266,62048,1,8,0:0:0:0:
92,266,62126,2,0,P|147:255|225:268,1,120,4|8,0:0|0:0,0:0:0:0:
302,287,62598,1,0,0:0:0:0:
373,223,62755,6,0,P|381:164|378:91,1,120,4|8,0:0|0:0,0:0:0:0:
304,44,63226,1,2,0:0:0:0:
213,76,63383,2,0,L|137:74,1,60,8|2,0:0|0:0,0:0:0:0:
98,153,63697,2,0,L|160:154,1,60,8|2,0:0|0:0,0:0:0:0:
253,158,64011,6,0,P|279:219|242:281,1,120,4|2,0:0|0:0,0:0:0:0:
192,333,64482,2,0,L|319:333,1,120,4|4,0:0|0:0,0:0:0:0:
504,330,65111,1,2,0:0:0:0:
443,255,65268,6,0,P|449:221|439:180,2,60,8|0|2,0:0|0:0|0:0,0:0:0:0:
351,225,65739,2,0,P|291:213|226:228,1,120,4|2,0:0|0:0,0:0:0:0:
147,265,66210,1,8,0:0:0:0:
136,73,66524,1,4,0:0:0:0:
404,124,67310,6,0,L|414:58,2,60,2|8|0,0:0|0:0|0:0,0:0:0:0:
334,203,67781,6,0,P|264:191|194:212,1,132.00000402832,4|8,0:0|0:0,0:0:0:0:
119,268,68252,1,0,0:0:0:0:
27,214,68409,2,0,P|31:181|22:146,1,66.0000020141602,8|0,0:0|0:0,0:0:0:0:
92,70,68723,2,0,P|124:74|177:68,1,66.0000020141602,8|0,0:0|0:0,0:0:0:0:
252,26,69037,5,8,0:0:0:0:
299,121,69195,2,0,L|288:199,1,66.0000020141602,0|8,0:0|0:0,0:0:0:0:
190,220,69509,1,0,0:0:0:0:
253,304,69666,2,0,P|290:313|330:303,1,66.0000020141602,8|0,0:0|0:0,0:0:0:0:
422,308,69980,2,0,P|418:276|420:239,1,66.0000020141602,8|0,0:0|0:0,0:0:0:0:
480,156,70294,6,0,P|410:138|341:168,1,132.00000402832,4|8,0:0|0:0,0:0:0:0:
274,225,70765,1,0,0:0:0:0:
183,170,70922,2,0,B|174:135|185:101,2,66.0000020141602,2|0|8,0:0|0:0|0:0,0:0:0:0:
93,73,71393,6,0,P|77:137|92:205,1,132.00000402832,4|0,0:0|0:0,0:0:0:0:
145,291,71865,1,2,0:0:0:0:
217,367,72022,1,4,0:0:0:0:
279,282,72179,2,0,P|340:271|414:287,1,132.00000402832,8|8,0:0|0:0,0:0:0:0:
500,335,72650,1,8,0:0:0:0:
511,231,72807,6,0,P|518:169|503:97,1,132.00000402832,4|8,0:0|0:0,0:0:0:0:
420,37,73278,1,0,0:0:0:0:
336,101,73435,2,0,P|297:105|259:100,1,66.0000020141602,8|0,0:0|0:0,0:0:0:0:
211,14,73749,2,0,P|185:38|169:72,1,66.0000020141602,8|0,0:0|0:0,0:0:0:0:
187,169,74064,6,0,P|174:234|184:304,1,132.00000402832,8|8,0:0|0:0,0:0:0:0:
268,359,74535,1,0,0:0:0:0:
350,293,74692,2,0,P|381:289|421:293,1,66.0000020141602,8|0,0:0|0:0,0:0:0:0:
470,201,75006,2,0,P|439:205|399:201,1,66.0000020141602,8|0,0:0|0:0,0:0:0:0:
338,119,75320,6,0,P|273:103|197:125,1,132.00000402832,4|8,0:0|0:0,0:0:0:0:
144,199,75791,2,0,P|151:140|139:62,1,132.00000402832,4|4,0:0|0:0,0:0:0:0:
47,19,76263,1,8,0:0:0:0:
20,121,76420,1,4,0:0:0:0:
114,309,76734,5,2,0:0:0:0:
114,309,76891,2,0,P|146:311|193:306,1,66.0000020141602,8|0,0:0|0:0,0:0:0:0:
259,239,77205,2,0,P|273:276|276:315,1,66.0000020141602,8|8,0:0|0:0,0:0:0:0:
353,229,77519,2,0,P|348:197|348:155,1,66.0000020141602,8|8,0:0|0:0,0:0:0:0:
407,74,77833,6,0,P|341:58|267:88,1,132.00000402832,4|8,0:0|0:0,0:0:0:0:
199,146,78304,1,0,0:0:0:0:
106,95,78462,2,0,B|105:59|105:59|114:18,1,66.0000020141602,2|0,0:0|0:0,0:0:0:0:
21,85,78776,2,0,B|22:121|22:121|13:162,1,66.0000020141602,8|0,0:0|0:0,0:0:0:0:
43,252,79090,6,0,P|105:238|186:253,1,132.00000402832,2|8,0:0|0:0,0:0:0:0:
264,298,79561,1,0,0:0:0:0:
350,235,79718,2,0,P|355:204|349:157,1,66.0000020141602,2|0,0:0|0:0,0:0:0:0:
288,85,80032,2,0,P|258:90|220:84,1,66.0000020141602,8|0,0:0|0:0,0:0:0:0:
64,21,80346,6,0,P|45:82|65:158,1,132.00000402832,4|2,0:0|0:0,0:0:0:0:
119,233,80818,2,0,P|178:217|256:232,2,132.00000402832,4|2|4,0:0|0:0|0:0,0:0:0:0:
421,326,81760,5,0,0:0:0:0:
421,326,81917,2,0,P|417:292|419:245,1,66.0000020141602,8|0,0:0|0:0,0:0:0:0:
329,200,82231,2,0,P|335:237|329:272,1,66.0000020141602,8|8,0:0|0:0,0:0:0:0:
180,346,82545,1,8,0:0:0:0:
142,138,82859,6,0,P|99:129|54:138,2,88.000002685547,8|8|8,0:0|0:0|0:0,0:0:0:0:
280,167,83488,2,0,P|323:176|367:166,2,88.000002685547,8|8|8,0:0|0:0|0:0,0:0:0:0:
206,56,84116,1,8,0:0:0:0:
152,286,84901,1,2,0:0:0:0:
254,316,85058,1,8,0:0:0:0:
390,154,85373,6,0,P|396:198|388:247,2,88.000002685547,8|8|8,0:0|0:0|0:0,0:0:0:0:
261,95,86001,2,0,P|255:51|263:2,2,88.000002685547,8|8|8,0:0|0:0|0:0,0:0:0:0:
198,222,86629,1,8,0:0:0:0:
474,68,87100,5,2,0:0:0:0:
376,109,87257,2,0,P|356:171|375:241,1,132.00000402832,8|8,0:0|0:0,0:0:0:0:
459,177,87729,1,0,0:0:0:0:
356,314,87886,6,0,P|359:346|354:379,2,66.0000020141602,8|0|2,0:0|0:0|0:0,0:0:0:0:
271,250,88357,2,0,P|202:236|126:253,1,132.00000402832,8|0,0:0|0:0,0:0:0:0:
58,310,88828,1,8,0:0:0:0:
32,99,89142,1,8,0:0:0:0:
395,313,89770,6,0,P|362:317|330:313,1,66.0000020141602,2|2,0:0|0:0,0:0:0:0:
243,250,90085,2,0,L|242:171,1,66.0000020141602,2|2,0:0|0:0,0:0:0:0:
302,123,90399,2,0,P|237:134|174:116,1,132.00000402832,4|8,0:0|0:0,0:0:0:0:
92,50,90870,2,0,P|107:118|91:198,1,132.00000402832,4|0,0:0|0:0,0:0:0:0:
108,284,91341,2,0,P|140:281|179:287,1,66.0000020141602,8|0,0:0|0:0,0:0:0:0:
274,316,91655,1,4,0:0:0:0:
315,189,92441,5,2,0:0:0:0:
416,113,92598,1,8,0:0:0:0:
409,308,92912,5,2,0:0:0:0:
409,308,93069,2,0,P|346:297|282:312,1,120,0|2,0:0|0:0,0:0:0:0:
124,212,93697,2,0,P|182:223|241:212,2,120,2|2|2,0:0|0:0|0:0,0:0:0:0:
247,359,94640,2,0,P|241:328|249:285,1,60,0|2,0:0|0:0,0:0:0:0:
353,142,95111,1,8,0:0:0:0:
179,60,95425,5,8,0:0:0:0:
179,60,95582,2,0,P|170:119|182:177,1,120,8|8,0:0|0:0,0:0:0:0:
77,339,96210,2,0,P|85:279|73:221,1,120,8|8,0:0|0:0,0:0:0:0:
251,293,96838,2,0,P|310:305|374:289,1,120,8|8,0:0|0:0,0:0:0:0:
439,228,97310,1,4,0:0:0:0:
