osu file format v14

[General]
AudioFilename: audio.mp3
AudioLeadIn: 0
PreviewTime: 10530
Countdown: 0
SampleSet: Soft
StackLeniency: 0.7
Mode: 0
LetterboxInBreaks: 0
WidescreenStoryboard: 0

[Editor]
DistanceSpacing: 1.1
BeatDivisor: 2
GridSize: 4
TimelineZoom: 1

[Metadata]
Title:Kimeta yo Hand in Hand
TitleUnicode:決めたよHand in Hand
Artist:Aqours
ArtistUnicode:Aqours
Creator:-Nitrous
Version:Easy
Source:Lovelive! Sunshine!!
Tags:ラブライブ!サンシャイン!! school idol project Takami Chika 高海千歌 Sakurauchi Riko 桜内梨子 Watanabe You 渡辺 曜 Inami Anju 伊波杏樹 Aida Rikako 逢田梨香子 Saitou Shuka 斉藤朱夏 Akitoshi Corinn Sotarks Kalibe
BeatmapID:1079179
BeatmapSetID:507355

[Difficulty]
HPDrainRate:2
CircleSize:2.5
OverallDifficulty:3
ApproachRate:4
SliderMultiplier:0.8
SliderTickRate:1

[Events]
//Background and Video events
Video,994,"Kimeta yo Hand in Hand.avi"
0,0,"aqoursfirstyears.jpg",0,0
//Break Periods
//Storyboard Layer 0 (Background)
//Storyboard Layer 1 (Fail)
//Storyboard Layer 2 (Pass)
//Storyboard Layer 3 (Foreground)
//Storyboard Sound Samples

[TimingPoints]
-72,314.13612565445,4,2,3,60,1,0
5896,-100,4,2,3,60,0,0
10608,-100,4,2,1,60,0,0
11236,-100,4,2,1,80,0,1
18776,-100,4,2,1,80,0,1
20660,-100,4,2,1,80,0,1
22545,-100,4,2,1,70,0,0
47990,-100,4,2,1,60,0,0
60242,-100,4,2,1,70,0,0
64011,-100,4,2,1,80,0,0
67781,-100,4,2,1,80,0,1
92912,-100,4,2,3,60,0,0
95111,-100,4,2,1,60,0,0

[Colours]
Combo1 : 255,128,64
Combo2 : 128,128,192
Combo3 : 0,128,192

[HitObjects]
88,110,5896,5,12,0:0:0:0:
163,155,6210,2,0,P|204:164|248:152,1,80,6|8,0:0|0:0,0:0:0:0:
386,57,7153,2,0,P|411:137|405:218,1,160,8|8,0:0|0:0,0:0:0:0:
259,308,8409,5,8,0:0:0:0:
183,262,8723,2,0,P|173:224|184:167,1,80,6|8,0:0|0:0,0:0:0:0:
286,45,9666,2,0,P|341:103|338:186,1,160,8|0,0:0|0:0,0:0:0:0:
296,255,10608,2,0,B|254:262|254:262|206:256,1,80,8|8,0:0|0:0,0:0:0:0:
132,282,11236,6,0,B|115:236|147:198|147:198|132:162|91:135,2,160,4|8|8,0:0|0:0|0:0,0:0:0:0:
299,335,13121,2,0,B|337:343|337:343|376:333,1,80,8|8,0:0|0:0,0:0:0:0:
353,247,13749,6,0,P|446:273|467:340,2,160,4|8|8,0:0|0:0|0:0,0:0:0:0:
196,266,15634,2,0,P|153:277|114:265,1,80,8|8,0:0|0:0,0:0:0:0:
158,188,16263,6,0,B|163:141|136:93|136:93|133:53|164:14,2,160,4|8|8,0:0|0:0|0:0,0:0:0:0:
217,353,18147,2,0,P|255:362|294:351,1,80,8|8,0:0|0:0,0:0:0:0:
360,293,18776,6,0,P|398:282|436:292,1,80,4|8,0:0|0:0,0:0:0:0:
399,370,19404,2,0,P|469:372|509:338,2,120,8|4|8,0:0|0:0|0:0,0:0:0:0:
324,322,20660,6,0,B|285:285|285:285|278:219,2,120,8|4|8,0:0|0:0|0:0,0:0:0:0:
369,246,21917,2,0,L|457:241,1,80,8|4,0:0|0:0,0:0:0:0:
510,181,22545,5,4,0:0:0:0:
441,125,22859,2,0,B|407:104|365:103|365:103|335:139|283:142,1,160,8|8,0:0|0:0,0:0:0:0:
217,179,23802,1,2,0:0:0:0:
136,215,24116,2,0,P|140:134|230:92,1,160,8|8,0:0|0:0,0:0:0:0:
281,57,25058,5,2,0:0:0:0:
314,138,25373,2,0,B|359:169|358:208|358:208|322:244|326:296,1,160,8|8,0:0|0:0,0:0:0:0:
276,345,26315,1,2,0:0:0:0:
188,334,26629,2,0,P|151:318|124:289,2,80,8|0|8,0:0|0:0|0:0,0:0:0:0:
238,261,27571,6,0,P|277:198|365:199,1,160,4|2,0:0|0:0,0:0:0:0:
420,257,28514,1,8,0:0:0:0:
491,205,28828,2,0,L|491:112,1,80,2|8,0:0|0:0,0:0:0:0:
432,59,29456,2,0,P|390:48|347:54,1,80,2|8,0:0|0:0,0:0:0:0:
280,101,30085,6,0,L|194:90,2,80,2|8|2,0:0|0:0|0:0,0:0:0:0:
352,150,31027,1,8,0:0:0:0:
428,193,31341,2,0,B|453:217|456:248|456:248|428:282|429:352,1,160,2|8,0:0|0:0,0:0:0:0:
342,355,32284,1,8,0:0:0:0:
279,293,32598,6,0,B|255:324|256:361|256:361|209:347|140:358,1,160,4|2,0:0|0:0,0:0:0:0:
84,335,33540,1,8,0:0:0:0:
13,282,33854,2,0,B|7:225|7:225|18:152,2,120,2|4|8,0:0|0:0|0:0,0:0:0:0:
94,247,35111,6,0,B|128:225|164:222|164:222|207:254|273:251,1,160,8|2,0:0|0:0,0:0:0:0:
303,315,36053,2,0,B|338:322|338:322|381:314,1,80,8|2,0:0|0:0,0:0:0:0:
468,301,36681,2,0,B|456:253|417:236|417:236|411:193|426:158,1,160,8|8,0:0|0:0,0:0:0:0:
477,93,37624,6,0,P|401:78|343:130,1,160,4|2,0:0|0:0,0:0:0:0:
295,202,38566,1,8,0:0:0:0:
217,160,38880,2,0,P|208:204|218:249,1,80,2|8,0:0|0:0,0:0:0:0:
131,270,39509,2,0,P|149:301|200:324,1,80,2|8,0:0|0:0,0:0:0:0:
272,303,40137,6,0,L|371:269,2,80,2|8|2,0:0|0:0|0:0,0:0:0:0:
215,238,41079,2,0,B|188:213|161:212|161:212|110:242|55:219,1,160,8|8,0:0|0:0,0:0:0:0:
1,162,42022,1,2,0:0:0:0:
90,313,42650,6,0,B|152:319|152:319|177:341|177:341|250:349,2,160,4|8|8,0:0|0:0|0:0,0:0:0:0:
17,262,44221,1,8,0:0:0:0:
47,179,44535,2,0,B|57:142|57:142|52:99,1,80,8|8,0:0|0:0,0:0:0:0:
113,37,45163,2,0,P|172:25|237:38,2,120,8|8|8,0:0|0:0|0:0,0:0:0:0:
52,100,46420,1,8,0:0:0:0:
100,329,47676,6,0,P|172:302|255:331,1,160,4|8,0:0|0:0,0:0:0:0:
419,285,48933,2,0,B|412:248|386:217|386:217|381:173|414:133,1,160,8|8,0:0|0:0,0:0:0:0:
263,40,50189,2,0,P|187:65|103:32,2,160,4|4|4,0:0|0:0|0:0,0:0:0:0:
474,321,52702,6,0,B|422:298|361:338|305:313,1,160,4|8,0:0|0:0,0:0:0:0:
140,301,53959,2,0,B|132:257|145:214|145:214|184:216|240:171,1,160,8|0,0:0|0:0,0:0:0:0:
342,73,55215,6,0,P|383:142|374:235,1,160,4|8,0:0|0:0,0:0:0:0:
330,291,56158,1,8,0:0:0:0:
246,263,56472,2,0,B|201:268|201:268|165:289,1,80,8|8,0:0|0:0,0:0:0:0:
108,348,57100,6,0,P|83:272|130:206,1,160,8|4,0:0|0:0,0:0:0:0:
175,41,58357,2,0,B|198:27|238:21|238:21|275:46|360:40,1,160,8|8,0:0|0:0,0:0:0:0:
502,17,59613,1,0,0:0:0:0:
450,185,60242,6,0,B|448:238|420:261|420:261|424:302|443:353,2,160,4|4|4,0:0|0:0|0:0,0:0:0:0:
99,156,62755,6,0,B|140:122|175:122|175:122|195:150|238:158,2,160,4|8|4,0:0|0:0|0:0,0:0:0:0:
60,282,64482,2,0,P|102:291|144:283,1,80,4|4,0:0|0:0,0:0:0:0:
263,242,65268,2,0,P|323:226|397:245,2,120,8|4|8,0:0|0:0|0:0,0:0:0:0:
189,289,66524,1,4,0:0:0:0:
58,196,67781,6,0,B|56:155|56:155|62:109,1,80,4|8,0:0|0:0,0:0:0:0:
121,52,68409,2,0,L|203:50,1,80,8|8,0:0|0:0,0:0:0:0:
240,128,69037,2,0,L|327:133,2,80,8|8|8,0:0|0:0|0:0,0:0:0:0:
152,140,69980,5,8,0:0:0:0:
85,197,70294,2,0,P|68:253|86:309,1,120,4|0,0:0|0:0,0:0:0:0:
164,350,71079,1,0,0:0:0:0:
242,310,71393,2,0,B|283:302|283:302|322:309,2,80,4|0|4,0:0|0:0|0:0,0:0:0:0:
259,90,72807,6,0,P|220:83|181:89,1,80,4|8,0:0|0:0,0:0:0:0:
100,126,73435,2,0,L|103:215,1,80,8|8,0:0|0:0,0:0:0:0:
181,245,74064,2,0,B|186:330,2,80,8|8|8,0:0|0:0|0:0,0:0:0:0:
238,178,75006,1,8,0:0:0:0:
305,121,75320,2,0,P|323:178|304:237,1,120,4|4,0:0|0:0,0:0:0:0:
251,302,76106,1,4,0:0:0:0:
171,264,76420,2,0,P|131:191|194:78,1,200,4|8,0:0|0:0,0:0:0:0:
338,28,77833,5,4,0:0:0:0:
407,84,78147,2,0,B|426:106|439:135|439:135|417:187|419:262,1,160,8|8,0:0|0:0,0:0:0:0:
433,319,79090,1,2,0:0:0:0:
350,288,79404,2,0,P|276:263|195:297,1,160,8|8,0:0|0:0,0:0:0:0:
158,367,80346,2,0,P|119:316|126:248,1,120,4|4,0:0|0:0,0:0:0:0:
130,174,81132,2,0,B|229:168,1,80,2|4,0:0|0:0,0:0:0:0:
407,342,82545,5,8,0:0:0:0:
340,284,82859,2,8,B|311:252|308:210|308:210|333:184|349:132,2,160,8|8|8,0:0|0:0|0:0,0:0:0:0:
129,124,85058,5,8,0:0:0:0:
193,63,85373,2,0,B|223:42|270:36|270:36|299:64|359:69,2,160,8|8|8,0:0|0:0|0:0,0:0:0:0:
432,262,87886,6,0,B|453:195|453:195|440:147,2,120,8|8|8,0:0|0:0|0:0,0:0:0:0:
388,338,89142,1,8,0:0:0:0:
79,262,90399,6,0,B|59:195|59:195|72:147,2,120,4|4|8,0:0|0:0|0:0,0:0:0:0:
124,338,91655,1,4,0:0:0:0:
393,261,92912,6,0,P|331:246|266:265,1,120,2|2,0:0|0:0,0:0:0:0:
214,320,93697,2,0,B|193:287|193:287|191:229,1,80,2|2,0:0|0:0,0:0:0:0:
107,221,94325,2,0,P|139:175|201:159,1,120,2|2,0:0|0:0,0:0:0:0:
372,130,95425,6,0,B|414:152|414:152|438:220,1,120,8|8,0:0|0:0,0:0:0:0:
490,291,96210,2,0,P|454:307|414:305,1,80,8|8,0:0|0:0,0:0:0:0:
343,357,96838,2,0,P|326:312|353:243,1,120,8|4,0:0|0:0,0:0:0:0:
