osu file format v14

[General]
AudioFilename: audio.mp3
AudioLeadIn: 0
PreviewTime: 10530
Countdown: 0
SampleSet: Soft
StackLeniency: 0.7
Mode: 0
LetterboxInBreaks: 0
WidescreenStoryboard: 0

[Editor]
Bookmarks: 32601,97313
DistanceSpacing: 2.7
BeatDivisor: 4
GridSize: 4
TimelineZoom: 1.9

[Metadata]
Title:Kimeta yo Hand in Hand
TitleUnicode:決めたよHand in Hand
Artist:Aqours
ArtistUnicode:Aqours
Creator:-Nitrous
Version:Akitoshi's Expert
Source:Lovelive! Sunshine!!
Tags:ラブライブ!サンシャイン!! school idol project Takami Chika 高海千歌 Sakurauchi Riko 桜内梨子 Watanabe You 渡辺 曜 Inami Anju 伊波杏樹 Aida Rikako 逢田梨香子 Saitou Shuka 斉藤朱夏 Akitoshi Corinn Sotarks Kalibe
BeatmapID:1094888
BeatmapSetID:507355

[Difficulty]
HPDrainRate:6
CircleSize:4
OverallDifficulty:8.5
ApproachRate:9.3
SliderMultiplier:1.9
SliderTickRate:1

[Events]
//Background and Video events
Video,994,"Kimeta yo Hand in Hand.avi"
0,0,"aqoursfirstyears.jpg",0,0
//Break Periods
//Storyboard Layer 0 (Background)
//Storyboard Layer 1 (Fail)
//Storyboard Layer 2 (Pass)
//Storyboard Layer 3 (Foreground)
//Storyboard Sound Samples

[TimingPoints]
-72,314.13612565445,4,2,2,70,1,0
1184,-133.333333333333,4,2,0,40,0,0
5738,-133.333333333333,4,2,1,40,0,0
6210,-125,4,2,2,60,0,0
10765,-125,4,2,1,60,0,0
11236,-90.9090909090909,4,2,1,80,0,1
22545,-100,4,2,1,60,0,0
42649,-90.9090909090909,4,2,1,70,0,0
47676,-125,4,2,1,60,0,0
62754,-111.111111111111,4,2,1,70,0,0
65267,-100,4,2,1,70,0,0
66524,-166.666666666667,4,2,1,70,0,0
66838,-166.666666666667,4,2,0,70,0,0
66995,-166.666666666667,4,2,0,5,0,0
67309,-133.333333333333,4,2,1,50,0,0
67781,-86.9565217391304,4,2,1,80,0,1
82859,-117.647058823529,4,2,1,80,0,1
84431,-117.647058823529,4,2,1,20,0,1
84744,-117.647058823529,4,2,1,80,0,1
86943,-117.647058823529,4,2,1,20,0,1
87100,-117.647058823529,4,2,1,80,0,1
87886,-100,4,2,1,80,0,1
90399,-90.9090909090909,4,2,1,80,0,1
92912,-125,4,2,1,70,0,0
97310,-166.666666666667,4,2,1,70,0,0
97624,-166.666666666667,4,2,0,50,0,0
98252,-166.666666666667,4,2,0,10,0,0

[Colours]
Combo1 : 255,128,64
Combo2 : 128,128,192
Combo3 : 0,128,192

[HitObjects]
75,130,1184,6,0,L|154:127,1,71.2500027179719,2|0,0:0|0:0,0:0:0:0:
260,125,1498,1,8,0:0:0:0:
313,225,1655,2,0,P|317:264|305:298,1,71.2500027179719,2|0,0:0|0:0,0:0:0:0:
328,225,1969,2,0,P|332:263|320:298,1,71.2500027179719,2|8,0:0|0:0,0:0:0:0:
342,225,2284,2,0,P|345:264|333:298,1,71.2500027179719,2|0,0:0|0:0,0:0:0:0:
222,249,2598,5,2,0:0:0:0:
323,121,2755,1,8,0:0:0:0:
342,225,2912,1,0,0:0:0:0:
230,146,3069,1,2,0:0:0:0:
410,165,3226,1,8,0:0:0:0:
304,18,3383,2,0,B|268:13|268:13|218:17,1,71.2500027179719,8|0,0:0|0:0,0:0:0:0:
85,82,3697,6,0,L|89:156,1,71.2500027179719,2|0,0:0|0:0,0:0:0:0:
123,262,4011,1,8,0:0:0:0:
227,219,4168,2,0,P|268:212|301:224,1,71.2500027179719,2|0,0:0|0:0,0:0:0:0:
227,209,4482,2,0,P|268:202|301:214,1,71.2500027179719,2|8,0:0|0:0,0:0:0:0:
227,199,4797,2,0,P|268:192|301:204,1,71.2500027179719,2|0,0:0|0:0,0:0:0:0:
396,252,5111,5,2,0:0:0:0:
373,111,5268,1,8,0:0:0:0:
295,200,5425,1,0,0:0:0:0:
391,260,5582,1,2,0:0:0:0:
285,66,5739,1,2,0:0:0:0:
238,283,5896,2,0,L|245:362,1,71.2500027179719,12|0,0:0|0:0,0:0:0:0:
148,138,6210,6,0,L|155:59,1,76,6|0,0:0|0:0,0:0:0:0:
260,135,6524,1,8,0:0:0:0:
123,216,6681,2,0,P|90:196|70:159,1,76,0|2,0:0|0:0,0:0:0:0:
241,64,6996,2,0,P|259:97|258:139,1,76,0|8,0:0|0:0,0:0:0:0:
252,263,7310,2,0,B|244:300|244:300|255:351,1,76,0|2,0:0|0:0,0:0:0:0:
351,299,7624,5,0,0:0:0:0:
168,302,7781,2,0,P|161:340|170:379,1,76,8|2,0:0|0:0,0:0:0:0:
252,263,8095,1,2,0:0:0:0:
73,303,8252,1,8,0:0:0:0:
190,163,8409,1,8,0:0:0:0:
168,302,8566,1,2,0:0:0:0:
109,105,8723,6,0,P|156:69|263:95,1,152,6|8,0:0|0:0,0:0:0:0:
339,154,9195,2,0,P|394:158|436:147,1,76,0|8,0:0|0:0,0:0:0:0:
487,250,9509,2,0,P|432:246|390:257,1,76,0|8,0:0|0:0,0:0:0:0:
241,290,9823,6,0,B|235:329|235:329|247:375,1,76,6|0,0:0|0:0,0:0:0:0:
339,154,10137,2,0,B|345:115|345:115|333:69,1,76,6|0,0:0|0:0,0:0:0:0:
171,16,10451,1,6,0:0:0:0:
245,121,10608,1,0,0:0:0:0:
101,105,10765,5,8,0:0:0:0:
72,130,10844,1,8,0:0:0:0:
59,165,10922,1,8,0:0:0:0:
55,203,11001,1,0,3:0:0:0:
62,239,11079,1,0,3:0:0:0:
80,272,11158,1,0,3:0:0:0:
111,306,11236,6,0,L|244:300,1,104.500003189087,12|0,0:0|0:0,0:0:0:0:
437,290,11551,1,8,0:0:0:0:
320,374,11708,1,2,0:0:0:0:
386,162,11865,1,8,0:0:0:0:
327,293,12022,1,2,0:0:0:0:
282,76,12179,1,8,0:0:0:0:
296,220,12336,1,2,0:0:0:0:
387,17,12493,5,8,0:0:0:0:
386,162,12650,1,2,0:0:0:0:
224,7,12807,1,8,0:0:0:0:
223,151,12964,1,2,0:0:0:0:
430,94,13121,2,0,P|462:136|455:205,1,104.500003189087,8|2,0:0|0:0,0:0:0:0:
295,121,13435,2,0,P|288:68|328:12,1,104.500003189087,8|2,0:0|0:0,0:0:0:0:
359,238,13749,5,12,0:0:0:0:
202,229,13907,1,2,0:0:0:0:
359,366,14064,1,8,0:0:0:0:
202,357,14221,2,0,B|155:363|155:363|86:346,1,104.500003189087,2|8,0:0|0:0,0:0:0:0:
26,164,14535,2,0,B|73:158|73:158|142:175,1,104.500003189087,2|8,0:0|0:0,0:0:0:0:
282,235,14849,1,2,0:0:0:0:
206,42,15006,5,8,0:0:0:0:
227,284,15163,1,2,0:0:0:0:
354,74,15320,1,8,0:0:0:0:
128,171,15477,1,8,0:0:0:0:
367,225,15634,1,8,0:0:0:0:
216,137,15791,1,2,0:0:0:0:
401,138,15948,1,8,0:0:0:0:
282,235,16106,1,2,0:0:0:0:
489,174,16263,6,0,P|494:125|466:67,1,104.500003189087,12|2,0:0|0:0,0:0:0:0:
273,12,16577,1,8,0:0:0:0:
401,138,16734,1,2,0:0:0:0:
183,108,16891,1,8,0:0:0:0:
311,234,17048,1,2,0:0:0:0:
93,202,17205,1,8,0:0:0:0:
221,328,17362,1,2,0:0:0:0:
183,108,17519,5,8,0:0:0:0:
106,313,17676,1,2,0:0:0:0:
311,234,17833,1,8,0:0:0:0:
93,202,17990,1,8,0:0:0:0:
296,120,18147,2,0,B|350:109|350:109|405:114,1,104.500003189087,8|2,0:0|0:0,0:0:0:0:
497,235,18462,2,0,B|443:246|443:246|388:241,1,104.500003189087,8|2,0:0|0:0,0:0:0:0:
164,222,18776,5,12,0:0:0:0:
268,323,18933,1,2,0:0:0:0:
296,120,19090,1,8,0:0:0:0:
168,317,19247,2,0,P|215:332|273:321,1,104.500003189087,2|8,0:0|0:0,0:0:0:0:
394,241,19561,1,2,0:0:0:0:
231,173,19718,1,8,0:0:0:0:
394,42,19875,6,0,B|423:95|423:95|393:247,1,209.000006378174,6|2,0:0|0:0,0:0:0:0:
168,317,20346,1,8,0:0:0:0:
361,361,20503,1,2,0:0:0:0:
220,202,20660,1,8,0:0:0:0:
394,241,20818,1,2,0:0:0:0:
253,381,20975,1,8,0:0:0:0:
113,198,21132,6,0,B|83:147|83:147|117:52|117:52|154:105,1,209.000006378174,6|0,0:0|0:0,0:0:0:0:
154,281,21603,2,0,P|99:288|39:255,1,104.500003189087,8|0,0:0|0:0,0:0:0:0:
145,92,21917,1,8,0:0:0:0:
185,80,21996,1,0,3:0:0:0:
226,82,22074,1,0,3:0:0:0:
263,99,22153,1,0,3:0:0:0:
291,130,22231,2,0,B|306:174|306:174|294:245,1,104.500003189087,8|0,0:0|0:0,0:0:0:0:
371,363,22545,6,0,B|447:367|447:367|516:329|509:252,1,190,6|8,0:0|0:0,0:0:0:0:
503,148,23017,1,0,0:0:0:0:
403,269,23174,1,2,0:0:0:0:
388,103,23331,1,2,0:0:0:0:
296,231,23488,2,0,P|289:282|313:340,1,95,8|0,0:0|0:0,0:0:0:0:
388,103,23802,6,0,L|252:93,1,95,2|0,0:0|0:0,0:0:0:0:
132,81,24116,1,8,0:0:0:0:
171,208,24273,2,0,B|184:245|184:245|177:309,1,95,2|0,0:0|0:0,0:0:0:0:
58,358,24587,2,0,B|45:321|45:321|52:257,1,95,2|8,0:0|0:0,0:0:0:0:
138,371,24901,1,0,0:0:0:0:
248,165,25058,6,0,P|167:121|87:185,2,190,2|8|2,0:0|0:0|0:0,0:0:0:0:
316,279,25844,1,2,0:0:0:0:
396,139,26001,2,0,B|400:89|400:89|386:32,1,95,8|0,0:0|0:0,0:0:0:0:
316,279,26315,6,0,B|312:329|312:329|326:386,1,95,2|0,0:0|0:0,0:0:0:0:
462,256,26629,1,8,0:0:0:0:
314,189,26786,2,0,P|263:208|234:246,1,95,0|2,0:0|0:0,0:0:0:0:
65,183,27100,2,0,P|116:164|145:126,1,95,0|8,0:0|0:0,0:0:0:0:
51,76,27414,1,0,0:0:0:0:
23,283,27571,6,0,B|43:344|43:344|111:371|173:321,1,190,6|8,0:0|0:0,0:0:0:0:
260,254,28043,1,0,0:0:0:0:
142,134,28200,2,0,B|128:88|128:88|139:36,1,95,2|2,0:0|0:0,0:0:0:0:
260,254,28514,2,0,B|274:300|274:300|263:352,1,95,8|0,0:0|0:0,0:0:0:0:
185,213,28828,6,0,P|253:169|343:237,2,190,2|8|2,0:0|0:0|0:0,0:0:0:0:
264,345,29613,1,2,0:0:0:0:
426,267,29770,2,0,P|438:218|423:168,1,95,8|0,0:0|0:0,0:0:0:0:
248,86,30085,6,0,B|190:83|190:83|121:115|121:115|48:109,1,190,2|8,0:0|0:0,0:0:0:0:
103,4,30556,1,0,0:0:0:0:
88,185,30713,2,0,P|38:183|1:154,1,95,2|2,0:0|0:0,0:0:0:0:
248,86,31027,2,0,P|294:85|333:112,1,95,8|0,0:0|0:0,0:0:0:0:
330,303,31341,5,2,0:0:0:0:
271,163,31498,1,0,0:0:0:0:
413,288,31655,2,0,P|406:340|370:378,1,95,8|0,0:0|0:0,0:0:0:0:
190,358,31969,1,8,0:0:0:0:
153,348,32048,1,8,0:0:0:0:
127,319,32126,1,8,0:0:0:0:
109,285,32205,1,8,0:0:0:0:
101,247,32284,2,0,B|94:189|94:189|117:144,1,95,8|0,0:0|0:0,0:0:0:0:
285,81,32598,6,0,B|335:64|381:95|381:95|424:125|493:98,1,190,6|8,0:0|0:0,0:0:0:0:
320,186,33069,1,0,0:0:0:0:
212,93,33226,2,0,P|219:47|265:9,1,95,2|2,0:0|0:0,0:0:0:0:
320,186,33540,2,0,P|312:232|267:270,1,95,8|0,0:0|0:0,0:0:0:0:
100,236,33854,6,0,L|94:135,1,95,2|0,0:0|0:0,0:0:0:0:
26,308,34168,1,8,0:0:0:0:
175,189,34325,2,0,P|188:142|165:81,1,95,0|2,3:0|0:0,0:0:0:0:
15,93,34640,2,0,P|0:139|23:200,1,95,0|8,0:0|0:0,0:0:0:0:
101,316,34954,1,0,0:0:0:0:
278,173,35111,6,0,B|336:133|419:168|419:168|383:208,1,190,2|8,0:0|0:0,0:0:0:0:
279,265,35582,1,0,0:0:0:0:
264,94,35739,2,0,P|312:77|369:79,1,95,2|2,0:0|0:0,0:0:0:0:
279,265,36053,2,0,P|231:282|174:280,1,95,8|0,0:0|0:0,0:0:0:0:
45,142,36367,6,0,L|54:25,1,95,2|0,0:0|0:0,0:0:0:0:
218,88,36681,1,8,0:0:0:0:
108,206,36838,2,0,P|70:231|2:222,1,95,2|0,0:0|0:0,0:0:0:0:
218,88,37153,2,0,P|263:85|317:127,1,95,2|8,0:0|0:0,0:0:0:0:
365,228,37467,1,0,0:0:0:0:
460,52,37624,6,0,B|505:101|505:101|494:231,1,190,6|8,0:0|0:0,0:0:0:0:
480,356,38095,1,0,0:0:0:0:
365,228,38252,2,0,P|317:223|264:222,1,95,2|2,0:0|0:0,0:0:0:0:
127,331,38566,2,0,P|174:335|228:337,1,95,8|0,0:0|0:0,0:0:0:0:
401,348,38880,5,2,0:0:0:0:
365,228,39037,1,2,0:0:0:0:
221,337,39195,2,0,P|173:335|126:330,1,95,8|0,0:0|0:0,0:0:0:0:
58,184,39509,1,2,0:0:0:0:
13,309,39666,1,0,0:0:0:0:
168,217,39823,2,0,P|172:168|150:114,1,95,8|0,0:0|0:0,0:0:0:0:
127,331,40137,6,0,P|214:328|288:241,2,190,2|8|2,0:0|0:0|0:0,0:0:0:0:
58,184,40922,1,2,0:0:0:0:
59,374,41079,1,8,0:0:0:0:
168,217,41236,1,0,0:0:0:0:
307,359,41393,6,0,L|424:353,1,95,2|0,0:0|0:0,0:0:0:0:
483,172,41708,2,0,L|366:166,1,95,8|0,0:0|0:0,0:0:0:0:
190,138,42022,2,0,P|144:171|134:303,1,190,2|8,0:0|0:0,0:0:0:0:
229,245,42493,1,0,0:0:0:0:
230,36,42650,6,0,P|165:30|106:69,1,104.500003189087,6|0,0:0|0:0,0:0:0:0:
19,223,42964,1,8,0:0:0:0:
190,138,43121,2,0,B|246:145|246:145|305:120,1,104.500003189087,2|8,0:0|0:0,0:0:0:0:
437,205,43435,2,0,B|381:198|381:198|322:223,1,104.500003189087,2|8,0:0|0:0,0:0:0:0:
410,355,43749,1,0,0:0:0:0:
509,171,43907,6,0,P|468:131|418:126,1,104.500003189087,8|2,0:0|0:0,0:0:0:0:
290,126,44221,1,8,0:0:0:0:
407,7,44378,1,2,0:0:0:0:
207,69,44535,2,0,P|191:112|202:174,1,104.500003189087,8|2,0:0|0:0,0:0:0:0:
329,316,44849,2,0,P|345:273|334:211,1,104.500003189087,8|2,0:0|0:0,0:0:0:0:
100,100,45163,5,6,0:0:0:0:
236,260,45320,1,2,0:0:0:0:
236,260,45477,1,2,0:0:0:0:
313,10,45634,5,6,0:0:0:0:
199,168,45791,1,2,0:0:0:0:
199,168,45948,1,2,0:0:0:0:
453,108,46106,5,6,0:0:0:0:
256,88,46263,1,0,0:0:0:0:
390,312,46420,5,6,0:0:0:0:
148,272,46577,1,2,0:0:0:0:
395,189,46734,1,6,0:0:0:0:
219,382,46891,1,2,0:0:0:0:
379,309,47048,5,6,0:0:0:0:
162,273,47205,1,2,0:0:0:0:
384,199,47362,1,2,0:0:0:0:
227,373,47519,1,2,0:0:0:0:
250,139,47676,6,0,P|278:95|383:53,1,152,6|0,0:0|0:0,0:0:0:0:
476,79,48147,1,2,0:0:0:0:
384,199,48304,2,0,B|371:251|371:251|389:293|389:293|375:351,1,152,8|0,0:0|0:0,0:0:0:0:
266,373,48776,1,0,0:0:0:0:
172,273,48933,6,0,L|71:278,1,76,2|8,0:0|0:0,0:0:0:0:
65,143,49247,2,0,L|166:138,1,76,2|0,0:0|0:0,0:0:0:0:
271,133,49561,1,8,0:0:0:0:
164,61,49718,1,0,0:0:0:0:
209,183,49875,1,0,0:0:0:0:
245,59,50032,1,0,0:0:0:0:
250,54,50111,1,0,0:0:0:0:
256,49,50189,6,0,L|363:40,1,76,6|0,0:0|0:0,0:0:0:0:
459,150,50503,1,8,0:0:0:0:
459,157,50582,1,8,0:0:0:0:
459,164,50660,1,8,0:0:0:0:
459,171,50739,1,8,0:0:0:0:
459,178,50818,2,0,P|432:209|384:226,1,76,6|0,0:0|0:0,0:0:0:0:
235,248,51132,1,8,0:0:0:0:
233,255,51210,1,8,0:0:0:0:
231,262,51289,1,8,0:0:0:0:
229,269,51367,1,8,0:0:0:0:
227,276,51446,6,0,L|124:270,1,76,6|0,0:0|0:0,0:0:0:0:
26,159,51760,1,8,0:0:0:0:
24,151,51838,1,8,0:0:0:0:
23,143,51917,1,8,0:0:0:0:
24,135,51996,1,8,0:0:0:0:
29,129,52074,2,0,L|124:126,1,76,6|0,0:0|0:0,0:0:0:0:
202,30,52388,2,0,L|107:27,1,76,8|2,0:0|0:0,0:0:0:0:
209,179,52702,6,0,L|381:174,1,152,6|0,0:0|0:0,0:0:0:0:
474,175,53174,1,0,0:0:0:0:
479,319,53331,2,0,P|422:355|331:342,1,152,8|0,0:0|0:0,0:0:0:0:
257,269,53802,1,0,0:0:0:0:
360,174,53959,6,0,P|366:134|359:95,1,76,2|8,0:0|0:0,0:0:0:0:
258,46,54273,2,0,P|252:86|259:125,1,76,2|0,0:0|0:0,0:0:0:0:
329,245,54587,1,8,0:0:0:0:
456,177,54744,2,0,P|460:109|428:30,1,152,2|2,0:0|0:0,0:0:0:0:
346,26,55137,1,2,0:0:0:0:
346,26,55215,6,0,B|271:44|271:44|198:27,1,152,6|0,0:0|0:0,0:0:0:0:
89,62,55687,1,0,0:0:0:0:
173,169,55844,2,0,P|189:202|185:264,1,76,8|0,0:0|0:0,0:0:0:0:
311,305,56158,2,0,P|295:272|299:210,1,76,8|0,0:0|0:0,0:0:0:0:
320,90,56472,5,2,0:0:0:0:
386,196,56629,1,0,0:0:0:0:
412,50,56786,1,2,0:0:0:0:
477,155,56943,1,2,0:0:0:0:
304,82,57100,5,2,0:0:0:0:
383,210,57257,1,0,0:0:0:0:
415,35,57414,2,0,P|461:31|525:31,1,76,8|0,0:0|0:0,0:0:0:0:
287,72,57729,6,0,P|206:77|101:81,1,152,6|0,0:0|0:0,0:0:0:0:
37,138,58200,1,0,0:0:0:0:
131,235,58357,2,0,P|144:295|85:381,1,152,8|0,0:0|0:0,0:0:0:0:
35,285,58828,1,0,0:0:0:0:
106,162,58985,6,0,P|137:158|188:184,1,76,2|8,0:0|0:0,0:0:0:0:
249,263,59299,2,0,L|356:258,1,76,2|0,0:0|0:0,0:0:0:0:
283,113,59613,1,8,0:0:0:0:
391,196,59770,2,0,P|412:230|412:284,1,76
281,364,60085,1,8,0:0:0:0:
281,364,60163,1,0,0:0:0:0:
281,364,60242,6,0,B|239:369|239:369|184:362,1,76,6|0,0:0|0:0,0:0:0:0:
59,283,60556,1,8,0:0:0:0:
51,269,60634,1,8,0:0:0:0:
45,254,60713,1,8,0:0:0:0:
43,238,60791,1,8,0:0:0:0:
43,222,60870,2,0,B|82:211|82:211|136:215,1,76,6|0,0:0|0:0,0:0:0:0:
221,113,61184,2,0,B|182:124|182:124|128:120,1,76,0|0,3:0|0:0,0:0:0:0:
284,24,61498,6,0,P|312:51|327:108,1,76,6|0,0:0|0:0,0:0:0:0:
350,250,61812,1,8,0:0:0:0:
358,262,61891,1,8,0:0:0:0:
367,273,61969,1,8,0:0:0:0:
379,281,62048,1,8,0:0:0:0:
392,288,62126,2,0,L|485:284,1,76,2|0,0:0|0:0,0:0:0:0:
363,375,62441,2,0,L|270:371,1,76,2|0,0:0|0:0,0:0:0:0:
118,342,62755,6,0,P|110:298|118:255,1,85.4999973907472,6|0,0:0|0:0,0:0:0:0:
186,107,63069,1,2,0:0:0:0:
34,134,63226,1,2,0:0:0:0:
178,13,63383,1,8,0:0:0:0:
16,42,63540,1,8,0:0:0:0:
220,198,63697,1,8,0:0:0:0:
42,230,63854,1,8,0:0:0:0:
282,120,64011,6,0,P|319:185|277:280,1,170.999994781494,6|8,0:0|0:0,0:0:0:0:
185,102,64482,2,0,P|203:60|241:29,1,85.4999973907472,6|0,0:0|0:0,0:0:0:0:
442,108,64797,2,0,B|391:141|391:141|263:116,1,170.999994781494,6|8,0:0|0:0,0:0:0:0:
40,74,65268,5,6,0:0:0:0:
89,237,65425,1,2,0:0:0:0:
89,237,65582,1,2,0:0:0:0:
232,33,65739,2,0,B|274:82|274:82|258:224,1,190,6|0,0:0|0:0,0:0:0:0:
59,317,66210,2,0,P|21:288|5:219,1,95,6|0,0:0|0:0,0:0:0:0:
184,111,66524,6,0,B|227:99|227:99|262:123|304:129|304:129|319:115|358:107,1,170.999994781494,6|0,0:0|0:0,0:0:0:0:
401,318,67310,5,2,0:0:0:0:
270,261,67467,2,0,L|188:271,1,71.2500027179719,8|0,0:0|0:0,0:0:0:0:
23,218,67781,6,0,P|14:166|41:106,1,109.250002083778,6|0,0:0|0:0,0:0:0:0:
226,12,68095,1,8,0:0:0:0:
109,174,68252,1,2,0:0:0:0:
317,108,68409,1,8,0:0:0:0:
200,270,68566,1,2,0:0:0:0:
407,207,68723,1,8,0:0:0:0:
241,87,68880,6,0,L|116:95,1,109.250002083778,2|8,0:0|0:0,0:0:0:0:
200,270,69195,1,2,0:0:0:0:
337,114,69352,2,0,P|337:62|299:3,1,109.250002083778,8|2,0:0|0:0,0:0:0:0:
102,4,69666,1,8,0:0:0:0:
241,87,69823,1,2,0:0:0:0:
34,103,69980,1,8,0:0:0:0:
173,186,70137,1,2,0:0:0:0:
310,13,70294,6,0,L|451:9,1,109.250002083778,6|0,0:0|0:0,0:0:0:0:
354,208,70608,1,8,0:0:0:0:
499,159,70765,1,2,0:0:0:0:
272,120,70922,1,8,0:0:0:0:
351,335,71079,1,2,0:0:0:0:
499,159,71236,1,8,0:0:0:0:
261,240,71393,6,0,B|206:257|206:257|136:243,1,109.250002083778,6|0,0:0|0:0,0:0:0:0:
86,51,71708,1,8,0:0:0:0:
9,209,71865,1,2,0:0:0:0:
233,89,72022,1,8,0:0:0:0:
156,247,72179,1,2,0:0:0:0:
140,282,72257,1,0,0:0:0:0:
140,319,72336,1,2,0:0:0:0:
155,354,72414,1,0,0:0:0:0:
185,375,72493,2,0,L|297:367,1,109.250002083778,8|0,0:0|0:0,0:0:0:0:
441,175,72807,6,0,L|329:167,1,109.250002083778,6|0,0:0|0:0,0:0:0:0:
104,142,73121,1,8,0:0:0:0:
223,14,73278,1,2,0:0:0:0:
261,240,73435,1,8,0:0:0:0:
164,78,73592,1,2,0:0:0:0:
332,167,73749,1,8,0:0:0:0:
158,226,73907,6,0,P|100:242|41:219,1,109.250002083778,2|8,0:0|0:0,0:0:0:0:
278,82,74221,2,0,P|336:66|395:89,1,109.250002083778,2|8,0:0|0:0,0:0:0:0:
261,240,74535,1,2,0:0:0:0:
208,8,74692,1,8,0:0:0:0:
332,167,74849,1,2,0:0:0:0:
96,78,75006,1,8,0:0:0:0:
278,82,75163,1,2,0:0:0:0:
50,159,75320,6,0,P|11:117|6:50,1,109.250002083778,6|0,0:0|0:0,0:0:0:0:
208,8,75634,1,8,0:0:0:0:
127,222,75791,2,0,P|82:255|12:252,1,109.250002083778,6|0,0:0|0:0,0:0:0:0:
193,96,76106,1,8,0:0:0:0:
187,325,76263,1,8,0:0:0:0:
330,106,76420,6,0,B|407:64|487:105|487:105|426:158,1,218.500004167557,6|2,0:0|0:0,0:0:0:0:
303,320,76891,1,8,0:0:0:0:
504,271,77048,1,2,0:0:0:0:
287,194,77205,1,8,0:0:0:0:
243,199,77284,1,8,0:0:0:0:
206,223,77362,1,8,0:0:0:0:
184,261,77441,1,8,0:0:0:0:
174,303,77519,2,0,B|117:313|117:313|52:298,1,109.250002083778,8|2,0:0|0:0,0:0:0:0:
39,58,77833,6,0,P|93:36|225:119,1,218.500004167557,6|8,0:0|0:0,0:0:0:0:
262,268,78304,1,0,0:0:0:0:
362,138,78462,2,0,L|475:133,1,109.250002083778,0|2,0:0|0:0,0:0:0:0:
262,268,78776,2,0,L|149:263,1,109.250002083778,8|0,0:0|0:0,0:0:0:0:
295,97,79090,5,2,0:0:0:0:
338,254,79247,1,0,0:0:0:0:
200,127,79404,2,0,P|201:64|230:20,1,109.250002083778,8|0,0:0|0:0,0:0:0:0:
338,254,79718,2,0,P|337:317|308:361,1,109.250002083778,0|2,0:0|0:0,0:0:0:0:
96,375,80032,1,8,0:0:0:0:
243,284,80189,1,0,0:0:0:0:
15,154,80346,6,0,L|19:36,1,109.250002083778,6|0,0:0|0:0,0:0:0:0:
152,263,80660,1,8,0:0:0:0:
295,97,80818,2,0,L|421:88,1,109.250002083778,6|0,0:0|0:0,0:0:0:0:
152,263,81132,2,0,L|26:254,1,109.250002083778,6|0,0:0|0:0,0:0:0:0:
246,192,81446,6,0,B|288:264|247:328|247:328|281:286|335:295,1,218.500004167557,6|0,0:0|0:0,0:0:0:0:
512,341,81917,1,8,0:0:0:0:
316,381,82074,1,0,0:0:0:0:
439,228,82231,1,8,0:0:0:0:
455,187,82310,1,8,0:0:0:0:
458,143,82388,1,8,0:0:0:0:
440,103,82467,1,8,0:0:0:0:
404,76,82545,2,0,L|254:73,1,109.250002083778,8|0,0:0|0:0,0:0:0:0:
109,71,82859,5,8,0:0:0:0:
313,211,83069,1,8,0:0:0:0:
90,319,83278,1,8,0:0:0:0:
144,59,83488,5,8,0:0:0:0:
305,247,83698,1,8,0:0:0:0:
62,294,83907,1,8,0:0:0:0:
181,57,84116,6,0,P|240:47|339:102,1,161.500003080368,8|0,0:0|0:0,0:0:0:0:
478,358,84901,1,2,0:0:0:0:
312,259,85058,2,0,B|273:268|273:268|217:258,1,80.750001540184,8|0,0:0|0:0,0:0:0:0:
139,84,85373,5,8,0:0:0:0:
170,329,85582,1,8,0:0:0:0:
368,180,85791,1,8,0:0:0:0:
112,110,86001,5,8,0:0:0:0:
206,339,86210,1,8,0:0:0:0:
358,144,86419,1,8,0:0:0:0:
93,142,86629,6,0,B|60:190|60:190|76:316,1,161.500003080368,8|0,0:0|0:0,0:0:0:0:
147,369,87100,1,0,0:0:0:0:
231,261,87257,2,0,L|324:264,1,80.750001540184,8|0,0:0|0:0,0:0:0:0:
173,144,87571,2,0,L|80:141,1,80.750001540184,8|0,0:0|0:0,0:0:0:0:
323,71,87886,6,0,P|370:80|415:122,1,95,8|0,0:0|0:0,0:0:0:0:
404,260,88200,1,2,0:0:0:0:
228,99,88357,2,0,P|227:44|255:-2,1,95,8|0,0:0|0:0,0:0:0:0:
406,108,88671,1,2,0:0:0:0:
199,220,88828,2,0,P|155:201|118:151,1,95,8|0,0:0|0:0,0:0:0:0:
309,185,89142,6,0,P|299:276|213:334,1,190,8|0,0:0|0:0,0:0:0:0:
58,336,89613,1,0,0:0:0:0:
143,87,89770,1,2,0:0:0:0:
2,203,89927,1,2,0:0:0:0:
199,220,90085,1,2,0:0:0:0:
58,336,90242,1,2,0:0:0:0:
227,99,90399,6,0,P|261:75|343:73,1,104.500003189087,6|0,0:0|0:0,0:0:0:0:
404,260,90713,1,8,0:0:0:0:
198,221,90870,2,0,P|128:174|125:30,1,209.000006378174,6|0,0:0|0:0,0:0:0:0:
227,99,91341,1,8,0:0:0:0:
61,226,91498,1,0,0:0:0:0:
259,342,91655,6,0,P|357:336|490:330,2,209.000006378174,6|8|8,0:0|0:0|0:0,0:0:0:0:
102,351,92441,1,2,0:0:0:0:
11,151,92598,2,0,B|4:88|4:88|19:40,1,104.500003189087,8|0,0:0|0:0,0:0:0:0:
188,17,92912,5,8,0:0:0:0:
188,17,93069,2,0,P|199:57|192:111,1,76
138,136,93383,2,0,P|167:106|217:85,1,76
266,120,93697,2,0,P|225:109|182:76,1,76
347,70,94011,6,0,P|361:111|354:155,1,76
290,234,94325,2,0,L|195:231,1,76,2|0,0:0|0:0,0:0:0:0:
100,223,94640,1,2,0:0:0:0:
211,326,94797,2,0,L|306:329,1,76,2|0,0:0|0:0,0:0:0:0:
447,241,95111,2,0,L|352:238,1,76,8|0,0:0|0:0,0:0:0:0:
237,114,95425,5,8,0:0:0:0:
54,207,95582,2,0,B|46:245|46:245|54:296,1,76,8|0,0:0|0:0,0:0:0:0:
235,188,95896,2,0,B|243:150|243:150|235:99,1,76,8|0,0:0|0:0,0:0:0:0:
54,20,96210,2,0,B|46:58|46:58|54:109,1,76,8|0,0:0|0:0,0:0:0:0:
155,271,96524,6,0,L|161:378,1,76,8|0,0:0|0:0,0:0:0:0:
362,374,96838,2,0,L|368:267,1,76,8|0,0:0|0:0,0:0:0:0:
390,93,97153,1,8,0:0:0:0:
198,184,97310,6,0,B|155:165|116:183|116:183|78:161|34:182|34:182|84:138|67:100|67:100|51:66|71:16,1,341.999989562989,6|0,0:0|0:0,0:0:0:0:
