osu file format v14

[General]
AudioFilename: audio.mp3
AudioLeadIn: 0
PreviewTime: 10530
Countdown: 0
SampleSet: Soft
StackLeniency: 0.7
Mode: 0
LetterboxInBreaks: 0
WidescreenStoryboard: 0

[Editor]
Bookmarks: 873,1030,1187,5900,6214,8727,10769,11240,13125,13282,13439,13596,15638,15795,15952,16109,18151,18308,18465,18622,19879,21135,22549,31345,31659,31973,32601,41397,41554,41711,41868,42025,42653,44538,44695,44852,45009,45167,46423,47208,47680,50193,50821,51449,52078,52706,55219,56475,57732,60245,60873,61502,62130,62758,64015,65271,66528,67784,71397,72811,76423,77208,77837,81449,82863,84119,85376,86633,87889,89774,89931,90088,90245,91659,92915,95428,97313,98256
DistanceSpacing: 2.3
BeatDivisor: 3
GridSize: 4
TimelineZoom: 1.9

[Metadata]
Title:Kimeta yo Hand in Hand
TitleUnicode:決めたよHand in Hand
Artist:Aqours
ArtistUnicode:Aqours
Creator:-Nitrous
Version:Sotarks' Insane
Source:Lovelive! Sunshine!!
Tags:ラブライブ!サンシャイン!! school idol project Takami Chika 高海千歌 Sakurauchi Riko 桜内梨子 Watanabe You 渡辺 曜 Inami Anju 伊波杏樹 Aida Rikako 逢田梨香子 Saitou Shuka 斉藤朱夏 Akitoshi Corinn Sotarks Kalibe
BeatmapID:1105886
BeatmapSetID:507355

[Difficulty]
HPDrainRate:6
CircleSize:3.2
OverallDifficulty:8.2
ApproachRate:9
SliderMultiplier:1.82
SliderTickRate:1

[Events]
//Background and Video events
Video,994,"Kimeta yo Hand in Hand.avi"
0,0,"BGSotarks.jpg",0,0
//Break Periods
//Storyboard Layer 0 (Background)
//Storyboard Layer 1 (Fail)
//Storyboard Layer 2 (Pass)
//Storyboard Layer 3 (Foreground)
//Storyboard Sound Samples

[TimingPoints]
-72,314.13612565445,4,2,22,42,1,0
870,-121.951219512195,4,2,22,42,0,0
948,-121.951219512195,4,2,22,5,0,0
1027,-121.951219512195,4,2,22,42,0,0
1106,-121.951219512195,4,2,22,5,0,0
1184,-108.695652173913,4,2,0,52,0,0
5896,-108.695652173913,4,2,2,52,0,0
6210,-98.0392156862745,4,2,22,52,0,0
11236,-89.2857142857143,4,2,22,62,0,0
22545,-98.0392156862745,4,2,22,52,0,0
47676,-121.951219512195,4,3,22,52,0,0
55844,-121.951219512195,4,2,22,52,0,0
56472,-121.951219512195,4,2,22,32,0,0
56629,-121.951219512195,4,2,22,42,0,0
56786,-121.951219512195,4,2,22,52,0,0
56943,-121.951219512195,4,2,22,62,0,0
57100,-98.0392156862744,4,2,22,72,0,0
57729,-121.951219512195,4,3,22,52,0,0
62755,-121.951219512195,4,2,22,62,0,0
63069,-121.951219512195,4,2,22,32,0,0
63226,-121.951219512195,4,2,22,42,0,0
63383,-121.951219512195,4,2,22,52,0,0
63540,-121.951219512195,4,2,22,62,0,0
63697,-121.951219512195,4,2,22,72,0,0
64011,-98.0392156862744,4,2,22,72,0,0
67702,-98.0392156862744,4,3,22,5,0,0
67781,-89.2857142857143,4,3,22,72,0,0
77833,-108.695652173913,4,2,22,62,0,0
82964,-108.695652173913,4,2,22,5,0,0
83069,-108.695652173913,4,2,22,62,0,0
83174,-108.695652173913,4,2,22,5,0,0
83278,-108.695652173913,4,2,22,62,0,0
83383,-108.695652173913,4,2,22,5,0,0
83488,-108.695652173913,4,2,22,62,0,0
83592,-108.695652173913,4,2,22,5,0,0
83697,-108.695652173913,4,2,22,62,0,0
83802,-108.695652173913,4,2,22,5,0,0
83907,-108.695652173913,4,2,22,62,0,0
84011,-108.695652173913,4,2,22,5,0,0
84116,-108.695652173913,4,2,22,62,0,0
85477,-108.695652173913,4,2,22,5,0,0
85582,-108.695652173913,4,2,22,62,0,0
85687,-108.695652173913,4,2,22,5,0,0
85791,-108.695652173913,4,2,22,62,0,0
85896,-108.695652173913,4,2,22,5,0,0
86001,-108.695652173913,4,2,22,62,0,0
86106,-108.695652173913,4,2,22,5,0,0
86210,-108.695652173913,4,2,22,62,0,0
86315,-108.695652173913,4,2,22,5,0,0
86420,-108.695652173913,4,2,22,62,0,0
86524,-108.695652173913,4,2,22,5,0,0
86629,-108.695652173913,4,2,22,62,0,0
87886,-98.0392156862745,4,2,22,62,0,0
89770,-98.0392156862745,4,2,22,32,0,0
89927,-98.0392156862745,4,2,22,42,0,0
90085,-98.0392156862745,4,2,22,62,0,0
90242,-98.0392156862745,4,2,22,72,0,0
92912,-138.888888888889,4,2,22,42,0,0
95425,-98.0392156862745,4,2,22,62,0,0
98252,-98.0392156862745,4,2,22,12,0,0

[Colours]
Combo1 : 236,179,121
Combo2 : 255,245,130
Combo3 : 66,222,255
Combo4 : 255,89,89

[HitObjects]
110,161,870,6,0,P|152:153|161:152,1,37.3100005693054,2|0,0:0|0:0,0:0:0:0:
247,158,1027,2,0,P|265:161|283:165,1,37.3100005693054,2|0,0:0|0:0,0:0:0:0:
380,234,1184,6,0,P|375:182|379:139,1,83.7199971895753,2|0,0:0|0:0,0:0:0:0:
446,83,1498,1,8,0:0:0:0:
287,64,1655,2,0,P|254:46|227:-11,1,83.7199971895753,2|0,0:0|0:0,0:0:0:0:
209,135,1969,2,0,L|199:222,1,83.7199971895753,2|8,0:0|0:0,0:0:0:0:
304,319,2284,2,0,L|294:235,1,83.7199971895753,2|0,0:0|0:0,0:0:0:0:
209,135,2598,5,2,0:0:0:0:
199,218,2755,1,10,0:0:0:0:
304,319,2912,1,2,0:0:0:0:
294,236,3069,2,0,P|288:194|287:152,1,83.7199971895753,2|8,0:0|0:0,0:0:0:0:
384,18,3383,2,0,P|404:86|388:173,1,125.579995784363,10|0,0:0|0:0,0:0:0:0:
381,181,3697,5,2,0:0:0:0:
320,82,3854,1,0,0:0:0:0:
454,69,4011,1,8,0:0:0:0:
511,177,4168,2,0,P|511:232|457:334,1,167.439994379151,2|2,0:0|0:0,0:0:0:0:
380,277,4640,1,8,0:0:0:0:
263,348,4797,2,0,P|211:352|171:343,1,83.7199971895753,2|0,0:0|0:0,0:0:0:0:
120,251,5111,5,2,0:0:0:0:
220,229,5268,1,2,0:0:0:0:
105,157,5425,1,2,0:0:0:0:
5,135,5582,1,2,0:0:0:0:
171,81,5739,2,0,L|220:74,1,41.8599985947876,0|0,1:0|0:0,0:0:0:0:
306,117,5896,6,0,P|300:70|356:96,1,125.579995784363,8|0,0:0|0:0,0:0:0:0:
361,189,6210,6,0,L|351:297,1,92.8200005665283,10|0,0:0|0:0,0:0:0:0:
443,202,6524,1,8,0:0:0:0:
275,229,6681,2,0,L|166:243,1,92.8200005665283,2|8,0:0|0:0,0:0:0:0:
116,171,6996,1,2,0:0:0:0:
97,303,7153,1,8,0:0:0:0:
34,199,7310,2,0,B|28:133|28:133|45:90,1,92.8200005665283,2|8,0:0|0:0,0:0:0:0:
196,142,7624,5,2,0:0:0:0:
127,36,7781,1,8,0:0:0:0:
116,171,7938,1,0,1:0:0:0:
275,113,8095,1,8,0:0:0:0:
244,225,8252,1,0,1:0:0:0:
301,18,8409,1,8,0:0:0:0:
370,97,8566,1,0,1:0:0:0:
53,165,8723,6,0,B|116:172|116:172|182:288,2,185.640001133057,14|8|8,0:0|0:0|0:0,0:0:0:0:
215,186,9509,2,0,L|327:201,1,92.8200005665283,2|8,0:0|0:0,0:0:0:0:
428,32,9823,6,0,P|448:113|498:207,1,185.640001133057,4|2,1:0|0:0,0:0:0:0:
362,121,10294,1,8,0:0:0:0:
346,282,10451,2,0,P|326:224|298:190,1,92.8200005665283,0|0,1:0|0:0,0:0:0:0:
95,67,10765,5,8,0:0:0:0:
50,74,10844,1,8,0:0:0:0:
23,110,10922,1,8,0:0:0:0:
31,155,11001,1,8,0:0:0:0:
68,181,11079,1,8,0:0:0:0:
112,173,11158,1,8,0:0:0:0:
138,136,11236,6,0,P|217:122|308:215,2,203.840002488281,12|8|8,0:0|0:0|0:0,0:0:0:0:
247,41,12022,1,0,0:0:0:0:
227,223,12179,1,8,0:0:0:0:
337,123,12336,2,0,P|266:124|223:132,1,101.920001244141,0|8,1:0|0:0,0:0:0:0:
422,182,12650,1,0,1:0:0:0:
467,31,12807,2,0,P|490:95|496:151,1,101.920001244141,8|0,0:0|1:0,0:0:0:0:
340,31,13121,5,12,0:0:0:0:
312,233,13278,1,0,1:0:0:0:
414,104,13435,1,8,0:0:0:0:
249,129,13592,1,0,1:0:0:0:
458,302,13749,6,0,B|361:266|356:353|237:296,1,203.840002488281,12|8,0:0|0:0,0:0:0:0:
364,166,14221,1,0,1:0:0:0:
193,241,14378,2,0,P|255:221|305:227,1,101.920001244141,8|0,0:0|1:0,0:0:0:0:
441,297,14692,1,8,0:0:0:0:
347,118,14849,2,0,P|370:191|379:242,1,101.920001244141,0|8,1:0|0:0,0:0:0:0:
252,314,15163,1,0,1:0:0:0:
240,128,15320,1,8,0:0:0:0:
290,223,15477,1,0,1:0:0:0:
134,79,15634,5,12,0:0:0:0:
335,94,15791,1,0,1:0:0:0:
193,217,15948,1,8,0:0:0:0:
263,35,16106,1,0,1:0:0:0:
310,299,16263,6,0,B|257:281|257:281|209:308|209:308|147:291|105:307,1,203.840002488281,12|8,0:0|0:0,0:0:0:0:
184,110,16734,2,0,L|200:230,1,101.920001244141,0|8,1:0|0:0,0:0:0:0:
251,50,17048,1,0,1:0:0:0:
322,247,17205,1,8,0:0:0:0:
113,134,17362,6,0,B|187:94|217:172|321:118,1,203.840002488281,0|0,1:0|1:0,0:0:0:0:
475,39,17833,2,0,P|420:33|351:42,1,101.920001244141,8|0,0:0|1:0,0:0:0:0:
307,224,18147,5,12,0:0:0:0:
255,48,18304,1,0,1:0:0:0:
425,114,18462,1,8,0:0:0:0:
224,164,18619,1,0,1:0:0:0:
429,210,18776,6,0,L|445:322,1,101.920001244141,12|0,0:0|0:0,0:0:0:0:
319,142,19090,1,8,0:0:0:0:
197,271,19247,2,0,L|211:170,1,101.920001244141,0|8,1:0|0:0,0:0:0:0:
304,306,19561,1,0,1:0:0:0:
319,128,19718,1,8,0:0:0:0:
197,271,19875,6,0,L|417:261,1,203.840002488281,4|8,1:0|0:0,0:0:0:0:
224,176,20346,2,0,L|103:198,1,101.920001244141,8|8,0:0|3:0,0:0:0:0:
347,342,20660,2,0,L|447:360,1,101.920001244141,8|0,3:0|1:0,0:0:0:0:
328,180,20975,1,0,1:0:0:0:
243,374,21132,6,0,P|223:322|227:164,1,203.840002488281,4|0,1:0|1:0,0:0:0:0:
419,136,21603,2,0,P|419:197|402:256,1,101.920001244141,8|0,0:0|1:0,0:0:0:0:
212,140,21917,1,8,0:0:0:0:
227,106,21996,1,8,0:0:0:0:
264,95,22074,1,8,0:0:0:0:
302,108,22153,1,8,0:0:0:0:
312,143,22231,2,0,P|317:177|317:206,3,50.9600006220703,8|8|8|8,0:0|3:0|3:0|3:0,0:0:0:0:
186,256,22545,6,0,B|230:243|272:266|272:266|324:291|377:263,2,185.640001133057,4|8|0,0:0|0:0|1:0,0:0:0:0:
324,184,23331,1,0,1:0:0:0:
219,339,23488,2,0,P|162:347|119:342,1,92.8200005665283,8|0,0:0|0:0,0:0:0:0:
125,148,23802,6,0,P|139:211|141:254,1,92.8200005665283,0|0,1:0|1:0,0:0:0:0:
87,319,24116,1,8,0:0:0:0:
238,252,24273,2,0,P|293:252|339:267,1,92.8200005665283,0|0,1:0|0:0,0:0:0:0:
461,166,24587,2,0,P|406:166|360:181,1,92.8200005665283,0|8,1:0|0:0,0:0:0:0:
271,335,24901,1,0,0:0:0:0:
286,123,25058,6,0,P|288:194|307:245,1,92.8200005665283,0|0,1:0|0:0,0:0:0:0:
435,372,25373,2,0,P|360:320|270:334,1,185.640001133057,8|0,0:0|1:0,0:0:0:0:
176,379,25844,1,0,1:0:0:0:
108,211,26001,6,0,P|119:165|142:113,1,92.8200005665283,8|0,0:0|0:0,0:0:0:0:
359,142,26315,2,0,P|376:184|387:229,1,92.8200005665283,0|0,1:0|1:0,0:0:0:0:
242,134,26629,1,8,0:0:0:0:
243,245,26786,2,0,L|237:132,1,92.8200005665283,0|0,1:0|0:0,0:0:0:0:
150,292,27100,2,0,L|156:179,1,92.8200005665283,0|8,1:0|0:0,0:0:0:0:
246,349,27414,1,0,0:0:0:0:
73,212,27571,6,0,P|145:199|258:263,2,185.640001133057,4|8|0,1:0|0:0|1:0,0:0:0:0:
160,110,28357,1,0,1:0:0:0:
161,286,28514,2,0,P|176:340|200:379,1,92.8200005665283,8|0,0:0|0:0,0:0:0:0:
384,290,28828,5,0,1:0:0:0:
254,269,28985,1,0,1:0:0:0:
382,176,29142,2,0,L|398:287,1,92.8200005665283,8|0,0:0|1:0,0:0:0:0:
233,285,29456,2,0,L|246:193,1,92.8200005665283,0|0,0:0|1:0,0:0:0:0:
102,102,29770,2,0,L|115:193,1,92.8200005665283,8|0,0:0|0:0,0:0:0:0:
472,199,30085,6,0,B|485:143|485:143|457:75|372:56,1,185.640001133057,0|8,1:0|0:0,0:0:0:0:
282,160,30556,1,0,0:0:0:0:
385,145,30713,2,0,L|392:250,1,92.8200005665283,0|0,1:0|1:0,0:0:0:0:
303,71,31027,1,8,0:0:0:0:
276,174,31184,1,0,0:0:0:0:
477,124,31341,6,0,P|431:122|387:134,1,92.8200005665283,2|0,1:0|1:0,0:0:0:0:
180,179,31655,2,0,P|226:176|270:188,1,92.8200005665283,8|0,0:0|0:0,0:0:0:0:
379,291,31969,5,8,0:0:0:0:
380,249,32048,1,8,0:0:0:0:
381,207,32126,1,8,0:0:0:0:
382,165,32205,1,8,0:0:0:0:
383,123,32284,1,8,0:0:0:0:
268,41,32441,1,8,3:0:0:0:
461,176,32598,6,0,P|360:175|275:249,2,185.640001133057,4|8|0,1:0|0:0|1:0,0:0:0:0:
392,260,33383,1,0,1:0:0:0:
246,140,33540,2,0,P|209:194|194:246,1,92.8200005665283,8|0,0:0|0:0,0:0:0:0:
399,95,33854,6,0,P|436:149|451:201,1,92.8200005665283,0|0,1:0|1:0,0:0:0:0:
303,61,34168,1,8,0:0:0:0:
310,256,34325,2,0,P|322:196|325:148,1,92.8200005665283,0|0,1:0|0:0,0:0:0:0:
206,26,34640,2,0,P|210:72|220:117,1,92.8200005665283,0|8,1:0|0:0,0:0:0:0:
415,216,34954,1,0,1:0:0:0:
247,194,35111,6,0,B|324:165|324:165|452:237,1,185.640001133057,0|8,1:0|0:0,0:0:0:0:
156,259,35739,1,0,1:0:0:0:
120,169,35896,1,0,1:0:0:0:
253,101,36053,2,0,L|246:201,1,92.8200005665283,8|0,0:0|0:0,0:0:0:0:
378,306,36367,6,0,L|371:213,1,92.8200005665283,0|0,1:0|1:0,0:0:0:0:
435,98,36681,1,8,0:0:0:0:
463,222,36838,2,0,L|346:210,1,92.8200005665283,0|0,1:0|0:0,0:0:0:0:
277,113,37153,1,0,1:0:0:0:
222,295,37310,1,8,0:0:0:0:
252,201,37467,1,0,0:0:0:0:
330,331,37624,6,0,B|283:313|283:313|214:334|214:334|130:307,1,185.640001133057,4|8,1:0|0:0,0:0:0:0:
72,88,38252,1,0,1:0:0:0:
46,189,38409,1,0,1:0:0:0:
222,143,38566,2,0,L|176:42,1,92.8200005665283,8|0,0:0|0:0,0:0:0:0:
134,170,38880,5,0,1:0:0:0:
211,239,39037,1,0,1:0:0:0:
339,123,39195,2,0,L|300:207,1,92.8200005665283,8|0,0:0|1:0,0:0:0:0:
183,58,39509,2,0,L|221:142,1,92.8200005665283,0|0,0:0|1:0,0:0:0:0:
431,170,39823,2,0,L|392:254,1,92.8200005665283,8|0,0:0|0:0,0:0:0:0:
257,7,40137,6,0,L|334:180,2,185.640001133057,4|8|0,1:0|0:0|1:0,0:0:0:0:
366,43,40922,1,0,1:0:0:0:
199,96,41079,2,0,L|97:72,1,92.8200005665283,8|0,0:0|0:0,0:0:0:0:
174,1,41393,5,0,1:0:0:0:
224,189,41551,1,0,1:0:0:0:
96,69,41708,1,8,0:0:0:0:
289,97,41865,1,0,1:0:0:0:
56,162,42022,6,0,P|124:154|153:139,1,92.8200005665283,0|0,0:0|1:0,0:0:0:0:
259,14,42336,1,8,0:0:0:0:
83,64,42493,1,0,0:0:0:0:
371,115,42650,6,0,P|273:99|249:102,1,92.8200005665283,4|0,1:0|0:0,0:0:0:0:
227,243,42964,1,8,0:0:0:0:
181,56,43121,2,0,P|192:123|211:173,1,92.8200005665283,0|8,1:0|0:0,0:0:0:0:
281,90,43435,1,0,1:0:0:0:
117,201,43592,1,8,0:0:0:0:
305,186,43749,6,0,P|249:178|207:155,1,92.8200005665283,0|8,1:0|0:0,0:0:0:0:
173,39,44064,1,0,1:0:0:0:
106,216,44221,1,8,0:0:0:0:
75,114,44378,1,0,1:0:0:0:
226,167,44535,5,12,0:0:0:0:
158,10,44692,1,0,1:0:0:0:
101,232,44849,1,8,0:0:0:0:
252,64,45006,1,0,1:0:0:0:
317,271,45163,6,0,B|293:299|293:299|215:147,1,185.640001133057,4|0,1:0|0:0,0:0:0:0:
457,116,45634,2,0,P|428:195|383:114,1,185.640001133057,4|0,1:0|0:0,0:0:0:0:
509,251,46106,2,0,L|487:356,1,92.8200005665283,4|0,1:0|0:0,0:0:0:0:
289,207,46420,5,8,0:0:0:0:
480,159,46577,1,8,0:0:0:0:
289,196,46734,1,8,0:0:0:0:
480,148,46891,1,8,0:0:0:0:
290,186,47048,1,8,0:0:0:0:
385,114,47205,2,0,L|385:227,2,92.8200005665283,0|8|2,3:0|3:0|3:0,3:0:0:0:
285,302,47676,6,0,L|289:129,1,149.240002277222,4|2,0:0|0:0,0:0:0:0:
170,88,48147,1,0,0:0:0:0:
136,182,48304,2,0,L|223:165,1,74.6200011386109,8|0,0:0|0:0,0:0:0:0:
353,84,48619,2,0,L|266:67,1,74.6200011386109,2|0,0:0|0:0,0:0:0:0:
302,159,48933,5,4,0:0:0:0:
404,10,49090,1,8,0:0:0:0:
451,99,49247,2,0,L|432:196,1,74.6200011386109,2|0,0:0|0:0,0:0:0:0:
294,170,49561,2,0,L|313:267,1,74.6200011386109,8|0,0:0|0:0,0:0:0:0:
386,312,49875,1,2,0:0:0:0:
224,331,50032,1,0,0:0:0:0:
224,331,50111,1,0,0:0:0:0:
224,331,50189,6,0,P|190:296|194:176,1,149.240002277222,4|8,0:0|0:0,0:0:0:0:
169,177,50582,1,8,0:0:0:0:
135,212,50660,1,8,0:0:0:0:
102,247,50739,1,8,0:0:0:0:
71,278,50818,6,0,L|45:118,1,149.240002277222,4|4,0:0|0:0,0:0:0:0:
66,105,51210,1,4,0:0:0:0:
66,105,51289,2,0,P|89:97|116:94,1,37.3100005693054,4|4,0:0|0:0,0:0:0:0:
199,121,51446,6,0,P|252:118|323:46,1,149.240002277222,4|8,0:0|0:0,0:0:0:0:
306,40,51838,1,8,0:0:0:0:
340,75,51917,1,8,0:0:0:0:
373,110,51996,1,8,0:0:0:0:
398,138,52074,6,0,L|377:302,1,149.240002277222,4|4,0:0|0:0,0:0:0:0:
349,310,52467,1,4,0:0:0:0:
349,310,52545,2,4,P|298:315|288:313,1,37.3100005693054
213,229,52702,6,0,P|269:240|311:328,1,149.240002277222,4|0,0:0|0:0,0:0:0:0:
209,348,53174,1,0,0:0:0:0:
118,261,53331,2,0,L|105:172,1,74.6200011386109,8|0,0:0|0:0,0:0:0:0:
196,61,53645,2,0,L|185:134,1,74.6200011386109,2|0,0:0|0:0,0:0:0:0:
277,98,53959,5,4,0:0:0:0:
107,78,54116,1,8,0:0:0:0:
202,28,54273,2,0,L|191:101,1,74.6200011386109
163,256,54587,2,0,L|173:182,1,74.6200011386109,8|2,0:0|0:0,0:0:0:0:
269,154,54901,1,0,0:0:0:0:
390,234,55058,1,0,0:0:0:0:
390,234,55137,1,0,0:0:0:0:
390,234,55215,6,0,B|325:205|321:267|244:236,1,149.240002277222,4|0,0:0|0:0,0:0:0:0:
357,136,55687,1,0,0:0:0:0:
195,157,55844,2,0,P|254:151|282:156,1,74.6200011386109,8|0,0:0|0:0,0:0:0:0:
404,229,56158,2,0,P|366:231|330:225,1,74.6200011386109,8|0,0:0|0:0,0:0:0:0:
228,68,56472,5,8,0:0:0:0:
230,235,56629,1,8,0:0:0:0:
342,84,56786,1,8,0:0:0:0:
303,322,56943,1,0,0:0:0:0:
136,155,57100,2,0,L|254:151,1,92.8200005665283,8|0,0:0|1:0,0:0:0:0:
415,239,57414,2,0,L|300:234,1,92.8200005665283,8|0,0:0|0:0,0:0:0:0:
488,121,57729,6,0,L|509:285,1,149.240002277222,4|0,0:0|0:0,0:0:0:0:
418,226,58200,1,0,0:0:0:0:
338,325,58357,2,0,L|428:312,1,74.6200011386109,8|0,0:0|0:0,0:0:0:0:
313,231,58671,2,0,L|223:218,1,74.6200011386109
105,318,58985,6,0,L|179:308,1,74.6200011386109,4|8,0:0|0:0,0:0:0:0:
136,224,59299,1,0,0:0:0:0:
337,324,59456,2,0,L|264:314,1,74.6200011386109,2|8,0:0|0:0,0:0:0:0:
313,231,59770,1,2,0:0:0:0:
178,42,60085,2,0,P|181:95|181:110,1,37.3100005693054
253,158,60242,6,0,P|191:162|132:237,1,149.240002277222,4|8,0:0|0:0,0:0:0:0:
145,244,60634,1,8,0:0:0:0:
137,196,60713,1,8,0:0:0:0:
129,148,60791,1,8,0:0:0:0:
103,113,60870,6,0,B|189:90|165:139|281:103,1,149.240002277222,0|4,0:0|0:0,0:0:0:0:
277,81,61263,1,4,0:0:0:0:
277,81,61341,2,4,P|325:74|340:75,1,37.3100005693054
475,175,61498,6,0,P|418:181|416:81,1,149.240002277222,0|8,0:0|0:0,0:0:0:0:
410,121,61891,1,8,0:0:0:0:
386,163,61969,1,8,0:0:0:0:
363,206,62048,1,8,0:0:0:0:
339,241,62126,6,0,B|288:227|288:227|248:240|248:240|170:218,1,149.240002277222,0|4,0:0|0:0,0:0:0:0:
167,191,62519,1,4,0:0:0:0:
167,191,62598,2,4,L|153:133,1,37.3100005693054
196,33,62755,5,4,0:0:0:0:
202,38,63069,1,8,0:0:0:0:
345,130,63226,1,8,0:0:0:0:
153,140,63383,1,8,0:0:0:0:
309,94,63540,1,8,0:0:0:0:
108,60,63697,1,8,0:0:0:0:
279,67,63854,1,8,0:0:0:0:
73,149,64011,6,0,B|226:151|226:151|183:191,1,185.640001133057,12|0,0:0|0:0,0:0:0:0:
92,264,64482,2,0,B|68:271|68:271|147:287,1,92.8200005665283,8|0,0:0|0:0,0:0:0:0:
328,247,64797,2,0,B|384:266|384:266|226:288,1,185.640001133057,8|0,0:0|0:0,0:0:0:0:
195,80,65268,6,0,L|203:191,1,92.8200005665283,8|0,0:0|1:0,0:0:0:0:
152,263,65582,1,0,1:0:0:0:
279,22,65739,2,0,L|295:209,1,185.640001133057,8|0,0:0|1:0,0:0:0:0:
454,265,66210,2,0,L|444:142,1,92.8200005665283,8|0,0:0|1:0,0:0:0:0:
460,363,66524,5,12,0:0:0:0:
96,233,67310,6,0,P|149:233|160:238,1,46.4100002832642,0|0,3:0|3:0,3:0:0:0:
255,176,67467,6,0,P|189:180|137:244,1,139.230000849792,8|0,0:0|0:0,0:0:0:0:
321,252,67781,6,0,B|343:204|343:204|339:123,1,101.920001244141,4|0,0:0|0:0,0:0:0:0:
207,44,68095,1,8,0:0:0:0:
141,230,68252,2,0,L|128:368,1,101.920001244141,0|8,0:0|0:0,0:0:0:0:
52,267,68566,1,0,0:0:0:0:
232,205,68723,1,8,0:0:0:0:
53,145,68880,6,0,P|120:136|162:136,1,101.920001244141,0|8,0:0|0:0,0:0:0:0:
309,288,69195,2,0,P|242:297|200:297,1,101.920001244141,0|8,0:0|0:0,0:0:0:0:
362,122,69509,2,0,P|385:193|401:346,1,203.840002488281
468,167,69980,1,8,0:0:0:0:
284,214,70137,1,0,0:0:0:0:
115,83,70294,6,0,L|133:218,1,101.920001244141,8|0,0:0|0:0,0:0:0:0:
208,106,70608,1,8,0:0:0:0:
41,164,70765,2,0,L|59:299,1,101.920001244141,0|8,0:0|0:0,0:0:0:0:
134,190,71079,1,0,0:0:0:0:
52,358,71236,1,8,0:0:0:0:
252,289,71393,6,0,B|192:300|192:300|49:263,1,203.840002488281
315,207,71865,1,8,0:0:0:0:
194,208,72022,1,0,0:0:0:0:
336,304,72179,1,0,0:0:0:0:
338,263,72257,1,0,0:0:0:0:
341,222,72336,1,0,0:0:0:0:
343,181,72414,1,0,0:0:0:0:
346,141,72493,1,8,0:0:0:0:
245,58,72650,1,0,1:0:0:0:
431,191,72807,6,0,B|373:174|373:174|304:191|304:191|212:159,1,203.840002488281,12|8,0:0|0:0,0:0:0:0:
32,63,73278,2,0,P|98:47|152:50,1,101.920001244141,0|8,0:0|0:0,0:0:0:0:
309,102,73592,2,0,P|243:86|189:89,1,101.920001244141,0|8,0:0|0:0,0:0:0:0:
73,231,73907,6,0,L|94:132,1,101.920001244141,0|8,0:0|0:0,0:0:0:0:
256,266,74221,2,0,L|235:167,1,101.920001244141,0|8,0:0|0:0,0:0:0:0:
34,315,74535,2,0,L|73:104,1,203.840002488281
148,305,75006,1,8,0:0:0:0:
149,170,75163,1,0,0:0:0:0:
247,335,75320,6,0,P|234:280|206:227,1,101.920001244141,8|0,0:0|0:0,0:0:0:0:
143,311,75634,1,8,0:0:0:0:
316,240,75791,2,0,P|286:191|243:149,1,101.920001244141,0|8,0:0|0:0,0:0:0:0:
51,293,76106,2,0,P|80:244|123:202,1,101.920001244141,0|8,0:0|0:0,0:0:0:0:
335,326,76420,6,0,B|226:357|235:283|119:337,1,203.840002488281,4|0,0:0|0:0,0:0:0:0:
135,329,76812,1,0,0:0:0:0:
135,329,76891,1,0,0:0:0:0:
227,217,77048,1,8,0:0:0:0:
35,246,77205,2,4,L|100:237,1,50.9600006220703
233,128,77362,2,4,L|182:134,1,50.9600006220703
0,166,77519,2,0,L|114:149,1,101.920001244141,8|0,0:0|1:0,0:0:0:0:
268,49,77833,6,0,B|260:175|260:175|275:251,2,167.439994379151,4|8|0,1:0|0:0|1:0,0:0:0:0:
347,158,78619,1,0,1:0:0:0:
179,137,78776,2,0,L|285:127,1,83.7199971895753,8|0,0:0|0:0,0:0:0:0:
428,236,79090,6,0,L|344:243,1,83.7199971895753,0|0,1:0|1:0,0:0:0:0:
382,155,79404,1,8,0:0:0:0:
392,321,79561,2,0,L|308:328,1,83.7199971895753,0|0,1:0|0:0,0:0:0:0:
481,314,79875,1,0,1:0:0:0:
261,251,80032,2,0,L|344:243,1,83.7199971895753,8|0,0:0|0:0,0:0:0:0:
182,321,80346,6,0,P|164:249|165:203,1,83.7199971895753,4|0,1:0|0:0,0:0:0:0:
256,109,80660,1,8,0:0:0:0:
77,262,80818,2,0,P|91:189|111:147,1,83.7199971895753,8|0,0:0|0:0,0:0:0:0:
278,332,81132,2,0,P|263:259|243:217,1,83.7199971895753,8|0,0:0|0:0,0:0:0:0:
37,299,81446,6,0,P|43:234|82:111,1,167.439994379151,4|0,1:0|1:0,0:0:0:0:
256,76,81917,1,8,0:0:0:0:
127,56,82074,1,0,1:0:0:0:
263,186,82231,1,8,0:0:0:0:
264,148,82310,1,8,0:0:0:0:
267,110,82388,1,8,0:0:0:0:
273,73,82467,1,8,0:0:0:0:
280,36,82545,2,0,P|350:28|385:28,1,83.7199971895753,8|0,0:0|1:0,0:0:0:0:
175,132,82859,6,8,L|102:137,1,55.8133314597169,8|0,0:0|0:0,0:0:0:0:
362,197,83069,2,8,L|435:202,1,55.8133314597169,8|0,0:0|0:0,0:0:0:0:
146,216,83278,6,8,L|73:221,1,55.8133314597169,8|0,0:0|0:0,0:0:0:0:
333,281,83488,2,8,L|406:286,1,55.8133314597169,8|0,0:0|0:0,0:0:0:0:
280,91,83697,6,8,P|281:147|277:170,1,55.8133314597169,8|0,0:0|0:0,0:0:0:0:
233,313,83907,2,8,P|231:285|234:257,1,55.8133314597169,8|0,0:0|0:0,0:0:0:0:
365,52,84116,5,12,0:0:0:0:
414,281,84901,1,0,1:0:0:0:
282,198,85058,2,0,L|392:202,1,83.7199971895753,8|0,0:0|0:0,0:0:0:0:
167,329,85373,6,0,L|159:258,1,55.8133314597169,8|0,0:0|0:0,0:0:0:0:
125,88,85582,2,0,L|118:143,1,55.8133314597169,8|0,0:0|0:0,0:0:0:0:
200,301,85791,6,0,L|192:230,1,55.8133314597169,8|0,0:0|0:0,0:0:0:0:
158,60,86001,2,0,L|151:115,1,55.8133314597169,8|0,0:0|0:0,0:0:0:0:
234,273,86210,6,0,L|226:202,1,55.8133314597169,8|0,0:0|0:0,0:0:0:0:
192,32,86420,2,0,L|185:87,1,55.8133314597169,8|0,0:0|0:0,0:0:0:0:
268,251,86629,5,12,0:0:0:0:
413,111,87257,2,0,P|343:117|298:130,1,83.7199971895753,8|0,0:0|1:0,0:0:0:0:
439,134,87571,2,0,P|369:140|324:153,1,83.7199971895753,8|0,0:0|1:0,0:0:0:0:
83,229,87886,6,0,P|137:201|123:287,1,185.640001133057,12|0,0:0|1:0,0:0:0:0:
141,124,88357,2,0,P|210:154|244:260,1,185.640001133057,12|0,0:0|1:0,0:0:0:0:
249,82,88828,2,0,P|292:126|310:167,1,92.8200005665283,12|0,0:0|1:0,0:0:0:0:
43,312,89142,5,12,0:0:0:0:
50,315,89770,1,8,0:0:0:0:
161,341,89927,1,8,0:0:0:0:
285,309,90085,1,8,0:0:0:0:
369,175,90242,1,8,0:0:0:0:
109,69,90399,6,0,L|126:280,1,185.640001133057,12|0,0:0|1:0,0:0:0:0:
378,54,90870,2,0,L|361:265,1,185.640001133057,12|0,0:0|1:0,0:0:0:0:
194,31,91341,2,0,L|205:157,1,92.8200005665283,12|0,0:0|1:0,0:0:0:0:
334,337,91655,6,0,B|372:321|386:301|389:273|382:245|365:212|336:203|300:203|273:218|246:252|233:291|233:291|218:263|189:247|164:244|134:245|114:253|89:275|70:301,1,464.100002832642,12|0,0:0|1:0,0:0:0:0:
334,337,92598,1,8,0:0:0:0:
208,73,92912,5,2,0:0:0:0:
174,221,93069,2,0,L|167:143,1,65.5200015996094,2|0,0:0|0:0,0:0:0:0:
258,238,93383,2,0,L|251:160,1,65.5200015996094,2|0,0:0|0:0,0:0:0:0:
327,73,93697,2,0,L|332:138,1,65.5200015996094,2|0,0:0|0:0,0:0:0:0:
427,223,94011,6,0,P|369:224|351:238,1,65.5200015996094,2|0,0:0|0:0,0:0:0:0:
291,320,94325,2,0,P|260:329|228:323,1,65.5200015996094,2|0,0:0|0:0,0:0:0:0:
149,219,94640,1,2,1:0:0:0:
109,315,94797,1,2,1:0:0:0:
217,65,95111,1,8,0:0:0:0:
218,51,95425,5,12,0:0:0:0:
429,175,95582,2,0,L|319:162,1,92.8200005665283,8|0,0:0|1:0,0:0:0:0:
78,208,95896,2,0,L|188:195,1,92.8200005665283,8|0,0:0|1:0,0:0:0:0:
381,255,96210,2,0,L|271:242,1,92.8200005665283,8|0,0:0|1:0,0:0:0:0:
105,116,96524,6,0,L|215:103,1,92.8200005665283,8|0,0:0|0:0,0:0:0:0:
398,144,96838,2,0,L|288:131,1,92.8200005665283,8|0,0:0|0:0,0:0:0:0:
195,263,97153,1,0,1:0:0:0:
318,45,97310,6,0,B|330:92|330:92|303:134|303:134|334:164|334:164|336:212|319:266|262:304|214:287|156:283|137:239|128:197|149:140|203:129|241:142|240:194,1,556.92000339917,12|0,0:0|0:0,0:0:0:0:
