osu file format v14

[General]
AudioFilename: audio.mp3
AudioLeadIn: 0
PreviewTime: 10530
Countdown: 0
SampleSet: Soft
StackLeniency: 0.7
Mode: 0
LetterboxInBreaks: 0
WidescreenStoryboard: 0

[Editor]
Bookmarks: 873,1030,1187,5900,6214,8727,10769,11240,13125,13282,13439,13596,15638,15795,15952,16109,18151,18308,18465,18622,19879,21135,22549,31345,31659,31973,32601,41397,41554,41711,41868,42025,42653,44538,44695,44852,45009,45167,46423,47208,47680,50193,50821,51449,52078,52706,55219,56475,57732,60245,60873,61502,62130,62758,64015,65271,66528,67784,71397,72811,76423,77208,77837,81449,82863,84119,85376,86633,87889,89774,89931,90088,90245,91659,92915,95428,97313,98256
DistanceSpacing: 2
BeatDivisor: 3
GridSize: 4
TimelineZoom: 1.9

[Metadata]
Title:Kimeta yo Hand in Hand
TitleUnicode:決めたよHand in Hand
Artist:Aqours
ArtistUnicode:Aqours
Creator:-Nitrous
Version:Kalibe's Insane
Source:Lovelive! Sunshine!!
Tags:ラブライブ!サンシャイン!! school idol project Takami Chika 高海千歌 Sakurauchi Riko 桜内梨子 Watanabe You 渡辺 曜 Inami Anju 伊波杏樹 Aida Rikako 逢田梨香子 Saitou Shuka 斉藤朱夏 Akitoshi Corinn Sotarks Kalibe
BeatmapID:1112627
BeatmapSetID:507355

[Difficulty]
HPDrainRate:6
CircleSize:4
OverallDifficulty:7.5
ApproachRate:9
SliderMultiplier:1.7
SliderTickRate:1

[Events]
//Background and Video events
Video,994,"Kimeta yo Hand in Hand.avi"
0,0,"BGSotarks.jpg",0,0
//Break Periods
//Storyboard Layer 0 (Background)
//Storyboard Layer 1 (Fail)
//Storyboard Layer 2 (Pass)
//Storyboard Layer 3 (Foreground)
//Storyboard Sound Samples

[TimingPoints]
-72,314.13612565445,4,2,2,70,1,0
870,-121.951219512195,4,2,2,70,0,0
948,-121.951219512195,4,2,2,70,0,0
1027,-121.951219512195,4,2,2,70,0,0
1106,-121.951219512195,4,2,2,70,0,0
1184,-108.695652173913,4,2,0,40,0,0
5738,-108.695652173913,4,2,1,40,0,0
5896,-108.695652173913,4,2,1,40,0,0
6210,-98.0392156862745,4,2,2,60,0,0
10765,-98.0392156862745,4,2,1,60,0,0
11236,-89.2857142857143,4,2,1,80,0,1
22545,-98.0392156862745,4,2,1,60,0,0
42649,-98.0392156862745,4,2,1,70,0,0
47676,-121.951219512195,4,2,1,60,0,0
55844,-121.951219512195,4,2,1,60,0,0
56472,-121.951219512195,4,2,1,60,0,0
56629,-121.951219512195,4,2,1,60,0,0
56786,-121.951219512195,4,2,1,60,0,0
56943,-121.951219512195,4,2,1,60,0,0
57100,-98.0392156862744,4,2,1,60,0,0
57729,-121.951219512195,4,2,1,60,0,0
62754,-121.951219512195,4,2,1,70,0,0
62755,-121.951219512195,4,2,1,70,0,0
63069,-121.951219512195,4,2,1,70,0,0
63226,-121.951219512195,4,2,1,70,0,0
63383,-121.951219512195,4,2,1,70,0,0
63540,-121.951219512195,4,2,1,70,0,0
63697,-121.951219512195,4,2,1,70,0,0
64011,-98.0392156862744,4,2,1,70,0,0
66838,-98.0392156862744,4,2,0,70,0,0
66995,-98.0392156862744,4,2,0,5,0,0
67309,-98.0392156862744,4,2,1,50,0,0
67467,-75.7575757575758,4,2,1,50,0,0
67702,-98.0392156862744,4,2,1,50,0,0
67781,-89.2857142857143,4,2,1,80,0,1
77833,-98.0392156862745,4,2,1,80,0,1
82964,-98.0392156862745,4,2,1,5,0,1
83069,-98.0392156862745,4,2,1,80,0,1
83174,-98.0392156862745,4,2,1,5,0,1
83278,-98.0392156862745,4,2,1,80,0,1
83383,-98.0392156862745,4,2,1,5,0,1
83488,-98.0392156862745,4,2,1,80,0,1
83592,-98.0392156862745,4,2,1,5,0,1
83697,-98.0392156862745,4,2,1,80,0,1
83802,-98.0392156862745,4,2,1,5,0,1
83907,-98.0392156862745,4,2,1,80,0,1
84011,-98.0392156862745,4,2,1,5,0,1
84116,-98.0392156862745,4,2,1,80,0,1
84431,-98.0392156862745,4,2,1,20,0,1
84744,-98.0392156862745,4,2,1,80,0,1
85477,-98.0392156862745,4,2,1,5,0,1
85582,-98.0392156862745,4,2,1,80,0,1
85687,-98.0392156862745,4,2,1,5,0,1
85791,-98.0392156862745,4,2,1,80,0,1
85896,-98.0392156862745,4,2,1,5,0,1
86001,-98.0392156862745,4,2,1,80,0,1
86106,-98.0392156862745,4,2,1,5,0,1
86210,-98.0392156862745,4,2,1,80,0,1
86315,-98.0392156862745,4,2,1,5,0,1
86420,-98.0392156862745,4,2,1,80,0,1
86524,-98.0392156862745,4,2,1,5,0,1
86629,-98.0392156862745,4,2,1,80,0,1
86943,-98.0392156862745,4,2,1,20,0,1
87100,-98.0392156862745,4,2,1,80,0,1
87886,-98.0392156862745,4,2,1,80,0,0
89770,-98.0392156862745,4,2,1,80,0,0
89927,-98.0392156862745,4,2,1,80,0,0
90085,-98.0392156862745,4,2,1,80,0,0
90242,-98.0392156862745,4,2,1,80,0,0
92912,-138.888888888889,4,2,0,70,0,0
94325,-138.888888888889,4,2,1,70,0,0
95425,-98.0392156862745,4,2,1,70,0,0
97624,-98.0392156862745,4,2,0,50,0,0
98252,-98.0392156862745,4,2,0,10,0,0

[Colours]
Combo1 : 236,179,121
Combo2 : 255,245,130
Combo3 : 66,222,255
Combo4 : 255,89,89

[HitObjects]
132,192,870,6,0,L|212:180,1,69.7000010635376,0|0,0:0|0:0,0:0:0:0:
334,292,1184,6,0,P|243:275|161:258,1,156.399994749756,2|8,0:0|0:0,0:0:0:0:
271,148,1655,2,0,P|302:215|335:295,1,156.399994749756,2|2,0:0|0:0,0:0:0:0:
268,365,2126,1,8,0:0:0:0:
180,262,2284,6,0,B|106:239|85:295|25:265,1,156.399994749756,2|2,0:0|0:0,0:0:0:0:
145,335,2755,2,0,P|185:346|241:356,1,78.199997374878,8|0,0:0|0:0,0:0:0:0:
150,182,3069,2,0,P|111:184|59:196,1,78.199997374878,2|8,0:0|0:0,0:0:0:0:
27,266,3383,1,8,0:0:0:0:
27,266,3697,6,0,P|131:260|203:248,1,156.399994749756,2|8,0:0|0:0,0:0:0:0:
218,41,4168,2,0,P|167:134|147:190,1,156.399994749756,2|2,0:0|0:0,0:0:0:0:
268,152,4640,1,8,0:0:0:0:
330,282,4797,6,0,B|280:261|280:261|224:269|224:269|168:246,1,156.399994749756,2|2,0:0|0:0,0:0:0:0:
88,344,5268,2,0,L|172:328,1,78.199997374878,8|0,0:0|0:0,0:0:0:0:
268,356,5582,1,2,0:0:0:0:
181,251,5739,1,2,0:0:0:0:
340,200,5896,1,12,0:0:0:0:
340,200,6210,6,0,P|247:177|156:156,1,173.40000105835,6|8,0:0|0:0,0:0:0:0:
95,266,6681,2,0,P|136:258|183:250,1,86.7000005291748,0|2,0:0|0:0,0:0:0:0:
100,84,6996,2,0,P|80:123|60:172,1,86.7000005291748,0|8,0:0|0:0,0:0:0:0:
20,304,7310,6,0,B|112:288|84:352|192:332,1,173.40000105835,0|0,0:0|0:0,0:0:0:0:
380,296,7781,2,0,L|284:276,1,86.7000005291748,8|2,0:0|0:0,0:0:0:0:
180,250,8095,1,2,0:0:0:0:
220,344,8252,1,8,0:0:0:0:
171,159,8409,1,8,0:0:0:0:
88,232,8566,1,2,0:0:0:0:
233,84,8723,6,0,L|176:261,1,173.40000105835,6|8,0:0|0:0,0:0:0:0:
136,367,9195,2,0,P|176:353|224:343,1,86.7000005291748,0|8,0:0|0:0,0:0:0:0:
380,296,9509,2,0,P|336:288|292:272,1,86.7000005291748,0|8,0:0|0:0,0:0:0:0:
109,188,9823,6,0,B|225:228|225:228|169:252,1,173.40000105835,6|6,0:0|0:0,0:0:0:0:
88,280,10294,1,0,0:0:0:0:
136,96,10451,1,6,0:0:0:0:
178,247,10608,5,0,0:0:0:0:
64,200,10765,1,8,0:0:0:0:
64,200,10844,1,8,0:0:0:0:
64,200,10922,1,8,0:0:0:0:
186,204,11079,6,0,L|174:264,1,43.3500002645874,0|0,3:0|3:0,0:0:0:0:
43,292,11236,6,0,B|139:264|112:348|226:313,1,190.400002324219,12|8,0:0|0:0,0:0:0:0:
396,288,11708,2,0,L|300:264,1,95.2000011621094,2|8,0:0|0:0,0:0:0:0:
190,183,12022,1,2,0:0:0:0:
223,313,12179,1,8,0:0:0:0:
372,204,12336,6,0,B|300:188|300:188|240:212|240:212|184:200,1,190.400002324219,2|2,0:0|0:0,0:0:0:0:
212,32,12807,2,0,P|224:80|236:140,1,95.2000011621094,8|2,0:0|0:0,0:0:0:0:
192,292,13121,1,8,0:0:0:0:
304,148,13278,1,2,0:0:0:0:
432,272,13435,2,0,L|316:280,1,95.2000011621094,8|2,0:0|0:0,0:0:0:0:
100,308,13749,6,0,B|200:292|168:360|288:340,1,190.400002324219,12|8,0:0|0:0,0:0:0:0:
432,272,14221,1,2,0:0:0:0:
348,180,14378,2,0,P|328:228|312:280,1,95.2000011621094,8|2,0:0|0:0,0:0:0:0:
444,184,14692,1,8,0:0:0:0:
253,152,14849,6,0,L|281:340,1,190.400002324219,2|2,0:0|0:0,0:0:0:0:
188,296,15320,1,8,0:0:0:0:
356,240,15477,1,8,0:0:0:0:
253,152,15634,2,0,P|208:140|145:132,1,95.2000011621094,8|2,0:0|0:0,0:0:0:0:
12,220,15948,2,0,P|56:216|120:200,1,95.2000011621094,8|2,0:0|0:0,0:0:0:0:
340,123,16263,6,0,B|271:108|271:108|224:151|151:130,1,190.400002324219,12|8,0:0|0:0,0:0:0:0:
200,56,16734,1,2,0:0:0:0:
272,196,16891,2,0,P|320:212|380:224,1,95.2000011621094,8|2,0:0|0:0,0:0:0:0:
340,123,17205,1,8,0:0:0:0:
208,248,17362,6,0,P|292:284|408:304,1,190.400002324219,2|2,0:0|0:0,0:0:0:0:
272,196,17833,1,8,0:0:0:0:
200,360,17990,1,8,0:0:0:0:
124,272,18147,2,0,P|132:228|148:176,1,95.2000011621094,8|2,0:0|0:0,0:0:0:0:
340,123,18462,2,0,P|360:168|376:220,1,95.2000011621094,8|2,0:0|0:0,0:0:0:0:
275,377,18776,6,0,B|263:309|263:309|287:265|287:265|271:192,1,190.400002324219,12|8,0:0|0:0,0:0:0:0:
93,227,19247,2,0,L|209:251,1,95.2000011621094,2|8,0:0|0:0,0:0:0:0:
373,211,19561,1,2,0:0:0:0:
248,164,19718,1,8,0:0:0:0:
72,300,19875,6,0,B|192:324|192:324|264:304,1,190.400002324219,6|2,0:0|0:0,0:0:0:0:
428,204,20346,2,0,L|448:301,1,95.2000011621094,8|2,0:0|0:0,0:0:0:0:
271,195,20660,2,0,L|295:91,1,95.2000011621094,8|2,0:0|0:0,0:0:0:0:
360,168,20975,1,8,0:0:0:0:
187,247,21132,6,0,B|165:196|165:196|189:62,1,190.400002324219,6|0,0:0|0:0,0:0:0:0:
259,325,21603,2,0,P|207:333|151:341,1,95.2000011621094,8|0,0:0|0:0,0:0:0:0:
32,268,21917,5,8,0:0:0:0:
32,268,21996,1,0,3:0:0:0:
32,268,22074,2,0,L|92:258,1,47.6000005810547,0|0,3:0|3:0,0:0:0:0:
187,247,22231,5,8,0:0:0:0:
164,339,22388,1,0,0:0:0:0:
268,223,22545,6,0,P|186:193|90:167,1,173.40000105835,6|8,0:0|0:0,0:0:0:0:
10,185,23017,1,0,0:0:0:0:
85,59,23174,2,0,P|101:101|117:155,1,86.7000005291748,2|2,0:0|0:0,0:0:0:0:
32,268,23488,2,0,P|73:257|123:246,1,86.7000005291748,8|0,0:0|0:0,0:0:0:0:
292,331,23802,6,0,P|248:326|201:314,1,86.7000005291748,2|0,0:0|0:0,0:0:0:0:
116,247,24116,1,8,0:0:0:0:
263,161,24273,2,0,L|294:338,1,173.40000105835,2|2,0:0|0:0,0:0:0:0:
197,238,24744,1,8,0:0:0:0:
346,180,24901,1,0,0:0:0:0:
460,295,25058,6,0,P|346:311|285:335,1,173.40000105835,2|8,0:0|0:0,0:0:0:0:
231,244,25530,1,0,0:0:0:0:
128,281,25687,2,0,P|109:322|92:376,1,86.7000005291748,2|2,0:0|0:0,0:0:0:0:
241,210,26001,2,0,P|223:172|187:114,1,86.7000005291748,8|0,0:0|0:0,0:0:0:0:
51,240,26315,6,0,P|88:262|127:280,1,86.7000005291748,2|0,0:0|0:0,0:0:0:0:
241,210,26629,1,8,0:0:0:0:
178,31,26786,2,0,L|125:197,1,173.40000105835,0|0,0:0|0:0,0:0:0:0:
134,307,27257,1,8,0:0:0:0:
221,166,27414,1,0,0:0:0:0:
301,332,27571,6,0,P|184:352|127:324,1,173.40000105835,6|8,0:0|0:0,0:0:0:0:
194,251,28043,1,0,0:0:0:0:
301,332,28200,2,0,P|342:346|390:355,1,86.7000005291748,2|2,0:0|0:0,0:0:0:0:
278,232,28514,2,0,P|235:239|173:258,1,86.7000005291748,8|0,0:0|0:0,0:0:0:0:
56,340,28828,6,0,P|75:263|101:160,1,173.40000105835,2|8,0:0|0:0,0:0:0:0:
155,23,29299,1,0,0:0:0:0:
227,85,29456,2,0,P|185:93|117:106,1,86.7000005291748,2|2,0:0|0:0,0:0:0:0:
13,151,29770,2,0,P|53:160|104:173,1,86.7000005291748,8|0,0:0|0:0,0:0:0:0:
218,281,30085,6,0,P|123:297|80:230,1,173.40000105835,2|8,0:0|0:0,0:0:0:0:
141,101,30556,1,0,0:0:0:0:
200,196,30713,2,0,L|219:286,1,86.7000005291748,2|2,0:0|0:0,0:0:0:0:
87,247,31027,1,8,0:0:0:0:
87,247,31184,1,0,0:0:0:0:
195,169,31341,6,0,B|250:163|250:163|305:188|305:188|375:182,1,173.40000105835,2|8,0:0|0:0,0:0:0:0:
316,106,31812,1,0,0:0:0:0:
237,239,31969,1,8,0:0:0:0:
232,260,32048,1,8,0:0:0:0:
229,281,32126,1,8,0:0:0:0:
228,302,32205,1,8,0:0:0:0:
231,327,32284,2,0,B|271:342|271:342|322:340,1,86.7000005291748,8|0,0:0|0:0,0:0:0:0:
511,253,32598,6,0,B|465:243|426:250|426:250|390:274|337:258,1,173.40000105835,6|8,0:0|0:0,0:0:0:0:
247,212,33069,1,0,0:0:0:0:
126,261,33226,2,0,P|108:301|95:356,1,86.7000005291748,2|2,0:0|0:0,0:0:0:0:
247,212,33540,2,0,P|235:172|205:109,1,86.7000005291748,8|0,0:0|0:0,0:0:0:0:
185,328,33854,6,0,P|310:306|369:309,1,173.40000105835,2|8,0:0|0:0,0:0:0:0:
511,253,34325,2,0,P|401:230|344:207,1,173.40000105835,4|0,0:0|0:0,0:0:0:0:
299,99,34797,1,8,0:0:0:0:
224,244,34954,1,4,0:0:0:0:
128,180,35111,6,0,P|89:302|98:366,1,173.40000105835,2|8,0:0|0:0,0:0:0:0:
260,325,35582,1,0,0:0:0:0:
260,325,35739,2,0,L|238:235,1,86.7000005291748,2|2,0:0|0:0,0:0:0:0:
150,96,36053,2,0,L|125:191,1,86.7000005291748,8|0,0:0|0:0,0:0:0:0:
48,320,36367,6,0,L|153:298,1,86.7000005291748,2|0,0:0|0:0,0:0:0:0:
239,240,36681,1,8,0:0:0:0:
431,352,36838,2,0,P|339:337|240:322,1,173.40000105835,2|2,0:0|0:0,0:0:0:0:
134,279,37310,1,8,0:0:0:0:
272,227,37467,1,0,0:0:0:0:
170,50,37624,6,0,B|138:167|138:167|169:219,1,173.40000105835,6|8,0:0|0:0,0:0:0:0:
323,158,38095,1,0,0:0:0:0:
356,247,38252,2,0,L|262:224,1,86.7000005291748,2|2,0:0|0:0,0:0:0:0:
269,87,38566,2,0,L|368:73,1,86.7000005291748,8|0,0:0|0:0,0:0:0:0:
493,187,38880,6,0,P|408:174|304:154,1,173.40000105835,2|8,0:0|0:0,0:0:0:0:
236,88,39352,1,0,0:0:0:0:
120,152,39509,2,0,P|129:195|140:252,1,86.7000005291748,2|0,0:0|0:0,0:0:0:0:
279,338,39823,2,0,P|296:298|314:256,1,86.7000005291748,8|0,0:0|0:0,0:0:0:0:
236,173,40137,6,0,L|196:344,2,173.40000105835,2|8|2,0:0|0:0|0:0,0:0:0:0:
56,218,40922,2,0,L|156:242,1,86.7000005291748,2|8,0:0|0:0,0:0:0:0:
366,313,41236,6,0,P|257:323|182:347,1,173.40000105835
140,238,41708,1,8,0:0:0:0:
75,311,41865,1,0,0:0:0:0:
163,159,42022,5,2,0:0:0:0:
196,328,42179,1,0,0:0:0:0:
274,192,42336,1,8,0:0:0:0:
140,238,42493,1,0,0:0:0:0:
320,315,42650,6,0,P|199:328|134:342,1,173.40000105835,6|8,0:0|0:0,0:0:0:0:
151,199,43121,1,2,0:0:0:0:
270,244,43278,2,0,P|297:277|327:329,1,86.7000005291748,8|2,0:0|0:0,0:0:0:0:
221,323,43592,1,8,0:0:0:0:
376,247,43749,6,0,L|470:268,1,86.7000005291748,0|8,0:0|0:0,0:0:0:0:
319,314,44064,1,2,0:0:0:0:
252,204,44221,2,0,P|256:158|272:106,1,86.7000005291748,8|2,0:0|0:0,0:0:0:0:
419,160,44535,2,0,P|377:173|313:182,1,86.7000005291748,8|2,0:0|0:0,0:0:0:0:
311,21,44849,2,0,P|336:58|355:102,1,86.7000005291748,8|2,0:0|0:0,0:0:0:0:
252,204,45163,6,0,P|208:216|160:229,1,86.7000005291748,6|2,0:0|0:0,0:0:0:0:
176,134,45477,1,2,0:0:0:0:
243,288,45634,2,0,P|283:294|329:302,1,86.7000005291748,6|2,0:0|0:0,0:0:0:0:
268,189,45948,1,2,0:0:0:0:
180,344,46106,2,0,P|136:346|84:351,1,86.7000005291748,6|0,0:0|0:0,0:0:0:0:
168,226,46420,5,6,0:0:0:0:
328,301,46577,1,2,0:0:0:0:
176,134,46734,1,6,0:0:0:0:
243,288,46891,1,2,0:0:0:0:
377,238,47048,2,0,B|419:227|419:227|473:227,1,86.7000005291748,6|2,0:0|0:0,0:0:0:0:
395,358,47362,2,0,B|351:352|351:352|306:332,1,86.7000005291748,2|2,0:0|0:0,0:0:0:0:
332,106,47676,6,0,P|361:175|377:240,1,139.400002127075,6|0,0:0|0:0,0:0:0:0:
312,334,48147,1,2,0:0:0:0:
217,290,48304,2,0,L|131:303,1,69.7000010635376,8|0,0:0|0:0,0:0:0:0:
308,224,48619,2,0,L|379:238,1,69.7000010635376,0|0,0:0|0:0,0:0:0:0:
226,116,48933,6,0,P|216:148|207:194,1,69.7000010635376,2|8,0:0|0:0,0:0:0:0:
304,141,49247,1,2,0:0:0:0:
167,56,49404,2,0,P|149:91|130:140,1,69.7000010635376,0|8,0:0|0:0,0:0:0:0:
234,248,49718,2,0,P|223:216|201:169,1,69.7000010635376,0|0,0:0|0:0,0:0:0:0:
46,229,50032,1,0,0:0:0:0:
46,229,50111,1,0,0:0:0:0:
46,229,50189,6,0,P|94:237|175:249,1,104.550001595306,6|0,0:0|0:0,0:0:0:0:
234,248,50503,2,0,L|214:305,1,34.8500005317688,8|8,0:0|0:0,0:0:0:0:
152,329,50660,2,0,L|132:266,1,34.8500005317688,8|8,0:0|0:0,0:0:0:0:
187,154,50818,6,0,P|213:203|235:251,1,104.550001595306,6|0,0:0|0:0,0:0:0:0:
295,296,51132,2,0,L|342:314,1,34.8500005317688,8|8,0:0|0:0,0:0:0:0:
380,229,51289,2,0,L|326:235,1,34.8500005317688,8|8,0:0|0:0,0:0:0:0:
342,131,51446,6,0,P|362:180|380:230,1,104.550001595306,6|0,0:0|0:0,0:0:0:0:
444,293,51760,2,0,L|404:308,1,34.8500005317688,8|8,0:0|0:0,0:0:0:0:
335,342,51917,2,0,L|322:289,1,34.8500005317688,8|8,0:0|0:0,0:0:0:0:
266,186,52074,6,0,P|248:220|230:255,1,69.7000010635376,6|0,0:0|0:0,0:0:0:0:
162,350,52388,1,8,0:0:0:0:
153,323,52467,1,0,0:0:0:0:
143,297,52545,1,2,0:0:0:0:
134,270,52624,1,0,0:0:0:0:
124,244,52702,6,0,P|100:324|85:380,1,139.400002127075,6|0,0:0|0:0,0:0:0:0:
237,341,53174,1,0,0:0:0:0:
218,238,53331,2,0,L|199:156,1,69.7000010635376,8|0,0:0|0:0,0:0:0:0:
56,225,53645,2,0,L|127:245,1,69.7000010635376,0|0,0:0|0:0,0:0:0:0:
306,331,53959,6,0,P|271:336|222:342,1,69.7000010635376,2|8,0:0|0:0,0:0:0:0:
131,284,54273,1,2,0:0:0:0:
236,167,54430,2,0,P|243:200|253:244,1,69.7000010635376,0|8,0:0|0:0,0:0:0:0:
120,352,54744,2,0,P|125:317|133:266,1,69.7000010635376,2|0,0:0|0:0,0:0:0:0:
102,142,55058,1,2,0:0:0:0:
102,142,55137,1,2,0:0:0:0:
102,142,55215,6,0,B|172:133|152:179|243:166,1,139.400002127075,6|0,0:0|0:0,0:0:0:0:
320,105,55687,1,0,0:0:0:0:
444,192,55844,2,0,L|376:172,1,69.7000010635376,8|0,0:0|0:0,0:0:0:0:
294,40,56158,2,0,L|323:114,1,69.7000010635376,8|0,0:0|0:0,0:0:0:0:
392,260,56472,5,2,0:0:0:0:
377,172,56629,1,0,0:0:0:0:
320,312,56786,5,2,0:0:0:0:
288,188,56943,1,2,0:0:0:0:
220,352,57100,5,2,0:0:0:0:
220,352,57257,1,0,3:0:0:0:
392,260,57414,1,8,0:0:0:0:
392,260,57729,6,0,P|316:270|252:280,1,139.400002127075,6|0,0:0|0:0,0:0:0:0:
176,208,58200,1,0,0:0:0:0:
67,273,58357,2,0,P|99:281|155:297,1,69.7000010635376,8|0,0:0|0:0,0:0:0:0:
224,342,58671,2,0,P|239:310|263:259,1,69.7000010635376,0|0,0:0|0:0,0:0:0:0:
165,139,58985,6,0,P|169:175|179:225,1,69.7000010635376,2|8,0:0|0:0,0:0:0:0:
253,278,59299,1,2,0:0:0:0:
354,190,59456,2,0,L|277:169,1,69.7000010635376,0|8,0:0|0:0,0:0:0:0:
106,220,59770,2,0,L|178:207,1,69.7000010635376,0|0,0:0|0:0,0:0:0:0:
352,309,60085,1,8,0:0:0:0:
352,309,60163,1,0,0:0:0:0:
352,309,60242,6,0,P|299:292|239:274,1,104.550001595306,6|0,0:0|0:0,0:0:0:0:
174,207,60556,2,0,L|158:245,1,34.8500005317688,8|8,0:0|0:0,0:0:0:0:
142,327,60713,2,0,L|177:320,1,34.8500005317688,8|8,0:0|0:0,0:0:0:0:
252,277,60870,6,0,P|224:232|180:173,1,104.550001595306,6|0,0:0|0:0,0:0:0:0:
119,146,61184,2,0,L|83:135,1,34.8500005317688,0|0,3:0|0:0,0:0:0:0:
114,55,61341,2,0,L|156:45,1,34.8500005317688,0|0,0:0|0:0,0:0:0:0:
225,90,61498,6,0,P|209:139|190:202,1,104.550001595306,6|0,0:0|0:0,0:0:0:0:
252,277,61812,2,0,L|274:219,1,34.8500005317688,8|8,0:0|0:0,0:0:0:0:
341,204,61969,2,0,L|347:248,1,34.8500005317688,8|8,0:0|0:0,0:0:0:0:
398,307,62126,6,0,P|363:313|319:320,1,69.7000010635376,2|0,0:0|0:0,0:0:0:0:
193,189,62441,1,2,0:0:0:0:
184,215,62519,1,0,0:0:0:0:
175,241,62598,1,2,0:0:0:0:
165,267,62676,1,0,0:0:0:0:
155,293,62755,6,0,P|80:293|43:246,1,139.400002127075,6|2,0:0|0:0,0:0:0:0:
90,150,63226,1,2,0:0:0:0:
192,234,63383,1,8,0:0:0:0:
120,81,63540,1,8,0:0:0:0:
43,246,63697,1,8,0:0:0:0:
130,171,63854,1,8,0:0:0:0:
280,257,64011,6,0,P|362:276|466:300,1,173.40000105835,6|8,0:0|0:0,0:0:0:0:
449,131,64482,2,0,P|421:163|390:206,1,86.7000005291748,6|0,0:0|0:0,0:0:0:0:
309,338,64797,2,0,P|296:295|272:244,1,86.7000005291748,6|0,0:0|0:0,0:0:0:0:
206,166,65111,1,8,0:0:0:0:
181,325,65268,5,6,0:0:0:0:
280,257,65425,1,2,0:0:0:0:
168,181,65582,1,2,0:0:0:0:
309,338,65739,5,6,0:0:0:0:
261,163,65896,1,0,0:0:0:0:
165,254,66053,1,0,0:0:0:0:
353,177,66210,5,6,0:0:0:0:
221,68,66367,1,0,0:0:0:0:
165,254,66524,1,6,0:0:0:0:
353,177,67310,6,0,L|342:117,1,43.3500002645874,2|0,0:0|0:0,0:0:0:0:
256,164,67467,1,8,0:0:0:0:
432,100,67624,1,0,0:0:0:0:
492,244,67781,6,0,B|408:208|375:278|304:232,1,190.400002324219,6|8,0:0|0:0,0:0:0:0:
308,54,68252,2,0,P|339:89|363:141,1,95.2000011621094,2|8,0:0|0:0,0:0:0:0:
212,240,68566,2,0,P|224:196|260:140,1,95.2000011621094,2|8,0:0|0:0,0:0:0:0:
332,316,68880,6,0,L|136:328,1,190.400002324219,2|2,0:0|0:0,0:0:0:0:
28,280,69352,1,8,0:0:0:0:
96,108,69509,2,0,L|120:216,1,95.2000011621094,2|8,0:0|0:0,0:0:0:0:
141,327,69823,1,2,0:0:0:0:
248,153,69980,1,8,0:0:0:0:
212,240,70137,1,2,0:0:0:0:
303,82,70294,6,0,B|394:59|394:139|483:113,1,190.400002324219,6|8,0:0|0:0,0:0:0:0:
308,261,70765,2,0,P|314:214|331:169,1,95.2000011621094,2|8,0:0|0:0,0:0:0:0:
483,113,71079,2,0,P|500:157|506:205,1,95.2000011621094,2|8,0:0|0:0,0:0:0:0:
224,212,71393,6,0,B|292:208|292:208|336:236|336:236|424:232,1,190.400002324219,6|8,0:0|0:0,0:0:0:0:
360,152,71865,1,2,0:0:0:0:
258,300,72022,2,0,L|218:196,1,95.2000011621094,8|8,0:0|0:0,0:0:0:0:
77,168,72336,1,8,0:0:0:0:
140,278,72493,1,8,0:0:0:0:
164,116,72650,1,0,0:0:0:0:
28,316,72807,6,0,B|156:364|156:364|228:344,1,190.400002324219,6|8,0:0|0:0,0:0:0:0:
254,121,73278,2,0,L|214:237,1,95.2000011621094,2|8,0:0|0:0,0:0:0:0:
327,355,73592,2,0,L|307:255,1,95.2000011621094,2|8,0:0|0:0,0:0:0:0:
424,112,73907,6,0,B|408:172|408:172|424:240|424:240|412:304,1,190.400002324219,2|2,0:0|0:0,0:0:0:0:
316,232,74378,1,8,0:0:0:0:
148,300,74535,2,0,P|192:312|248:328,1,95.2000011621094,2|8,0:0|0:0,0:0:0:0:
360,364,74849,1,2,0:0:0:0:
222,210,75006,1,8,0:0:0:0:
239,325,75163,1,2,0:0:0:0:
332,160,75320,6,0,L|144:116,1,190.400002324219,6|8,0:0|0:0,0:0:0:0:
8,232,75791,2,0,P|54:226|120:216,1,95.2000011621094,6|0,0:0|0:0,0:0:0:0:
217,53,76106,2,0,P|181:83|141:121,1,95.2000011621094,8|8,0:0|0:0,0:0:0:0:
200,288,76420,6,0,B|281:332|301:253|390:298,1,190.400002324219,6|2,0:0|0:0,0:0:0:0:
280,132,76891,2,0,L|248:232,1,95.2000011621094,2|8,0:0|0:0,0:0:0:0:
104,344,77205,1,8,0:0:0:0:
104,344,77284,1,8,0:0:0:0:
104,344,77362,1,8,0:0:0:0:
104,344,77441,1,8,0:0:0:0:
104,344,77519,2,0,L|72:244,1,95.2000011621094,8|2,0:0|0:0,0:0:0:0:
8,105,77833,6,0,B|59:101|59:101|123:127|123:127|194:124,2,173.40000105835,6|8|0,0:0|0:0|0:0,0:0:0:0:
47,177,78619,1,2,0:0:0:0:
152,41,78776,2,0,L|180:138,1,86.7000005291748,8|0,0:0|0:0,0:0:0:0:
27,262,79090,6,0,L|50:165,1,86.7000005291748,2|0,0:0|0:0,0:0:0:0:
284,202,79404,2,0,P|193:220|105:246,1,173.40000105835,8|0,0:0|0:0,0:0:0:0:
176,124,79875,1,2,0:0:0:0:
250,296,80032,2,0,P|292:306|351:319,1,86.7000005291748,8|0,0:0|0:0,0:0:0:0:
115,242,80346,6,0,P|90:278|64:320,1,86.7000005291748,6|0,0:0|0:0,0:0:0:0:
174,320,80660,1,8,0:0:0:0:
16,228,80818,5,6,0:0:0:0:
334,315,81132,1,6,0:0:0:0:
187,20,81446,6,0,P|220:115|229:196,1,173.40000105835,6|0,0:0|0:0,0:0:0:0:
65,165,81917,2,0,P|105:153|166:136,1,86.7000005291748,8|0,0:0|0:0,0:0:0:0:
303,84,82231,1,8,0:0:0:0:
312,113,82310,1,8,0:0:0:0:
319,142,82388,1,8,0:0:0:0:
322,172,82467,1,8,0:0:0:0:
318,201,82545,2,0,P|358:186|412:169,1,86.7000005291748,8|0,0:0|0:0,0:0:0:0:
472,300,82859,6,0,P|445:290|405:277,1,57.8000003527832,12|0,0:0|0:0,0:0:0:0:
325,318,83069,2,0,P|297:320|265:321,1,57.8000003527832,8|0,0:0|0:0,0:0:0:0:
173,289,83278,2,0,P|191:265|215:238,1,57.8000003527832,8|0,0:0|0:0,0:0:0:0:
272,164,83488,6,0,P|297:180|335:211,1,57.8000003527832,12|0,0:0|0:0,0:0:0:0:
398,255,83697,2,0,P|426:244|460:228,1,57.8000003527832,8|0,0:0|0:0,0:0:0:0:
503,147,83907,2,0,P|497:119|488:91,1,57.8000003527832,8|0,0:0|0:0,0:0:0:0:
404,143,84116,5,10,0:0:0:0:
404,143,84901,1,2,0:0:0:0:
291,248,85058,2,0,P|282:207|268:150,1,86.7000005291748,8|0,0:0|0:0,0:0:0:0:
144,86,85373,6,0,P|135:113|127:147,1,57.8000003527832,12|0,0:0|0:0,0:0:0:0:
135,239,85582,2,0,P|163:227|200:212,1,57.8000003527832,8|0,0:0|0:0,0:0:0:0:
271,163,85791,2,0,P|246:147|217:128,1,57.8000003527832,8|0,0:0|0:0,0:0:0:0:
128,30,86001,6,0,L|147:96,1,57.8000003527832,12|0,0:0|0:0,0:0:0:0:
276,72,86210,2,0,L|226:42,1,57.8000003527832,8|0,0:0|0:0,0:0:0:0:
271,163,86420,2,0,L|328:154,1,57.8000003527832,8|0,0:0|0:0,0:0:0:0:
438,182,86629,6,0,B|366:143|342:207|266:160,1,173.40000105835,12|0,0:0|0:0,0:0:0:0:
148,245,87100,1,0,0:0:0:0:
148,245,87257,2,0,L|262:233,1,86.7000005291748,8|0,0:0|0:0,0:0:0:0:
175,147,87571,1,8,0:0:0:0:
108,328,87729,1,0,0:0:0:0:
234,235,87886,6,0,P|144:217|58:198,1,173.40000105835,12|2,0:0|0:0,0:0:0:0:
183,69,88357,2,0,P|206:142|233:234,1,173.40000105835,12|2,0:0|0:0,0:0:0:0:
305,363,88828,2,0,P|317:323|332:279,1,86.7000005291748,8|0,0:0|0:0,0:0:0:0:
470,230,89142,6,0,P|365:214|318:162,1,173.40000105835,12|0,0:0|0:0,0:0:0:0:
412,116,89613,1,0,0:0:0:0:
331,280,89770,1,2,0:0:0:0:
212,224,89927,1,2,0:0:0:0:
305,363,90085,1,2,0:0:0:0:
321,168,90242,1,2,0:0:0:0:
159,279,90399,6,0,P|237:269|357:255,1,173.40000105835,6|2,0:0|0:0,0:0:0:0:
429,149,90870,2,0,P|332:127|250:108,1,173.40000105835,6|0,0:0|0:0,0:0:0:0:
158,50,91341,1,8,0:0:0:0:
272,24,91498,1,0,0:0:0:0:
176,132,91655,6,0,B|143:215|198:215|161:316,1,173.40000105835,6|0,0:0|0:0,0:0:0:0:
96,260,92126,1,0,0:0:0:0:
244,180,92284,1,8,0:0:0:0:
165,302,92441,1,2,0:0:0:0:
68,128,92598,1,10,0:0:0:0:
268,188,92912,5,4,0:0:0:0:
368,160,93069,2,0,P|346:212|316:288,1,122.400002988281,2|2,0:0|0:0,0:0:0:0:
151,151,93697,2,0,P|205:165|267:187,1,122.400002988281,2|2,0:0|0:0,0:0:0:0:
460,272,94325,5,2,0:0:0:0:
256,316,94640,1,2,0:0:0:0:
384,280,94797,2,0,L|448:296,1,61.2000014941407,2|0,0:0|0:0,0:0:0:0:
332,196,95111,2,0,L|268:208,1,61.2000014941407,8|0,0:0|0:0,0:0:0:0:
160,304,95425,5,8,0:0:0:0:
160,304,95582,2,0,P|172:260|192:208,1,86.7000005291748,8|0,0:0|0:0,0:0:0:0:
240,56,95896,2,0,P|261:93|284:130,1,86.7000005291748,8|0,0:0|0:0,0:0:0:0:
400,260,96210,2,0,P|356:272|300:288,1,86.7000005291748,8|0,0:0|0:0,0:0:0:0:
148,324,96524,5,8,0:0:0:0:
483,236,96838,1,12,0:0:0:0:
171,81,97153,1,10,0:0:0:0:
224,197,97310,6,0,P|272:209|168:101,1,520.200003175049,6|0,0:0|0:0,0:0:0:0:
