osu file format v14

[General]
AudioFilename: audio.mp3
AudioLeadIn: 0
PreviewTime: 10530
Countdown: 0
SampleSet: Soft
StackLeniency: 0.7
Mode: 0
LetterboxInBreaks: 0
WidescreenStoryboard: 0

[Editor]
Bookmarks: 28828,38880
DistanceSpacing: 1.4
BeatDivisor: 4
GridSize: 4
TimelineZoom: 1.9

[Metadata]
Title:Kimeta yo Hand in Hand
TitleUnicode:決めたよHand in Hand
Artist:Aqours
ArtistUnicode:Aqours
Creator:-Nitrous
Version:Insane
Source:Lovelive! Sunshine!!
Tags:ラブライブ!サンシャイン!! school idol project Takami Chika 高海千歌 Sakurauchi Riko 桜内梨子 Watanabe You 渡辺 曜 Inami Anju 伊波杏樹 Aida Rikako 逢田梨香子 Saitou Shuka 斉藤朱夏 Akitoshi Corinn Sotarks Kalibe
BeatmapID:1106776
BeatmapSetID:507355

[Difficulty]
HPDrainRate:6
CircleSize:4
OverallDifficulty:7
ApproachRate:9
SliderMultiplier:1.6
SliderTickRate:1

[Events]
//Background and Video events
Video,994,"Kimeta yo Hand in Hand.avi"
0,0,"BGNitrousInsane.jpg",0,0
//Break Periods
//Storyboard Layer 0 (Background)
//Storyboard Layer 1 (Fail)
//Storyboard Layer 2 (Pass)
//Storyboard Layer 3 (Foreground)
//Storyboard Sound Samples

[TimingPoints]
-72,314.13612565445,4,2,3,40,1,0
870,-111.111111111111,4,2,3,40,0,0
5896,-111.111111111111,4,2,3,50,0,0
6210,-111.111111111111,4,2,3,60,0,0
8723,-111.111111111111,4,2,3,70,0,0
9823,-111.111111111111,4,2,3,80,0,0
10608,-111.111111111111,4,2,1,70,0,0
11236,-100,4,2,1,80,0,1
19875,-100,4,2,1,90,0,1
20189,-100,4,2,1,80,0,1
20660,-100,4,2,1,85,0,1
21132,-100,4,2,1,90,0,1
21446,-100,4,2,1,90,0,1
22545,-100,4,2,1,70,0,0
22859,-100,4,2,1,60,0,0
32598,-100,4,2,1,80,0,0
32912,-100,4,2,1,70,0,0
42650,-100,4,2,1,70,0,0
45163,-100,4,2,1,80,0,0
45477,-100,4,2,1,85,0,0
45791,-100,4,2,1,90,0,0
46420,-100,4,2,1,80,0,0
46734,-100,4,2,1,85,0,0
47048,-100,4,2,1,90,0,0
47676,-111.111111111111,4,2,1,85,0,0
47990,-111.111111111111,4,2,1,60,0,0
56472,-111.111111111111,4,2,1,65,0,0
56786,-111.111111111111,4,2,1,70,0,0
57100,-111.111111111111,4,2,1,75,0,0
57414,-111.111111111111,4,2,1,80,0,0
57729,-111.111111111111,4,2,1,85,0,0
58043,-111.111111111111,4,2,1,60,0,0
62126,-111.111111111111,4,2,1,70,0,0
62441,-111.111111111111,4,2,1,75,0,0
62755,-100,4,2,1,80,0,0
63069,-100,4,2,1,85,0,0
63383,-100,4,2,1,90,0,0
63697,-100,4,2,1,95,0,0
64011,-100,4,2,1,100,0,0
65111,-100,4,2,1,90,0,0
65739,-100,4,2,1,100,0,0
67310,-100,4,2,1,80,0,0
67781,-90.9090909090909,4,2,1,90,0,1
68095,-90.9090909090909,4,2,1,80,0,1
77833,-90.9090909090909,4,2,1,90,0,1
78147,-90.9090909090909,4,2,1,70,0,1
82859,-90.9090909090909,4,2,1,80,0,1
84116,-90.9090909090909,4,2,1,90,0,1
84901,-90.9090909090909,4,2,1,80,0,1
85058,-90.9090909090909,4,2,1,90,0,1
85373,-90.9090909090909,4,2,1,80,0,1
86629,-90.9090909090909,4,2,1,90,0,1
87100,-90.9090909090909,4,2,1,80,0,1
89456,-90.9090909090909,4,2,1,85,0,1
89770,-90.9090909090909,4,2,1,90,0,1
90085,-90.9090909090909,4,2,1,95,0,1
90399,-90.9090909090909,4,2,1,100,0,1
90713,-90.9090909090909,4,2,1,80,0,1
90870,-90.9090909090909,4,2,1,100,0,1
91184,-90.9090909090909,4,2,1,80,0,1
91655,-90.9090909090909,4,2,1,100,0,1
91969,-90.9090909090909,4,2,1,10,0,1
92284,-90.9090909090909,4,2,1,70,0,1
92912,-100,4,2,3,60,0,0
95111,-100,4,2,1,60,0,0
95425,-100,4,2,1,80,0,0
95582,-100,4,2,1,70,0,0
97310,-100,4,2,2,80,0,0
97624,-100,4,2,2,10,0,0
98252,-100,4,2,1,5,0,0

[Colours]
Combo1 : 255,128,64
Combo2 : 128,128,192
Combo3 : 0,128,192

[HitObjects]
137,114,870,6,0,L|217:120,1,71.9999978027344,2|0,0:0|0:0,0:0:0:0:
217,41,1184,2,0,L|290:65,1,71.9999978027344,2|0,0:0|0:0,0:0:0:0:
372,46,1498,1,8,0:0:0:0:
372,46,1655,2,0,P|337:91|377:166,1,143.999995605469,2|0,0:0|0:0,0:0:0:0:
439,228,2126,1,8,0:0:0:0:
339,243,2284,6,0,B|298:250|298:250|250:236|250:236|190:245,1,143.999995605469,2|0,0:0|0:0,0:0:0:0:
137,296,2755,2,0,L|124:216,1,71.9999978027344,2|0,0:0|0:0,0:0:0:0:
46,246,3069,2,0,L|50:174,1,71.9999978027344,2|8,0:0|0:0,0:0:0:0:
70,66,3383,1,8,0:0:0:0:
70,66,3697,6,0,L|157:74,1,71.9999978027344,2|0,0:0|0:0,0:0:0:0:
236,80,4011,1,8,0:0:0:0:
231,169,4168,2,0,L|71:151,1,143.999995605469,2|0,0:0|0:0,0:0:0:0:
70,66,4640,1,8,0:0:0:0:
157,94,4797,6,0,P|172:163|128:230,1,143.999995605469,2|0,0:0|0:0,0:0:0:0:
73,295,5268,2,0,L|151:300,1,71.9999978027344,8|0,0:0|0:0,0:0:0:0:
214,361,5582,1,2,0:0:0:0:
301,317,5739,1,8,0:0:0:0:
221,208,5896,1,12,0:0:0:0:
221,208,6210,6,0,L|137:207,1,71.9999978027344,6|0,0:0|0:0,0:0:0:0:
98,128,6524,1,8,0:0:0:0:
195,133,6681,2,0,B|250:135|250:135|284:152|284:152|343:151,1,143.999995605469,2|0,0:0|0:0,0:0:0:0:
408,207,7153,2,0,P|443:212|479:207,1,71.9999978027344,8|0,0:0|0:0,0:0:0:0:
369,280,7467,6,0,P|333:274|297:279,1,71.9999978027344,2|0,0:0|0:0,0:0:0:0:
228,328,7781,2,0,L|222:246,1,71.9999978027344,8|0,0:0|0:0,0:0:0:0:
177,140,8095,1,2,0:0:0:0:
148,221,8252,1,8,0:0:0:0:
75,112,8409,1,8,0:0:0:0:
80,271,8566,1,2,0:0:0:0:
243,183,8723,6,0,P|279:188|324:184,1,71.9999978027344,6|0,0:0|0:0,0:0:0:0:
245,104,9037,1,8,0:0:0:0:
245,104,9195,2,0,P|180:137|170:211,1,143.999995605469,2|0,0:0|0:0,0:0:0:0:
201,285,9666,1,8,0:0:0:0:
314,185,9823,2,0,B|364:166|364:166|407:170|407:170|460:149,2,143.999995605469,4|4|4,0:0|0:0|0:0,0:0:0:0:
225,203,10608,6,0,L|232:239,1,35.9999989013672,8|0,0:0|0:0,0:0:0:0:
137,188,10765,2,0,L|136:224,1,35.9999989013672,8|0,0:0|0:0,0:0:0:0:
151,98,10922,1,8,0:0:0:0:
181,79,11000,1,8,0:0:0:0:
217,73,11079,1,8,0:0:0:0:
252,80,11157,1,8,0:0:0:0:
280,95,11236,6,0,P|319:100|365:96,1,80,4|0,0:0|0:0,0:0:0:0:
476,166,11551,2,0,P|437:161|391:165,1,80,8|0,0:0|0:0,0:0:0:0:
325,228,11865,1,8,0:0:0:0:
244,175,12022,1,0,0:0:0:0:
169,235,12179,2,0,P|176:275|169:316,1,80,8|0,0:0|0:0,0:0:0:0:
40,315,12493,6,0,P|33:275|40:234,1,80,8|0,0:0|0:0,0:0:0:0:
88,120,12807,2,0,L|172:122,1,80,8|0,0:0|0:0,0:0:0:0:
320,123,13121,2,0,P|252:179|294:248,1,160,8|8,0:0|0:0,0:0:0:0:
353,294,13592,1,2,0:0:0:0:
402,139,13749,6,0,P|395:184|406:226,1,80,4|0,0:0|0:0,0:0:0:0:
486,165,14064,2,0,P|493:125|486:86,1,80,8|0,0:0|0:0,0:0:0:0:
385,35,14378,1,8,0:0:0:0:
298,72,14535,1,0,0:0:0:0:
206,35,14692,2,0,L|211:121,1,80,8|0,0:0|0:0,0:0:0:0:
128,99,15006,6,0,L|146:187,1,80,8|0,0:0|0:0,0:0:0:0:
174,275,15320,1,8,0:0:0:0:
262,216,15477,1,0,0:0:0:0:
322,138,15634,2,0,P|292:202|349:270,1,160,8|8,0:0|0:0,0:0:0:0:
425,302,16106,1,2,0:0:0:0:
414,169,16263,6,0,L|406:68,1,80,4|0,0:0|0:0,0:0:0:0:
337,26,16577,1,8,0:0:0:0:
259,73,16734,1,0,0:0:0:0:
176,111,16891,2,0,P|183:69|175:32,1,80,8|0,0:0|0:0,0:0:0:0:
52,35,17205,2,0,P|43:75|50:112,1,80,8|0,0:0|0:0,0:0:0:0:
108,194,17519,6,0,L|194:200,1,80,8|0,0:0|0:0,0:0:0:0:
171,280,17833,2,0,L|266:266,1,80,8|0,0:0|0:0,0:0:0:0:
364,214,18147,2,0,P|349:150|259:160,1,160,8|8,0:0|0:0,0:0:0:0:
187,199,18619,1,2,0:0:0:0:
40,141,18776,6,0,P|79:147|118:139,1,80,4|0,0:0|0:0,0:0:0:0:
258,71,19090,2,0,P|219:65|181:74,1,80,8|0,0:0|0:0,0:0:0:0:
322,133,19404,2,0,L|412:138,1,80,8|0,0:0|0:0,0:0:0:0:
494,144,19718,1,8,0:0:0:0:
374,209,19875,6,0,L|208:197,1,160,4|0,0:0|0:0,0:0:0:0:
133,145,20346,2,0,P|140:184|133:231,1,80,8|0,0:0|0:0,0:0:0:0:
33,223,20660,2,0,P|26:184|33:137,1,80,8|0,0:0|0:0,0:0:0:0:
82,69,20975,1,8,0:0:0:0:
221,123,21132,6,0,L|387:135,1,160,4|0,0:0|0:0,0:0:0:0:
472,142,21603,2,0,P|479:182|470:224,1,80,8|0,0:0|0:0,0:0:0:0:
403,275,21917,1,8,0:0:0:0:
403,275,21996,1,2,0:0:0:0:
403,275,22074,2,0,L|404:329,1,40,8|0,0:0|0:0,0:0:0:0:
380,134,22231,1,4,0:0:0:0:
380,134,22545,6,0,B|324:137|324:137|277:120|277:120|209:123,1,160,4|8,0:0|0:0,0:0:0:0:
264,197,23017,1,0,0:0:0:0:
345,56,23174,2,0,L|430:53,1,80,2|0,0:0|0:0,0:0:0:0:
276,31,23488,2,0,L|187:28,1,80,8|0,0:0|0:0,0:0:0:0:
107,56,23802,6,0,P|47:89|35:185,1,160,2|8,0:0|0:0,0:0:0:0:
119,147,24273,2,0,L|279:158,1,160,2|0,0:0|0:0,0:0:0:0:
373,104,24744,2,0,P|356:147|360:184,1,80,8|0,0:0|0:0,0:0:0:0:
438,204,25058,6,0,P|367:201|338:279,1,160,2|8,0:0|0:0,0:0:0:0:
338,356,25530,1,0,0:0:0:0:
250,355,25687,2,0,L|164:352,1,80,2|0,0:0|0:0,0:0:0:0:
256,271,26001,2,0,L|345:274,1,80,8|0,0:0|0:0,0:0:0:0:
459,253,26315,6,0,P|393:250|362:165,1,160,2|8,0:0|0:0,0:0:0:0:
423,101,26786,2,0,L|259:93,1,160,2|0,0:0|0:0,0:0:0:0:
219,30,27257,1,8,0:0:0:0:
126,62,27414,1,0,0:0:0:0:
219,163,27571,6,0,B|278:167|278:167|317:191|317:191|379:195,1,160,4|8,0:0|0:0,0:0:0:0:
345,115,28043,1,0,0:0:0:0:
250,241,28200,2,0,L|165:237,1,80,2|0,0:0|0:0,0:0:0:0:
296,308,28514,2,0,L|384:313,1,80,8|0,0:0|0:0,0:0:0:0:
463,353,28828,5,2,0:0:0:0:
463,353,28985,1,2,0:0:0:0:
463,244,29142,2,0,P|395:220|379:131,1,160,8|2,0:0|0:0,0:0:0:0:
379,45,29613,1,2,0:0:0:0:
212,111,29770,2,0,P|252:116|295:110,1,80,8|0,0:0|0:0,0:0:0:0:
197,36,30085,6,0,P|139:90|168:173,1,160,2|8,0:0|0:0,0:0:0:0:
205,242,30556,1,0,0:0:0:0:
351,191,30713,2,0,P|311:186|268:192,1,80,2|0,0:0|0:0,0:0:0:0:
309,262,31027,1,8,0:0:0:0:
302,111,31184,1,0,0:0:0:0:
205,242,31341,2,0,P|198:202|202:163,1,80,2|0,0:0|0:0,0:0:0:0:
300,33,31655,2,0,P|306:72|302:111,1,80,8|0,0:0|0:0,0:0:0:0:
200,123,31969,6,0,L|202:167,1,40,8|0,0:0|0:0,0:0:0:0:
119,121,32126,2,0,L|120:167,1,40,8|0,0:0|0:0,0:0:0:0:
115,255,32284,1,8,0:0:0:0:
144,266,32362,1,8,0:0:0:0:
174,278,32441,1,8,0:0:0:0:
204,290,32519,1,8,0:0:0:0:
234,300,32598,6,0,L|393:304,1,160,4|8,0:0|0:0,0:0:0:0:
483,315,33069,1,0,0:0:0:0:
412,232,33226,2,0,L|329:230,1,80,2|0,0:0|0:0,0:0:0:0:
207,162,33540,2,0,L|290:166,1,80,8|0,0:0|0:0,0:0:0:0:
190,85,33854,6,0,P|130:146|157:222,1,160,2|8,0:0|0:0,0:0:0:0:
224,289,34325,2,0,B|274:282|274:282|328:293|328:293|397:282,1,160,4|0,0:0|0:0,0:0:0:0:
488,338,34797,2,0,L|408:350,1,80,8|4,0:0|0:0,0:0:0:0:
261,365,35111,6,0,P|302:298|270:222,1,160,8|8,0:0|0:0,0:0:0:0:
199,175,35582,1,0,0:0:0:0:
268,106,35739,2,0,P|308:99|358:108,1,80,2|0,0:0|0:0,0:0:0:0:
354,225,36053,2,0,P|314:232|264:223,1,80,8|0,0:0|0:0,0:0:0:0:
147,108,36367,6,0,P|113:168|151:247,1,160,2|8,0:0|0:0,0:0:0:0:
228,308,36838,2,0,L|395:300,1,160,2|0,0:0|0:0,0:0:0:0:
472,226,37310,2,0,L|389:230,1,80,8|0,0:0|0:0,0:0:0:0:
272,234,37624,6,0,P|315:297|288:377,1,160,4|8,0:0|0:0,0:0:0:0:
228,308,38095,1,0,0:0:0:0:
86,253,38252,2,0,P|127:246|170:252,1,80,2|0,0:0|0:0,0:0:0:0:
104,163,38566,2,0,P|63:170|20:164,1,80,8|0,0:0|0:0,0:0:0:0:
68,92,38880,5,2,0:0:0:0:
68,92,39037,1,2,0:0:0:0:
188,177,39195,2,0,L|364:164,1,160,8|2,0:0|0:0,0:0:0:0:
433,157,39666,1,2,0:0:0:0:
374,85,39823,2,0,L|290:92,1,80,8|0,0:0|0:0,0:0:0:0:
201,98,40137,6,0,P|264:157|242:237,1,160,2|8,0:0|0:0,0:0:0:0:
217,299,40608,1,0,0:0:0:0:
292,353,40765,2,0,L|377:350,1,80,2|0,0:0|0:0,0:0:0:0:
461,361,41079,2,0,P|450:323|448:271,1,80,8|0,0:0|0:0,0:0:0:0:
443,175,41393,6,0,P|427:246|330:260,1,160,2|8,0:0|0:0,0:0:0:0:
272,204,41865,1,0,0:0:0:0:
229,294,42022,2,0,L|214:127,1,160,2|8,0:0|0:0,0:0:0:0:
207,53,42493,1,0,0:0:0:0:
373,103,42650,6,0,P|334:111|295:108,1,80,4|0,0:0|0:0,0:0:0:0:
326,34,42964,1,8,0:0:0:0:
411,169,43121,1,0,0:0:0:0:
358,308,43278,2,0,P|364:268|357:229,1,80,8|0,0:0|0:0,0:0:0:0:
307,163,43592,2,0,L|221:176,1,80,8|0,0:0|0:0,0:0:0:0:
106,226,43907,6,0,L|189:238,1,80,8|0,0:0|0:0,0:0:0:0:
276,356,44221,2,0,L|273:261,1,80,8|0,0:0|0:0,0:0:0:0:
302,81,44535,2,0,P|370:117|376:203,1,160,8|8,0:0|0:0,0:0:0:0:
371,286,45006,1,0,0:0:0:0:
150,267,45163,6,0,L|70:264,1,80,8|0,0:0|0:0,0:0:0:0:
145,157,45477,1,8,0:0:0:0:
274,209,45634,6,0,L|264:292,1,80,8|0,0:0|0:0,0:0:0:0:
145,157,45948,1,8,0:0:0:0:
218,33,46106,6,0,L|307:40,1,80,8|0,0:0|0:0,0:0:0:0:
412,81,46420,5,8,0:0:0:0:
450,194,46577,1,2,0:0:0:0:
340,144,46734,1,8,0:0:0:0:
372,259,46891,1,2,0:0:0:0:
189,239,47048,2,0,P|228:245|267:241,1,80,8|0,0:0|0:0,0:0:0:0:
129,175,47362,2,0,P|87:168|43:175,1,80,8|0,0:0|0:0,0:0:0:0:
226,326,47676,6,0,B|271:333|271:333|320:322|320:322|375:329,1,143.999995605469,4|2,0:0|0:0,0:0:0:0:
463,337,48147,1,0,0:0:0:0:
366,254,48304,2,0,B|318:247|318:247|269:258|269:258|221:253,1,143.999995605469,8|0,0:0|0:0,0:0:0:0:
56,219,48933,6,0,P|132:185|150:117,1,143.999995605469,8|2,0:0|0:0,0:0:0:0:
95,42,49404,2,0,B|140:53|140:53|178:43|178:43|246:56,1,143.999995605469,8|0,0:0|0:0,0:0:0:0:
332,74,49875,1,2,0:0:0:0:
421,197,50032,1,8,0:0:0:0:
421,197,50111,1,8,0:0:0:0:
421,197,50189,6,0,P|429:161|420:110,1,71.9999978027344,4|0,0:0|0:0,0:0:0:0:
309,216,50503,1,8,0:0:0:0:
309,216,50582,1,8,0:0:0:0:
309,216,50660,1,8,0:0:0:0:
309,216,50739,1,8,0:0:0:0:
309,216,50818,2,0,L|232:226,1,71.9999978027344,4|0,0:0|0:0,0:0:0:0:
82,154,51132,1,8,0:0:0:0:
82,154,51210,1,8,0:0:0:0:
82,154,51289,1,8,0:0:0:0:
82,154,51368,1,8,0:0:0:0:
82,154,51447,6,0,L|156:161,1,71.9999978027344,4|0,0:0|0:0,0:0:0:0:
244,51,51759,1,8,0:0:0:0:
244,51,51838,1,8,0:0:0:0:
244,51,51916,1,8,0:0:0:0:
244,51,51995,1,8,0:0:0:0:
243,51,52074,2,0,P|237:86|241:121,1,71.9999978027344,4|0,0:0|0:0,0:0:0:0:
378,121,52388,2,0,P|381:80|370:34,1,71.9999978027344,8|0,0:0|0:0,0:0:0:0:
303,184,52702,6,0,P|242:209|172:173,1,143.999995605469,4|2,0:0|0:0,0:0:0:0:
96,120,53174,1,0,0:0:0:0:
39,177,53331,2,0,B|27:221|27:221|36:318,1,143.999995605469,8|0,0:0|0:0,0:0:0:0:
149,334,53959,2,0,L|239:340,1,71.9999978027344,8|2,0:0|0:0,0:0:0:0:
299,343,54273,1,2,0:0:0:0:
396,357,54430,2,0,P|335:329|335:252,1,143.999995605469,8|0,0:0|0:0,0:0:0:0:
359,170,54901,1,2,0:0:0:0:
257,79,55058,1,8,0:0:0:0:
257,79,55137,1,8,0:0:0:0:
257,79,55215,6,0,L|110:71,1,143.999995605469,4|2,0:0|0:0,0:0:0:0:
26,66,55687,1,0,0:0:0:0:
97,152,55844,2,0,L|184:157,1,71.9999978027344,8|0,0:0|0:0,0:0:0:0:
312,216,56158,2,0,L|228:226,1,71.9999978027344,8|0,0:0|0:0,0:0:0:0:
160,235,56472,5,8,0:0:0:0:
159,326,56629,1,2,0:0:0:0:
74,186,56786,1,8,0:0:0:0:
30,313,56943,1,2,0:0:0:0:
164,135,57100,2,0,P|199:140|254:131,1,71.9999978027344,8|0,0:0|0:0,0:0:0:0:
375,192,57414,2,0,P|340:187|285:196,1,71.9999978027344,8|0,0:0|0:0,0:0:0:0:
158,325,57729,6,0,P|74:316|40:271,1,143.999995605469,4|2,0:0|0:0,0:0:0:0:
36,185,58200,1,0,0:0:0:0:
125,241,58357,2,0,L|275:232,1,143.999995605469,8|0,0:0|0:0,0:0:0:0:
423,142,58985,6,0,L|273:151,1,143.999995605469,8|2,0:0|0:0,0:0:0:0:
166,168,59456,2,0,P|253:188|268:243,1,143.999995605469,8|0,0:0|0:0,0:0:0:0:
410,241,59927,1,8,0:0:0:0:
410,241,60006,1,8,0:0:0:0:
410,241,60085,1,8,0:0:0:0:
417,249,60163,1,8,0:0:0:0:
417,249,60242,6,0,P|410:210|415:168,1,71.9999978027344,4|0,0:0|0:0,0:0:0:0:
325,78,60556,1,8,0:0:0:0:
325,78,60634,1,8,0:0:0:0:
325,78,60713,1,8,0:0:0:0:
325,78,60791,1,8,0:0:0:0:
325,78,60870,2,0,P|332:117|326:155,1,71.9999978027344,4|0,0:0|0:0,0:0:0:0:
166,203,61184,5,8,0:0:0:0:
166,203,61263,1,8,0:0:0:0:
166,203,61341,1,8,0:0:0:0:
166,203,61420,1,8,0:0:0:0:
166,203,61498,6,0,L|253:209,1,71.9999978027344,4|0,0:0|0:0,0:0:0:0:
387,270,61812,1,8,0:0:0:0:
387,270,61891,1,8,0:0:0:0:
387,270,61969,1,8,0:0:0:0:
387,270,62048,1,8,0:0:0:0:
387,270,62126,2,0,L|303:286,1,71.9999978027344,4|0,0:0|0:0,0:0:0:0:
175,322,62441,2,0,L|261:340,1,71.9999978027344,8|0,0:0|0:0,0:0:0:0:
150,240,62755,6,0,P|92:231|79:137,1,160,4|8,0:0|0:0,0:0:0:0:
67,56,63226,1,2,0:0:0:0:
155,154,63383,1,8,0:0:0:0:
214,34,63540,1,2,0:0:0:0:
279,182,63697,1,8,0:0:0:0:
145,73,63854,1,2,0:0:0:0:
327,113,64011,6,0,B|380:122|380:122|430:115|430:115|497:126,1,160,4|2,0:0|0:0,0:0:0:0:
283,42,64482,2,0,P|313:123|264:191,1,160,4|4,0:0|0:0,0:0:0:0:
485,124,65111,1,2,0:0:0:0:
203,181,65268,6,0,P|195:221|208:266,1,80,8|0,0:0|0:0,0:0:0:0:
277,216,65582,1,2,0:0:0:0:
135,139,65739,2,0,P|113:227|139:303,1,160,4|2,0:0|0:0,0:0:0:0:
277,216,66210,1,8,0:0:0:0:
320,289,66367,1,2,0:0:0:0:
373,135,66524,1,4,0:0:0:0:
361,135,67310,5,2,0:0:0:0:
287,267,67467,2,0,L|206:269,1,80,8|0,0:0|0:0,0:0:0:0:
410,211,67781,6,0,B|346:212|346:212|300:193|300:193|228:195,1,176.000005371094,4|8,0:0|0:0,0:0:0:0:
132,196,68252,1,0,0:0:0:0:
69,36,68409,2,0,P|58:82|67:128,1,88.000002685547,8|0,0:0|0:0,0:0:0:0:
150,83,68723,1,8,0:0:0:0:
317,53,68880,1,0,0:0:0:0:
225,177,69037,5,8,0:0:0:0:
388,120,69195,1,0,0:0:0:0:
221,38,69352,1,8,0:0:0:0:
329,209,69509,1,0,0:0:0:0:
481,275,69666,2,0,P|436:282|383:272,1,88.000002685547,8|0,0:0|0:0,0:0:0:0:
232,335,69980,2,0,P|277:328|330:338,1,88.000002685547,8|0,0:0|0:0,0:0:0:0:
189,260,70294,6,0,P|109:240|96:158,1,176.000005371094,4|8,0:0|0:0,0:0:0:0:
97,62,70765,1,0,0:0:0:0:
281,124,70922,2,0,P|235:132|190:122,1,88.000002685547,2|0,0:0|0:0,0:0:0:0:
346,52,71236,1,8,0:0:0:0:
432,294,71393,6,0,P|458:216|428:123,1,176.000005371094,4|0,0:0|0:0,0:0:0:0:
331,181,71865,1,2,0:0:0:0:
225,126,72022,1,4,0:0:0:0:
107,159,72179,6,0,L|107:116,1,44.0000013427735,8|0,0:0|0:0,0:0:0:0:
8,225,72336,2,0,L|8:181,1,44.0000013427735,8|0,0:0|0:0,0:0:0:0:
72,310,72493,1,8,0:0:0:0:
111,327,72571,1,8,0:0:0:0:
155,329,72650,1,8,0:0:0:0:
197,316,72728,1,8,0:0:0:0:
238,299,72807,6,0,B|292:307|292:307|345:290|345:290|423:307,1,176.000005371094,4|8,0:0|0:0,0:0:0:0:
352,366,73278,1,0,0:0:0:0:
283,231,73435,2,0,L|181:218,1,88.000002685547,8|0,0:0|0:0,0:0:0:0:
25,194,73749,1,8,0:0:0:0:
101,117,73907,1,0,0:0:0:0:
88,284,74064,5,8,0:0:0:0:
189,137,74221,1,0,0:0:0:0:
180,340,74378,1,8,0:0:0:0:
115,204,74535,1,0,0:0:0:0:
220,259,74692,2,0,P|263:269|315:259,1,88.000002685547,8|0,0:0|0:0,0:0:0:0:
476,193,75006,2,0,P|433:183|381:193,1,88.000002685547,8|0,0:0|0:0,0:0:0:0:
172,337,75320,6,0,P|136:257|170:171,1,176.000005371094,4|8,0:0|0:0,0:0:0:0:
253,252,75791,2,0,L|431:246,1,176.000005371094,4|4,0:0|0:0,0:0:0:0:
346,106,76263,1,8,0:0:0:0:
262,336,76420,6,0,P|237:274|131:257,1,176.000005371094,4|2,0:0|0:0,0:0:0:0:
42,344,76891,2,0,P|34:300|48:244,1,88.000002685547,8|0,0:0|0:0,0:0:0:0:
62,83,77205,6,0,L|63:137,1,44.0000013427735,8|0,0:0|0:0,0:0:0:0:
144,80,77362,2,0,L|147:134,1,44.0000013427735,8|0,0:0|0:0,0:0:0:0:
153,217,77519,1,8,0:0:0:0:
193,235,77598,1,8,0:0:0:0:
231,256,77676,1,8,0:0:0:0:
270,276,77755,1,8,0:0:0:0:
308,292,77833,6,0,L|405:294,1,88.000002685547,4|0,0:0|0:0,0:0:0:0:
480,199,78147,2,0,L|384:185,1,88.000002685547,8|0,0:0|0:0,0:0:0:0:
245,153,78462,2,0,P|298:187|304:301,1,176.000005371094,2|8,0:0|0:0,0:0:0:0:
240,348,78933,1,0,0:0:0:0:
79,294,79090,6,0,P|121:286|171:294,1,88.000002685547,2|0,0:0|0:0,0:0:0:0:
366,142,79404,2,0,P|357:184|367:239,1,88.000002685547,8|0,0:0|0:0,0:0:0:0:
476,325,79718,2,0,B|420:301|420:301|360:310|360:310|307:291,1,176.000005371094,2|8,0:0|0:0,0:0:0:0:
189,217,80189,1,0,0:0:0:0:
440,148,80346,6,0,B|376:156|376:156|324:142|324:142|267:153,1,176.000005371094,4|2,0:0|0:0,0:0:0:0:
440,232,80818,2,0,B|376:240|376:240|324:226|324:226|267:237,1,176.000005371094,4|2,0:0|0:0,0:0:0:0:
179,257,81289,1,2,0:0:0:0:
166,97,81446,1,4,0:0:0:0:
101,234,81603,5,2,0:0:0:0:
63,90,81760,1,0,0:0:0:0:
219,197,81917,1,8,0:0:0:0:
256,35,82074,1,0,0:0:0:0:
324,217,82231,2,0,L|376:212,1,44.0000013427735,8|0,0:0|0:0,0:0:0:0:
487,120,82388,2,0,L|427:124,1,44.0000013427735,8|0,0:0|0:0,0:0:0:0:
360,53,82545,1,8,0:0:0:0:
144,229,82859,6,0,B|136:169|136:169|146:105,2,117.333336914063,8|8|8,0:0|0:0|0:0,0:0:0:0:
368,229,83488,2,0,B|376:169|376:169|366:105,2,117.333336914063,8|8|8,0:0|0:0|0:0,0:0:0:0:
251,344,84116,1,8,0:0:0:0:
70,129,84901,5,2,0:0:0:0:
223,68,85058,2,0,P|161:51|123:61,1,88.000002685547,8|0,0:0|0:0,0:0:0:0:
167,151,85373,6,0,B|155:206|155:206|166:266,2,117.333336914063,8|8|8,0:0|0:0|0:0,0:0:0:0:
397,152,86001,2,0,B|408:212|408:212|393:277,2,117.333336914063,8|8|8,0:0|0:0|0:0,0:0:0:0:
271,41,86629,1,8,0:0:0:0:
217,306,87100,5,2,0:0:0:0:
78,228,87257,2,0,L|172:240,1,88.000002685547,8|0,0:0|0:0,0:0:0:0:
30,144,87571,2,0,L|119:157,1,88.000002685547,8|0,0:0|0:0,0:0:0:0:
364,100,87886,6,0,P|322:109|269:101,1,88.000002685547,8|0,0:0|0:0,0:0:0:0:
194,66,88200,1,2,0:0:0:0:
413,18,88357,2,0,P|449:74|419:175,1,176.000005371094,8|0,0:0|0:0,0:0:0:0:
338,240,88828,1,8,0:0:0:0:
235,201,88985,1,0,0:0:0:0:
3,126,89142,6,0,L|183:129,1,176.000005371094,8|2,0:0|0:0,0:0:0:0:
125,53,89613,1,2,0:0:0:0:
90,217,89770,1,2,0:0:0:0:
271,151,89927,1,2,0:0:0:0:
218,295,90085,1,2,0:0:0:0:
101,129,90242,1,2,0:0:0:0:
343,195,90399,6,0,P|368:250|476:237,1,176.000005371094,4|8,0:0|0:0,0:0:0:0:
271,151,90870,2,0,B|214:138|214:138|154:147|154:147|95:127,1,176.000005371094,4|0,0:0|0:0,0:0:0:0:
157,63,91341,1,8,0:0:0:0:
214,223,91498,1,0,0:0:0:0:
348,77,91655,6,0,P|469:158|340:226,1,352.000010742188,4|0,0:0|0:0,0:0:0:0:
385,154,92441,1,2,0:0:0:0:
148,76,92598,1,8,0:0:0:0:
148,76,92912,5,2,0:0:0:0:
148,76,93069,2,0,L|244:84,1,80
220,172,93383,1,2,0:0:0:0:
314,138,93540,1,0,0:0:0:0:
464,204,93697,2,0,L|380:206,1,80,2|0,0:0|0:0,0:0:0:0:
269,313,94011,2,0,L|363:319,1,80,2|0,0:0|0:0,0:0:0:0:
208,251,94325,6,0,P|150:211|153:126,1,160,2|0,0:0|0:0,0:0:0:0:
243,13,94797,2,0,L|219:171,1,160,2|8,0:0|0:0,0:0:0:0:
95,328,95425,5,8,0:0:0:0:
121,182,95582,1,8,0:0:0:0:
121,182,95739,1,2,0:0:0:0:
210,281,95896,2,0,L|297:285,1,80,8|0,0:0|0:0,0:0:0:0:
455,336,96210,2,0,L|365:334,1,80,8|0,0:0|0:0,0:0:0:0:
461,196,96524,1,8,0:0:0:0:
461,196,96838,2,0,L|301:190,1,160,8|8,0:0|0:0,0:0:0:0:
213,131,97310,6,0,P|406:184|250:284,1,480,4|0,0:0|0:0,0:0:0:0:
