osu file format v14

[General]
AudioFilename: Acuatics.mp3
AudioLeadIn: 0
PreviewTime: 73465
Countdown: 0
SampleSet: Normal
StackLeniency: 0.7
Mode: 1
LetterboxInBreaks: 0
WidescreenStoryboard: 0

[Editor]
Bookmarks: 5471,21471,37471,53471,65471,73471,89471,103471,111471,115221
DistanceSpacing: 1.2
BeatDivisor: 4
GridSize: 16
TimelineZoom: 1.6

[Metadata]
Title:Jingle Bells ga Tomaranai
TitleUnicode:ジングルベルが止まらない
Artist:Aqours
ArtistUnicode:Aqours
Creator:xtrem3x
Version:Oni
Source:ラブライブ!スクールアイドルフェスティバル
Tags:Love Live! School idol festival SIF christmas xmas december Mitsumasu Hajime EFFY Hata Aki
BeatmapID:1131329
BeatmapSetID:533160

[Difficulty]
HPDrainRate:6
CircleSize:5
OverallDifficulty:6
ApproachRate:6
SliderMultiplier:1.4
SliderTickRate:3

[Events]
//Background and Video events
0,0,"BG-Xmas.jpg",0,70
//Break Periods
//Storyboard Layer 0 (Background)
//Storyboard Layer 1 (Fail)
//Storyboard Layer 2 (Pass)
//Storyboard Layer 3 (Foreground)
//Storyboard Sound Samples

[TimingPoints]
1470,250,4,1,0,80,1,0
1470,-100,4,1,0,80,0,0
73470,-100,4,1,0,80,0,1
103470,-100,4,1,0,80,0,0

[HitObjects]
256,192,1470,5,4,0:0:0:0:
256,192,3220,1,0,0:0:0:0:
256,192,3282,1,0,0:0:0:0:
256,192,3345,1,0,0:0:0:0:
256,192,3470,1,4,0:0:0:0:
256,192,4470,1,0,0:0:0:0:
256,192,4720,1,0,0:0:0:0:
256,192,4970,1,0,0:0:0:0:
256,192,5095,1,0,0:0:0:0:
256,192,5220,1,0,0:0:0:0:
256,192,5470,1,8,0:0:0:0:
256,192,5720,1,8,0:0:0:0:
256,192,5970,1,0,0:0:0:0:
256,192,6470,1,8,0:0:0:0:
256,192,6720,1,8,0:0:0:0:
256,192,6970,1,0,0:0:0:0:
256,192,7095,1,0,0:0:0:0:
256,192,7220,1,0,0:0:0:0:
256,192,7470,1,8,0:0:0:0:
256,192,7720,1,0,0:0:0:0:
256,192,7845,1,8,0:0:0:0:
256,192,8095,1,8,0:0:0:0:
256,192,8220,1,4,0:0:0:0:
256,192,8720,1,0,0:0:0:0:
256,192,9220,1,0,0:0:0:0:
256,192,9345,1,0,0:0:0:0:
256,192,9470,1,8,0:0:0:0:
256,192,9720,1,8,0:0:0:0:
256,192,9970,1,0,0:0:0:0:
256,208,10220,1,0,0:0:0:0:
256,192,10470,1,0,0:0:0:0:
256,208,10595,1,8,0:0:0:0:
256,192,10720,1,0,0:0:0:0:
256,192,10970,1,0,0:0:0:0:
256,192,11095,1,8,0:0:0:0:
256,192,11220,1,0,0:0:0:0:
256,192,11470,1,8,0:0:0:0:
256,192,11720,1,0,0:0:0:0:
256,192,11970,1,8,0:0:0:0:
256,192,12220,1,8,0:0:0:0:
256,192,12720,1,0,0:0:0:0:
256,208,13095,1,0,0:0:0:0:
256,208,13220,1,0,0:0:0:0:
256,192,13470,1,8,0:0:0:0:
256,192,13720,1,8,0:0:0:0:
256,192,13970,1,0,0:0:0:0:
256,192,14470,1,8,0:0:0:0:
256,192,14720,1,8,0:0:0:0:
240,192,14970,1,0,0:0:0:0:
256,192,15095,1,0,0:0:0:0:
256,192,15220,1,0,0:0:0:0:
256,192,15470,1,8,0:0:0:0:
256,192,15720,1,8,0:0:0:0:
256,192,15970,1,0,0:0:0:0:
256,192,16220,1,12,0:0:0:0:
256,192,16720,1,0,0:0:0:0:
256,192,17095,1,0,0:0:0:0:
240,192,17220,1,0,0:0:0:0:
256,192,17470,1,8,0:0:0:0:
256,192,17720,1,0,0:0:0:0:
256,192,17970,1,8,0:0:0:0:
256,192,18220,1,0,0:0:0:0:
256,192,18470,1,8,0:0:0:0:
256,192,18720,1,0,0:0:0:0:
240,192,18845,1,8,0:0:0:0:
256,192,19095,1,0,0:0:0:0:
240,192,19220,1,8,0:0:0:0:
256,192,19470,1,8,0:0:0:0:
256,192,20720,1,0,0:0:0:0:
256,192,21470,1,0,0:0:0:0:
256,192,21720,1,0,0:0:0:0:
256,192,21845,1,0,0:0:0:0:
256,192,21970,1,8,0:0:0:0:
256,192,22220,1,0,0:0:0:0:
256,192,22470,1,8,0:0:0:0:
272,192,22720,1,8,0:0:0:0:
256,192,22845,1,0,0:0:0:0:
256,192,22970,1,8,0:0:0:0:
256,192,23220,1,8,0:0:0:0:
256,192,23470,1,0,0:0:0:0:
256,192,23720,1,0,0:0:0:0:
256,192,23845,1,0,0:0:0:0:
256,192,23970,1,0,0:0:0:0:
256,192,24220,1,8,0:0:0:0:
256,192,24720,1,0,0:0:0:0:
256,192,24970,1,0,0:0:0:0:
240,192,25220,1,0,0:0:0:0:
256,192,25470,1,8,0:0:0:0:
256,192,25720,1,0,0:0:0:0:
256,192,25845,1,0,0:0:0:0:
272,192,25970,1,0,0:0:0:0:
256,192,26220,1,8,0:0:0:0:
256,192,26720,1,0,0:0:0:0:
256,192,26970,1,0,0:0:0:0:
256,192,27220,1,0,0:0:0:0:
256,192,27470,1,8,0:0:0:0:
272,192,27720,1,0,0:0:0:0:
272,192,27845,1,0,0:0:0:0:
272,192,27970,1,0,0:0:0:0:
256,192,28220,1,0,0:0:0:0:
256,192,28720,1,0,0:0:0:0:
256,192,28970,1,0,0:0:0:0:
256,176,29095,1,0,0:0:0:0:
256,192,29220,1,0,0:0:0:0:
256,192,29470,1,0,0:0:0:0:
256,192,29970,1,8,0:0:0:0:
256,176,30220,1,0,0:0:0:0:
256,192,30470,1,8,0:0:0:0:
240,192,30720,1,8,0:0:0:0:
240,192,30845,1,8,0:0:0:0:
256,192,30970,1,0,0:0:0:0:
272,192,31220,1,0,0:0:0:0:
256,192,31470,1,8,0:0:0:0:
256,176,31720,1,8,0:0:0:0:
256,192,31970,1,0,0:0:0:0:
256,192,32220,1,12,0:0:0:0:
240,192,32720,1,0,0:0:0:0:
240,192,32970,1,0,0:0:0:0:
256,192,33095,1,0,0:0:0:0:
256,192,33220,1,0,0:0:0:0:
256,192,33470,1,8,0:0:0:0:
256,192,33970,1,8,0:0:0:0:
240,192,34220,1,8,0:0:0:0:
240,192,34345,1,8,0:0:0:0:
256,192,34470,1,0,0:0:0:0:
240,192,34720,1,0,0:0:0:0:
256,192,34845,1,0,0:0:0:0:
256,192,34970,1,0,0:0:0:0:
256,192,35220,1,0,0:0:0:0:
256,192,35470,1,8,0:0:0:0:
240,192,35720,1,0,0:0:0:0:
240,192,35845,1,8,0:0:0:0:
240,192,36095,1,0,0:0:0:0:
240,192,36220,1,8,0:0:0:0:
240,192,36595,1,8,0:0:0:0:
240,192,36970,1,0,0:0:0:0:
251,193,37220,1,0,0:0:0:0:
256,192,37470,1,0,0:0:0:0:
256,192,37595,1,8,0:0:0:0:
256,192,37720,1,0,0:0:0:0:
256,192,37970,1,8,0:0:0:0:
256,192,38220,1,0,0:0:0:0:
256,192,38470,1,8,0:0:0:0:
256,192,38595,1,0,0:0:0:0:
256,192,38720,1,8,0:0:0:0:
256,192,38970,1,0,0:0:0:0:
256,192,39220,1,0,0:0:0:0:
256,192,39470,1,8,0:0:0:0:
256,192,39720,1,0,0:0:0:0:
256,192,39845,1,0,0:0:0:0:
256,192,39970,1,0,0:0:0:0:
256,192,40220,1,8,0:0:0:0:
272,192,40720,1,0,0:0:0:0:
272,192,40845,1,0,0:0:0:0:
272,192,40970,1,0,0:0:0:0:
272,192,41220,1,0,0:0:0:0:
256,192,41470,1,8,0:0:0:0:
272,192,41720,1,0,0:0:0:0:
256,192,41845,1,0,0:0:0:0:
256,192,41970,1,8,0:0:0:0:
256,192,42220,1,8,0:0:0:0:
256,192,42720,1,8,0:0:0:0:
256,192,42970,1,8,0:0:0:0:
272,192,43220,1,0,0:0:0:0:
256,192,43470,1,8,0:0:0:0:
256,192,43970,1,0,0:0:0:0:
272,192,44220,1,0,0:0:0:0:
256,192,44470,1,8,0:0:0:0:
256,192,44720,1,8,0:0:0:0:
256,192,44970,1,8,0:0:0:0:
256,192,45095,1,8,0:0:0:0:
256,192,45220,1,8,0:0:0:0:
256,192,45470,1,0,0:0:0:0:
256,192,45720,1,0,0:0:0:0:
256,192,45845,1,0,0:0:0:0:
256,192,45970,1,8,0:0:0:0:
256,192,46220,1,0,0:0:0:0:
256,192,46470,1,8,0:0:0:0:
256,192,46720,1,8,0:0:0:0:
256,192,46845,1,0,0:0:0:0:
256,192,46970,1,8,0:0:0:0:
256,192,47470,1,8,0:0:0:0:
256,192,47720,1,8,0:0:0:0:
256,192,47970,1,0,0:0:0:0:
256,192,48220,1,12,0:0:0:0:
256,192,48720,1,8,0:0:0:0:
256,192,48970,1,0,0:0:0:0:
256,192,49220,1,0,0:0:0:0:
256,192,49470,1,8,0:0:0:0:
256,192,49720,1,0,0:0:0:0:
256,192,49845,1,0,0:0:0:0:
256,192,49970,1,8,0:0:0:0:
256,192,50220,1,0,0:0:0:0:
256,192,50470,1,8,0:0:0:0:
256,192,50720,1,0,0:0:0:0:
256,192,50845,1,0,0:0:0:0:
256,192,50970,1,0,0:0:0:0:
256,192,51220,1,0,0:0:0:0:
256,192,51470,1,8,0:0:0:0:
256,192,51720,1,0,0:0:0:0:
256,192,51845,1,8,0:0:0:0:
256,192,52095,1,0,0:0:0:0:
256,192,52220,1,8,0:0:0:0:
256,192,52595,1,0,0:0:0:0:
256,192,52970,1,0,0:0:0:0:
256,176,53220,1,0,0:0:0:0:
256,192,53470,1,0,0:0:0:0:
256,192,53595,1,0,0:0:0:0:
240,176,53720,1,0,0:0:0:0:
256,192,53970,1,0,0:0:0:0:
256,192,54220,1,8,0:0:0:0:
256,192,54345,1,8,0:0:0:0:
256,192,54470,1,8,0:0:0:0:
256,192,54720,1,8,0:0:0:0:
256,192,55220,1,0,0:0:0:0:
256,192,55345,1,0,0:0:0:0:
256,192,55470,1,8,0:0:0:0:
256,192,55720,1,0,0:0:0:0:
256,192,55970,1,8,0:0:0:0:
256,192,56220,1,4,0:0:0:0:
256,192,57136,1,0,0:0:0:0:
256,192,57220,1,0,0:0:0:0:
256,192,57470,1,8,0:0:0:0:
256,192,57720,1,0,0:0:0:0:
256,192,57845,1,0,0:0:0:0:
256,192,57970,1,8,0:0:0:0:
256,192,58220,1,0,0:0:0:0:
256,192,58470,1,0,0:0:0:0:
256,192,58595,1,8,0:0:0:0:
256,192,58720,1,0,0:0:0:0:
256,192,58970,1,0,0:0:0:0:
272,192,59220,1,0,0:0:0:0:
256,192,59470,1,8,0:0:0:0:
256,192,59720,1,0,0:0:0:0:
256,192,59970,1,8,0:0:0:0:
256,192,60220,1,12,0:0:0:0:
256,192,60595,1,8,0:0:0:0:
256,192,60970,1,8,0:0:0:0:
256,192,61220,1,8,0:0:0:0:
256,192,61470,1,0,0:0:0:0:
256,192,61595,1,0,0:0:0:0:
256,192,61720,1,0,0:0:0:0:
256,192,61970,1,0,0:0:0:0:
256,192,62220,1,8,0:0:0:0:
256,192,62345,1,8,0:0:0:0:
256,192,62470,1,8,0:0:0:0:
256,192,62720,1,8,0:0:0:0:
256,192,63220,1,8,0:0:0:0:
256,192,63470,1,4,0:0:0:0:
256,192,63970,1,0,0:0:0:0:
256,192,64220,1,12,0:0:0:0:
256,192,64720,1,0,0:0:0:0:
256,192,64970,1,8,0:0:0:0:
256,192,65095,1,8,0:0:0:0:
256,192,65220,1,8,0:0:0:0:
256,192,65470,1,0,0:0:0:0:
272,208,65720,1,0,0:0:0:0:
256,192,65970,1,8,0:0:0:0:
272,192,66220,1,0,0:0:0:0:
256,192,66345,1,0,0:0:0:0:
256,192,66470,1,8,0:0:0:0:
256,192,66845,1,8,0:0:0:0:
240,192,67220,1,0,0:0:0:0:
256,192,67470,1,8,0:0:0:0:
240,192,67720,1,0,0:0:0:0:
256,192,67970,1,0,0:0:0:0:
272,176,68095,1,0,0:0:0:0:
240,192,68220,1,0,0:0:0:0:
256,192,68470,1,8,0:0:0:0:
240,176,68845,1,8,0:0:0:0:
256,192,69220,1,8,0:0:0:0:
256,192,69470,1,8,0:0:0:0:
240,192,69720,1,0,0:0:0:0:
256,192,69970,1,8,0:0:0:0:
256,176,70220,1,8,0:0:0:0:
256,176,70345,1,0,0:0:0:0:
256,192,70470,1,8,0:0:0:0:
240,192,70720,1,0,0:0:0:0:
256,192,70970,1,8,0:0:0:0:
256,192,71053,1,8,0:0:0:0:
256,192,71136,1,8,0:0:0:0:
256,192,71220,1,8,0:0:0:0:
256,192,71470,1,12,0:0:0:0:
256,192,72470,1,8,0:0:0:0:
256,192,72720,1,0,0:0:0:0:
256,192,72970,1,8,0:0:0:0:
256,192,73470,1,4,0:0:0:0:
256,192,73970,1,0,0:0:0:0:
256,208,74220,1,0,0:0:0:0:
256,208,74345,1,0,0:0:0:0:
256,192,74470,1,8,0:0:0:0:
256,192,74720,1,8,0:0:0:0:
256,192,74970,1,0,0:0:0:0:
256,192,75095,1,0,0:0:0:0:
256,192,75220,1,0,0:0:0:0:
256,192,75470,1,8,0:0:0:0:
256,208,75720,1,0,0:0:0:0:
256,176,75970,1,8,0:0:0:0:
256,192,76220,1,0,0:0:0:0:
256,176,76345,1,0,0:0:0:0:
256,192,76470,1,8,0:0:0:0:
256,176,76720,1,8,0:0:0:0:
256,176,76845,1,0,0:0:0:0:
256,192,76970,1,8,0:0:0:0:
256,176,77220,1,8,0:0:0:0:
256,176,77345,1,8,0:0:0:0:
256,192,77470,1,0,0:0:0:0:
256,192,77720,1,0,0:0:0:0:
256,192,77970,1,0,0:0:0:0:
256,192,78220,1,8,0:0:0:0:
256,192,78345,1,0,0:0:0:0:
256,192,78470,1,8,0:0:0:0:
256,176,78720,1,0,0:0:0:0:
256,192,78970,1,0,0:0:0:0:
256,192,79095,1,8,0:0:0:0:
256,192,79220,1,0,0:0:0:0:
256,192,79470,1,8,0:0:0:0:
256,192,79720,1,8,0:0:0:0:
256,192,79970,1,0,0:0:0:0:
256,192,80220,1,0,0:0:0:0:
256,192,80470,1,8,0:0:0:0:
256,192,80595,1,0,0:0:0:0:
256,176,80720,1,0,0:0:0:0:
256,192,80845,1,8,0:0:0:0:
272,192,81220,1,0,0:0:0:0:
256,192,81345,1,8,0:0:0:0:
256,192,81470,1,0,0:0:0:0:
256,192,81720,1,0,0:0:0:0:
240,192,81845,1,0,0:0:0:0:
256,192,81970,1,8,0:0:0:0:
240,192,82220,1,0,0:0:0:0:
256,192,82470,1,8,0:0:0:0:
256,192,82720,1,0,0:0:0:0:
256,192,82970,1,8,0:0:0:0:
240,192,83220,1,0,0:0:0:0:
256,192,83345,1,0,0:0:0:0:
256,192,83470,1,8,0:0:0:0:
256,192,83720,1,8,0:0:0:0:
256,192,83970,1,8,0:0:0:0:
256,192,84095,1,0,0:0:0:0:
240,192,84220,1,8,0:0:0:0:
256,192,84470,1,0,0:0:0:0:
256,192,84970,1,0,0:0:0:0:
256,192,85470,1,8,0:0:0:0:
240,192,85720,1,0,0:0:0:0:
256,176,85845,1,8,0:0:0:0:
240,192,86220,1,0,0:0:0:0:
256,192,86470,1,8,0:0:0:0:
240,192,86720,1,0,0:0:0:0:
256,176,86845,1,8,0:0:0:0:
240,192,87220,1,0,0:0:0:0:
256,192,87470,1,8,0:0:0:0:
240,192,87720,1,0,0:0:0:0:
240,176,87845,1,0,0:0:0:0:
256,192,87970,1,8,0:0:0:0:
240,192,88220,1,0,0:0:0:0:
256,192,88470,1,8,0:0:0:0:
256,192,88970,1,0,0:0:0:0:
256,192,89470,1,8,0:0:0:0:
256,192,89720,1,0,0:0:0:0:
256,192,89970,1,8,0:0:0:0:
256,192,90470,1,8,0:0:0:0:
256,192,90720,1,0,0:0:0:0:
256,192,90970,1,8,0:0:0:0:
256,192,91470,1,8,0:0:0:0:
256,192,91720,1,8,0:0:0:0:
256,192,91845,1,8,0:0:0:0:
256,192,91970,1,8,0:0:0:0:
256,192,92220,1,12,0:0:0:0:
256,192,92720,1,8,0:0:0:0:
256,192,92970,1,0,0:0:0:0:
256,192,93095,1,0,0:0:0:0:
256,192,93220,1,0,0:0:0:0:
256,192,93470,1,0,0:0:0:0:
256,192,93720,1,8,0:0:0:0:
256,192,93845,1,8,0:0:0:0:
256,192,93970,1,0,0:0:0:0:
256,192,94220,1,0,0:0:0:0:
256,192,94470,1,8,0:0:0:0:
256,192,94720,1,0,0:0:0:0:
256,192,94845,1,8,0:0:0:0:
256,192,94970,1,0,0:0:0:0:
256,192,95220,1,0,0:0:0:0:
256,192,95470,1,8,0:0:0:0:
256,192,95720,1,8,0:0:0:0:
256,192,95845,1,8,0:0:0:0:
256,192,95970,1,8,0:0:0:0:
256,192,96220,1,12,0:0:0:0:
256,192,96720,1,0,0:0:0:0:
256,192,96970,1,8,0:0:0:0:
256,192,97095,1,0,0:0:0:0:
256,192,97220,1,8,0:0:0:0:
256,192,97470,1,0,0:0:0:0:
256,192,97970,1,8,0:0:0:0:
256,192,98470,1,0,0:0:0:0:
256,192,98720,1,0,0:0:0:0:
256,192,98970,1,8,0:0:0:0:
256,192,99470,1,4,0:0:0:0:
256,192,99970,1,8,0:0:0:0:
256,192,100470,1,8,0:0:0:0:
256,192,100720,1,0,0:0:0:0:
256,192,100970,1,0,0:0:0:0:
256,192,101095,1,0,0:0:0:0:
256,192,101220,1,0,0:0:0:0:
256,192,101470,1,8,0:0:0:0:
256,192,101720,1,8,0:0:0:0:
256,192,101845,1,8,0:0:0:0:
256,192,102095,1,0,0:0:0:0:
256,192,102345,1,0,0:0:0:0:
256,192,102470,1,8,0:0:0:0:
256,192,102720,1,8,0:0:0:0:
256,192,103220,1,0,0:0:0:0:
240,192,103303,1,0,0:0:0:0:
240,192,103386,1,0,0:0:0:0:
240,192,103470,1,8,0:0:0:0:
256,192,103720,1,8,0:0:0:0:
256,192,103970,1,0,0:0:0:0:
256,192,104470,1,8,0:0:0:0:
256,192,104720,1,8,0:0:0:0:
256,192,104845,1,8,0:0:0:0:
256,192,104970,1,0,0:0:0:0:
240,176,105220,1,0,0:0:0:0:
256,192,105470,1,8,0:0:0:0:
256,192,105720,1,0,0:0:0:0:
256,192,105845,1,0,0:0:0:0:
256,192,105970,1,0,0:0:0:0:
256,192,106220,1,12,0:0:0:0:
256,192,106720,1,0,0:0:0:0:
256,192,106970,1,0,0:0:0:0:
256,192,107220,1,0,0:0:0:0:
256,192,107470,1,8,0:0:0:0:
256,192,107720,1,0,0:0:0:0:
256,192,107970,1,8,0:0:0:0:
240,192,108220,1,0,0:0:0:0:
256,192,108470,1,8,0:0:0:0:
256,192,108720,1,8,0:0:0:0:
256,192,108845,1,0,0:0:0:0:
256,192,109095,1,8,0:0:0:0:
256,192,109220,1,0,0:0:0:0:
256,192,109470,1,0,0:0:0:0:
256,192,109720,1,0,0:0:0:0:
256,192,109970,1,8,0:0:0:0:
256,192,110053,1,8,0:0:0:0:
256,192,110136,1,8,0:0:0:0:
256,192,110220,1,8,0:0:0:0:
256,192,110303,1,8,0:0:0:0:
256,192,110386,1,8,0:0:0:0:
256,192,110470,1,0,0:0:0:0:
256,192,110720,1,0,0:0:0:0:
256,192,111470,1,8,0:0:0:0:
256,192,111720,1,0,0:0:0:0:
256,192,111970,1,8,0:0:0:0:
256,192,112220,1,0,0:0:0:0:
256,192,112470,1,8,0:0:0:0:
256,192,112720,1,0,0:0:0:0:
256,192,112970,1,0,0:0:0:0:
256,192,113220,1,0,0:0:0:0:
256,192,113470,1,8,0:0:0:0:
256,192,113720,1,0,0:0:0:0:
256,192,113970,1,8,0:0:0:0:
256,192,114220,1,0,0:0:0:0:
256,192,114470,1,8,0:0:0:0:
256,192,114720,1,0,0:0:0:0:
256,192,114970,1,0,0:0:0:0:
256,192,115220,1,12,0:0:0:0:
