osu file format v14

[General]
AudioFilename: Acuatics.mp3
AudioLeadIn: 0
PreviewTime: 73465
Countdown: 0
SampleSet: Normal
StackLeniency: 0.7
Mode: 1
LetterboxInBreaks: 0
WidescreenStoryboard: 0

[Editor]
Bookmarks: 5471,10465,21471,37471,53471,65471,73471,89471,103470,103471,111471,115221
DistanceSpacing: 1.2
BeatDivisor: 4
GridSize: 16
TimelineZoom: 1.6

[Metadata]
Title:Jingle Bells ga Tomaranai
TitleUnicode:ジングルベルが止まらない
Artist:Aqours
ArtistUnicode:Aqours
Creator:xtrem3x
Version:Futsuu
Source:ラブライブ!スクールアイドルフェスティバル
Tags:Love Live! School idol festival SIF christmas xmas december Mitsumasu Hajime EFFY Hata Aki
BeatmapID:1141585
BeatmapSetID:533160

[Difficulty]
HPDrainRate:7
CircleSize:2
OverallDifficulty:4
ApproachRate:6
SliderMultiplier:1.4
SliderTickRate:3

[Events]
//Background and Video events
0,0,"BG-Xmas.jpg",0,70
//Break Periods
//Storyboard Layer 0 (Background)
//Storyboard Layer 1 (Fail)
//Storyboard Layer 2 (Pass)
//Storyboard Layer 3 (Foreground)
//Storyboard Sound Samples

[TimingPoints]
1470,250,4,1,0,80,1,0
1470,-153.846153846154,4,1,0,80,0,0
73470,-153.846153846154,4,1,0,80,0,1
103470,-153.846153846154,4,1,0,80,0,0

[HitObjects]
256,192,1470,5,4,0:0:0:0:
256,192,3220,1,0,0:0:0:0:
256,192,3470,1,4,0:0:0:0:
256,192,5470,1,8,0:0:0:0:
256,192,5970,1,0,0:0:0:0:
256,192,6470,1,8,0:0:0:0:
240,192,6720,1,8,0:0:0:0:
256,192,6970,1,0,0:0:0:0:
256,192,7470,1,8,0:0:0:0:
256,192,8220,1,4,0:0:0:0:
256,192,9220,1,0,0:0:0:0:
256,192,9470,1,8,0:0:0:0:
256,192,9970,1,0,0:0:0:0:
256,192,10470,1,8,0:0:0:0:
256,192,10720,1,0,0:0:0:0:
256,192,10970,1,8,0:0:0:0:
256,192,11470,1,8,0:0:0:0:
256,192,11970,1,8,0:0:0:0:
256,192,12220,1,8,0:0:0:0:
256,192,12720,1,0,0:0:0:0:
256,192,13470,1,8,0:0:0:0:
256,192,13970,1,0,0:0:0:0:
256,192,14470,1,8,0:0:0:0:
256,192,14720,1,8,0:0:0:0:
256,192,14970,1,0,0:0:0:0:
256,192,15470,1,8,0:0:0:0:
272,192,15970,1,0,0:0:0:0:
256,192,16220,1,12,0:0:0:0:
240,192,17220,1,0,0:0:0:0:
256,192,17470,1,8,0:0:0:0:
256,192,17970,1,0,0:0:0:0:
256,192,18470,1,8,0:0:0:0:
240,192,18845,1,0,0:0:0:0:
256,192,19470,1,8,0:0:0:0:
256,192,20720,1,0,0:0:0:0:
256,192,21470,1,0,0:0:0:0:
256,192,21970,1,0,0:0:0:0:
256,192,22470,1,8,0:0:0:0:
256,192,22970,1,8,0:0:0:0:
256,192,23470,1,0,0:0:0:0:
256,192,23970,1,0,0:0:0:0:
256,192,24220,1,8,0:0:0:0:
256,192,25470,1,8,0:0:0:0:
272,192,25970,1,0,0:0:0:0:
256,192,26220,1,8,0:0:0:0:
256,192,27470,1,8,0:0:0:0:
272,192,27970,1,0,0:0:0:0:
256,192,28220,1,0,0:0:0:0:
256,192,29470,1,0,0:0:0:0:
256,192,29970,1,8,0:0:0:0:
256,192,30470,1,8,0:0:0:0:
240,192,30720,1,8,0:0:0:0:
256,192,30970,1,0,0:0:0:0:
256,192,31470,1,0,0:0:0:0:
256,192,31970,1,0,0:0:0:0:
256,192,32220,1,12,0:0:0:0:
240,192,32970,1,0,0:0:0:0:
256,192,33470,1,8,0:0:0:0:
256,192,33970,1,8,0:0:0:0:
240,192,34220,1,8,0:0:0:0:
256,192,34470,1,0,0:0:0:0:
256,192,34970,1,0,0:0:0:0:
256,192,35470,1,8,0:0:0:0:
240,192,36595,1,8,0:0:0:0:
240,192,36970,1,0,0:0:0:0:
256,192,37470,1,0,0:0:0:0:
256,192,37970,1,8,0:0:0:0:
256,192,38470,1,8,0:0:0:0:
256,192,38720,1,8,0:0:0:0:
256,192,38970,1,0,0:0:0:0:
256,192,39470,1,0,0:0:0:0:
256,192,39970,1,0,0:0:0:0:
256,192,40220,1,8,0:0:0:0:
256,192,41470,1,0,0:0:0:0:
256,192,41970,1,0,0:0:0:0:
256,192,42220,1,8,0:0:0:0:
256,192,42720,1,8,0:0:0:0:
256,192,42970,1,0,0:0:0:0:
256,192,43470,1,8,0:0:0:0:
256,192,43970,1,0,0:0:0:0:
256,192,44470,1,8,0:0:0:0:
256,192,44720,1,8,0:0:0:0:
256,192,44970,1,0,0:0:0:0:
256,192,45470,1,0,0:0:0:0:
256,192,45970,1,0,0:0:0:0:
256,192,46470,1,8,0:0:0:0:
256,192,46720,1,0,0:0:0:0:
256,192,46970,1,8,0:0:0:0:
256,192,47470,1,8,0:0:0:0:
256,192,47970,1,8,0:0:0:0:
256,192,48220,1,12,0:0:0:0:
256,192,48970,1,0,0:0:0:0:
256,192,49470,1,8,0:0:0:0:
256,192,49970,1,8,0:0:0:0:
256,192,50470,1,0,0:0:0:0:
256,192,50720,1,0,0:0:0:0:
256,192,50970,1,0,0:0:0:0:
256,192,51470,1,8,0:0:0:0:
256,192,52595,1,0,0:0:0:0:
256,192,52970,1,0,0:0:0:0:
256,192,53470,1,0,0:0:0:0:
240,176,53720,1,0,0:0:0:0:
256,192,54470,1,8,0:0:0:0:
256,192,54720,1,8,0:0:0:0:
256,192,55220,1,0,0:0:0:0:
256,192,55470,1,8,0:0:0:0:
256,192,55970,1,8,0:0:0:0:
256,192,56220,1,4,0:0:0:0:
256,192,57220,1,0,0:0:0:0:
256,192,57470,1,8,0:0:0:0:
256,192,57970,1,8,0:0:0:0:
256,192,58470,1,0,0:0:0:0:
256,192,58720,1,8,0:0:0:0:
256,192,58970,1,0,0:0:0:0:
256,192,59470,1,8,0:0:0:0:
256,192,59970,1,8,0:0:0:0:
256,192,60220,1,8,0:0:0:0:
256,192,61470,1,0,0:0:0:0:
256,192,61720,1,0,0:0:0:0:
256,192,62470,1,8,0:0:0:0:
256,192,62720,1,8,0:0:0:0:
256,192,63470,1,4,0:0:0:0:
256,192,64220,1,12,0:0:0:0:
256,192,64970,1,0,0:0:0:0:
256,192,65220,1,8,0:0:0:0:
256,192,65470,1,0,0:0:0:0:
256,192,65970,1,0,0:0:0:0:
256,192,66470,1,8,0:0:0:0:
256,192,66845,1,8,0:0:0:0:
256,192,67470,1,8,0:0:0:0:
256,192,67970,1,0,0:0:0:0:
256,192,68470,1,8,0:0:0:0:
240,176,68845,1,8,0:0:0:0:
256,192,69470,1,8,0:0:0:0:
256,192,69970,1,8,0:0:0:0:
256,192,70470,1,8,0:0:0:0:
256,192,70970,1,8,0:0:0:0:
256,192,71470,1,12,0:0:0:0:
256,192,72470,1,8,0:0:0:0:
256,192,73470,1,4,0:0:0:0:
256,192,74470,1,8,0:0:0:0:
256,192,74720,1,8,0:0:0:0:
256,192,74970,1,0,0:0:0:0:
256,192,75470,1,8,0:0:0:0:
256,176,75970,1,0,0:0:0:0:
256,192,76220,1,0,0:0:0:0:
256,192,76470,1,8,0:0:0:0:
256,192,76970,1,8,0:0:0:0:
256,192,77470,1,0,0:0:0:0:
256,192,78470,1,8,0:0:0:0:
256,176,78720,1,8,0:0:0:0:
256,192,78970,1,0,0:0:0:0:
256,192,79470,1,8,0:0:0:0:
256,192,79970,1,0,0:0:0:0:
256,192,80220,1,0,0:0:0:0:
256,192,80470,1,8,0:0:0:0:
256,192,80845,1,8,0:0:0:0:
256,192,81470,1,0,0:0:0:0:
256,192,81720,1,0,0:0:0:0:
256,192,81970,1,0,0:0:0:0:
256,192,82470,1,8,0:0:0:0:
256,192,83470,1,8,0:0:0:0:
256,192,83720,1,8,0:0:0:0:
256,192,83970,1,8,0:0:0:0:
256,192,84470,1,0,0:0:0:0:
256,192,84970,1,0,0:0:0:0:
256,192,85470,1,0,0:0:0:0:
256,176,85845,1,0,0:0:0:0:
256,192,86470,1,8,0:0:0:0:
256,176,86845,1,8,0:0:0:0:
256,192,87470,1,8,0:0:0:0:
253,193,87720,1,0,0:0:0:0:
256,192,87970,1,8,0:0:0:0:
256,192,88470,1,8,0:0:0:0:
256,192,89470,1,8,0:0:0:0:
256,192,89970,1,0,0:0:0:0:
256,192,90470,1,8,0:0:0:0:
256,192,90970,1,0,0:0:0:0:
256,192,91470,1,8,0:0:0:0:
256,192,91970,1,8,0:0:0:0:
256,192,92220,1,12,0:0:0:0:
256,192,92970,1,0,0:0:0:0:
256,192,93220,1,0,0:0:0:0:
256,192,93470,1,0,0:0:0:0:
256,192,93970,1,0,0:0:0:0:
256,192,94470,1,8,0:0:0:0:
256,192,94970,1,0,0:0:0:0:
256,192,95470,1,8,0:0:0:0:
256,192,95970,1,8,0:0:0:0:
256,192,96220,1,12,0:0:0:0:
256,192,96970,1,8,0:0:0:0:
256,192,97470,1,0,0:0:0:0:
256,192,97970,1,8,0:0:0:0:
256,192,98470,1,0,0:0:0:0:
256,192,99470,1,4,0:0:0:0:
256,192,100470,1,8,0:0:0:0:
256,192,100970,1,0,0:0:0:0:
256,192,101470,1,8,0:0:0:0:
256,192,101845,1,8,0:0:0:0:
256,192,102470,1,8,0:0:0:0:
256,192,102720,1,8,0:0:0:0:
256,192,103470,1,8,0:0:0:0:
256,192,103970,1,0,0:0:0:0:
256,192,104470,1,8,0:0:0:0:
256,192,104720,1,8,0:0:0:0:
256,192,104970,1,0,0:0:0:0:
256,192,105470,1,8,0:0:0:0:
272,192,105970,1,0,0:0:0:0:
256,192,106220,1,12,0:0:0:0:
240,192,107220,1,0,0:0:0:0:
256,192,107470,1,8,0:0:0:0:
256,192,107970,1,8,0:0:0:0:
256,192,108470,1,8,0:0:0:0:
240,192,108845,1,0,0:0:0:0:
64,64,109470,2,0,L|448:64,1,363.999983337403
256,192,110720,1,0,0:0:0:0:
256,192,111470,1,8,0:0:0:0:
256,192,111970,1,0,0:0:0:0:
256,192,112470,1,8,0:0:0:0:
256,192,113470,1,8,0:0:0:0:
256,192,113970,1,0,0:0:0:0:
256,192,114470,1,8,0:0:0:0:
256,192,115220,1,12,0:0:0:0:
