osu file format v14

[General]
AudioFilename: Acuatics.mp3
AudioLeadIn: 0
PreviewTime: 73465
Countdown: 0
SampleSet: Normal
StackLeniency: 0.7
Mode: 1
LetterboxInBreaks: 0
WidescreenStoryboard: 0

[Editor]
Bookmarks: 5471,21471,37471,53471,65471,73471,89471,103471,111471,115221
DistanceSpacing: 1.2
BeatDivisor: 4
GridSize: 32
TimelineZoom: 1.6

[Metadata]
Title:Jingle Bells ga Tomaranai
TitleUnicode:ジングルベルが止まらない
Artist:Aqours
ArtistUnicode:Aqours
Creator:xtrem3x
Version:Kantan
Source:ラブライブ!スクールアイドルフェスティバル
Tags:Love Live! School idol festival SIF christmas xmas december Mitsumasu Hajime EFFY Hata Aki
BeatmapID:1129596
BeatmapSetID:533160

[Difficulty]
HPDrainRate:8
CircleSize:2
OverallDifficulty:3
ApproachRate:6
SliderMultiplier:1.4
SliderTickRate:3

[Events]
//Background and Video events
0,0,"BG-Xmas.jpg",0,70
//Break Periods
//Storyboard Layer 0 (Background)
//Storyboard Layer 1 (Fail)
//Storyboard Layer 2 (Pass)
//Storyboard Layer 3 (Foreground)
//Storyboard Sound Samples

[TimingPoints]
1470,250,4,1,0,80,1,0
1470,-200,4,1,0,80,0,0
73470,-200,4,1,0,80,0,1
103470,-200,4,1,0,80,0,0

[HitObjects]
256,192,1470,5,4,0:0:0:0:
256,192,3470,1,4,0:0:0:0:
256,192,5470,1,8,0:0:0:0:
256,192,5970,1,0,0:0:0:0:
256,192,6470,1,8,0:0:0:0:
256,192,7470,1,8,0:0:0:0:
256,192,8220,1,4,0:0:0:0:
256,192,9470,1,8,0:0:0:0:
256,192,9970,1,0,0:0:0:0:
256,192,10470,1,8,0:0:0:0:
256,192,11470,1,8,0:0:0:0:
256,192,12220,1,8,0:0:0:0:
256,192,12720,1,0,0:0:0:0:
256,192,13470,1,8,0:0:0:0:
256,192,13970,1,0,0:0:0:0:
256,192,14470,1,8,0:0:0:0:
256,192,15470,1,8,0:0:0:0:
256,192,16220,1,12,0:0:0:0:
256,192,17470,1,8,0:0:0:0:
256,192,17970,1,8,0:0:0:0:
256,192,18470,1,0,0:0:0:0:
256,192,19470,1,0,0:0:0:0:
256,192,21470,1,0,0:0:0:0:
256,192,21970,1,0,0:0:0:0:
256,192,22470,1,8,0:0:0:0:
256,192,23470,1,0,0:0:0:0:
256,192,24220,1,8,0:0:0:0:
256,192,25470,1,8,0:0:0:0:
256,192,26220,1,8,0:0:0:0:
256,192,27470,1,8,0:0:0:0:
256,192,28220,1,0,0:0:0:0:
256,192,29470,1,0,0:0:0:0:
256,192,29970,1,8,0:0:0:0:
256,192,30470,1,8,0:0:0:0:
256,192,31470,1,8,0:0:0:0:
256,192,32220,1,12,0:0:0:0:
256,192,33470,1,8,0:0:0:0:
256,192,33970,1,8,0:0:0:0:
256,192,34470,1,0,0:0:0:0:
256,192,34970,1,0,0:0:0:0:
256,192,35470,1,8,0:0:0:0:
256,192,37470,1,0,0:0:0:0:
256,192,37970,1,8,0:0:0:0:
256,192,38470,1,8,0:0:0:0:
256,192,38970,1,0,0:0:0:0:
256,192,39470,1,0,0:0:0:0:
256,192,40220,1,8,0:0:0:0:
256,192,41470,1,0,0:0:0:0:
256,192,42220,1,8,0:0:0:0:
256,192,42970,1,8,0:0:0:0:
256,192,43470,1,8,0:0:0:0:
256,192,43970,1,0,0:0:0:0:
256,192,44470,1,8,0:0:0:0:
256,192,45470,1,0,0:0:0:0:
256,192,45970,1,8,0:0:0:0:
256,192,46470,1,8,0:0:0:0:
256,192,46970,1,0,0:0:0:0:
256,192,47470,1,8,0:0:0:0:
256,192,48220,1,12,0:0:0:0:
256,192,49470,1,8,0:0:0:0:
256,192,49970,1,8,0:0:0:0:
256,192,50470,1,0,0:0:0:0:
256,192,50970,1,0,0:0:0:0:
256,192,51470,1,8,0:0:0:0:
256,192,53470,1,0,0:0:0:0:
256,192,54470,1,8,0:0:0:0:
256,192,55470,1,8,0:0:0:0:
256,192,56220,1,4,0:0:0:0:
256,192,57470,1,8,0:0:0:0:
256,192,57970,1,8,0:0:0:0:
256,192,58470,1,0,0:0:0:0:
256,192,58970,1,0,0:0:0:0:
256,192,59470,1,8,0:0:0:0:
256,192,60220,1,8,0:0:0:0:
256,192,61470,1,0,0:0:0:0:
256,192,62470,1,8,0:0:0:0:
256,192,63470,1,4,0:0:0:0:
256,192,64220,1,12,0:0:0:0:
256,192,65470,1,0,0:0:0:0:
256,192,65970,1,0,0:0:0:0:
256,192,66470,1,8,0:0:0:0:
256,192,67470,1,8,0:0:0:0:
256,192,67970,1,0,0:0:0:0:
256,192,68470,1,8,0:0:0:0:
256,192,69470,1,8,0:0:0:0:
256,192,69970,1,8,0:0:0:0:
256,192,70470,1,8,0:0:0:0:
256,192,71470,1,12,0:0:0:0:
256,192,73470,1,4,0:0:0:0:
256,192,74470,1,8,0:0:0:0:
256,192,74970,1,0,0:0:0:0:
256,192,75470,1,8,0:0:0:0:
256,192,76470,1,8,0:0:0:0:
256,192,77470,1,0,0:0:0:0:
256,192,78470,1,8,0:0:0:0:
256,192,78970,1,0,0:0:0:0:
256,192,79470,1,8,0:0:0:0:
256,192,80470,1,8,0:0:0:0:
256,192,81470,1,0,0:0:0:0:
256,192,81970,1,0,0:0:0:0:
256,192,82470,1,8,0:0:0:0:
256,192,83470,1,8,0:0:0:0:
256,192,83970,1,8,0:0:0:0:
256,192,84470,1,0,0:0:0:0:
256,192,84970,1,0,0:0:0:0:
256,192,85470,1,8,0:0:0:0:
256,192,86470,1,8,0:0:0:0:
256,192,87470,1,8,0:0:0:0:
256,192,87970,1,8,0:0:0:0:
256,192,88470,1,8,0:0:0:0:
256,192,89470,1,8,0:0:0:0:
256,192,90470,1,8,0:0:0:0:
256,192,91470,1,0,0:0:0:0:
256,192,92220,1,12,0:0:0:0:
256,192,93470,1,0,0:0:0:0:
256,192,93970,1,0,0:0:0:0:
256,192,94470,1,8,0:0:0:0:
256,192,94970,1,0,0:0:0:0:
256,192,95470,1,8,0:0:0:0:
256,192,96220,1,12,0:0:0:0:
256,192,97470,1,0,0:0:0:0:
256,192,98470,1,0,0:0:0:0:
256,192,99470,1,4,0:0:0:0:
256,192,100470,1,8,0:0:0:0:
256,192,100970,1,0,0:0:0:0:
256,192,101470,1,8,0:0:0:0:
256,192,102470,1,12,0:0:0:0:
256,192,103470,1,8,0:0:0:0:
256,192,103970,1,0,0:0:0:0:
256,192,104470,1,8,0:0:0:0:
256,192,105470,1,8,0:0:0:0:
256,192,106220,1,12,0:0:0:0:
256,192,107470,1,8,0:0:0:0:
256,192,107970,1,8,0:0:0:0:
256,192,108470,1,8,0:0:0:0:
144,80,109470,2,0,L|432:80,1,280
256,192,110720,1,0,0:0:0:0:
256,192,111470,1,8,0:0:0:0:
256,192,112470,1,8,0:0:0:0:
256,192,113470,1,8,0:0:0:0:
256,192,114470,1,8,0:0:0:0:
256,192,115220,1,12,0:0:0:0:
