osu file format v14

[General]
AudioFilename: audio.mp3
AudioLeadIn: 0
PreviewTime: 71374
Countdown: 0
SampleSet: Soft
StackLeniency: 0.5
Mode: 0
LetterboxInBreaks: 0
WidescreenStoryboard: 0

[Editor]
Bookmarks: 21749,53749,73749,103749,106249
DistanceSpacing: 0.3
BeatDivisor: 3
GridSize: 32
TimelineZoom: 3.399999

[Metadata]
Title:Jingle Bells ga Tomaranai
TitleUnicode:ジングルベルがとまらない
Artist:Aqours
ArtistUnicode:Aqours
Creator:StarrStyx
Version:Insane
Source:Lovelive! Sunshine!!
Tags:ラブライブ!サンシャイン!! opening anime tv size school idol project Inami Anju 伊波杏樹 Aida Rikako 逢田梨香子 Suwa Nanaka 諏訪ななか Komiya Arisa 小宮有紗 Saito Shuka 斉藤朱夏 Kobayashi Aika 小林愛香 Takatsuki Kanako 高槻かなこ Suzuki Aina 鈴木愛奈 Furihata Ai 降幡 愛 Takami Chika 高海千歌 Sakurauchi Riko 桜内梨子 Matsuura Kanan 松浦果南 Kurosawa Dia 黒澤ダイヤ Watanabe You 渡辺 曜 Tsushima Yoshiko 津島善子 Kunikida Hanamaru 国木田花丸 Ohara Mari 小原鞠莉 Kurosawa Ruby 黒澤ルビィ gidz gee little cloudsplash16 crystal
BeatmapID:1135240
BeatmapSetID:535998

[Difficulty]
HPDrainRate:7
CircleSize:4
OverallDifficulty:8
ApproachRate:9.2
SliderMultiplier:1.92
SliderTickRate:1

[Events]
//Background and Video events
0,0,"715177.png",0,0
//Break Periods
//Storyboard Layer 0 (Background)
//Storyboard Layer 1 (Fail)
//Storyboard Layer 2 (Pass)
//Storyboard Layer 3 (Foreground)
//Storyboard Sound Samples

[TimingPoints]
1749,250,4,2,99,30,1,0
4499,-133.333333333333,4,2,99,40,0,0
4999,-100,4,2,99,50,0,0
5249,-80,4,2,99,60,0,0
5749,-100,4,2,99,80,0,0
11749,-83.3333333333333,4,2,99,85,0,0
12499,-100,4,2,99,65,0,0
13749,-100,4,2,99,80,0,0
15749,-100,4,2,99,85,0,0
15999,-86.9565217391304,4,2,99,85,0,0
16248,-76.9230769230769,4,2,99,85,0,0
16499,-133.333333333333,4,2,99,65,0,0
16999,-100,4,2,99,65,0,0
17749,-100,4,2,99,80,0,0
19249,-100,4,2,99,70,0,0
20999,-133.333333333333,4,2,99,70,0,0
21749,-117.647058823529,4,2,99,60,0,0
31749,-100,4,2,99,70,0,0
32498,-117.647058823529,4,2,99,60,0,0
35749,-117.647058823529,4,2,99,70,0,0
37249,-100,4,2,99,70,0,0
37749,-117.647058823529,4,2,99,60,0,0
47749,-100,4,2,99,70,0,0
48499,-117.647058823529,4,2,99,60,0,0
59749,-100,4,2,99,70,0,0
60499,-117.647058823529,4,2,99,60,0,0
61249,-100,4,2,99,70,0,0
61749,-117.647058823529,4,2,99,60,0,0
72915,-117.647058823529,4,2,99,5,0,0
72999,-117.647058823529,4,2,99,60,0,0
73165,-117.647058823529,4,2,99,5,0,0
73249,-117.647058823529,4,2,99,60,0,0
73415,-117.647058823529,4,2,99,5,0,0
73499,-117.647058823529,4,2,99,60,0,0
73665,-117.647058823529,4,2,99,5,0,0
73749,-100,4,2,99,80,0,1
89749,-142.857142857143,4,2,99,60,0,0
91999,-117.647058823529,4,2,99,70,0,0
92249,-100,4,2,99,70,0,0
92499,-142.857142857143,4,2,99,60,0,0
93249,-117.647058823529,4,2,99,70,0,0
93749,-100,4,2,99,80,0,1
95749,-100,4,2,99,85,0,1
95999,-86.9565217391304,4,2,99,85,0,1
96249,-76.9230769230769,4,2,99,85,0,1
96499,-133.333333333333,4,2,99,70,0,1
97749,-166.666666666667,4,2,99,60,0,0
100249,-133.333333333333,4,2,99,70,0,0
100749,-100,4,2,99,70,0,0
100999,-100,4,2,99,75,0,0
101249,-86.9565217391304,4,2,99,75,0,0
101499,-76.9230769230769,4,2,99,75,0,0
101749,-76.9230769230769,4,2,99,80,0,1
103749,-100,4,2,99,80,0,0
105749,-100,4,2,99,85,0,0
105999,-86.9565217391304,4,2,99,85,0,0
106249,-76.9230769230769,4,2,99,85,0,0
106499,-133.333333333333,4,2,99,65,0,0
106999,-100,4,2,99,65,0,0
107749,-100,4,2,99,80,0,0
109249,-100,4,2,99,70,0,0
110999,-117.647058823529,4,2,99,70,0,0
111749,-117.647058823529,4,2,99,40,0,0

[Colours]
Combo1 : 135,255,121
Combo2 : 255,164,62
Combo3 : 255,142,199
Combo4 : 125,249,255

[HitObjects]
138,84,1749,5,2,0:0:0:0:
138,84,1999,1,0,0:0:0:0:
372,233,2249,5,0,0:0:0:0:
372,233,2499,1,0,0:0:0:0:
159,380,2749,5,0,0:0:0:0:
159,380,2999,1,0,0:0:0:0:
272,68,3249,5,0,0:0:0:0:
117,272,3499,2,8,L|67:260,4,48
375,188,3999,5,0,0:0:0:0:
166,80,4249,1,0,0:0:0:0:
241,356,4499,2,0,L|250:237,1,96.0000036621095,8|0,0:0|0:0,0:0:0:0:
355,61,4749,6,0,P|385:81|341:83,1,96.0000036621095,2|0,0:0|0:0,0:0:0:0:
155,197,4999,6,0,P|108:192|152:163,1,128,10|0,0:0|0:0,0:0:0:0:
370,315,5249,6,0,P|410:305|351:287,1,160,2|0,0:0|0:0,0:0:0:0:
212,348,5499,2,0,L|46:344,1,160,8|0,0:0|0:0,0:0:0:0:
141,170,5749,6,0,P|197:134|256:144,1,128,4|0,0:0|0:0,0:0:0:0:
326,262,5999,2,0,P|264:268|215:229,1,128,8|0,0:0|0:0,0:0:0:0:
355,104,6249,6,0,B|403:94|431:122|431:122|413:117|381:126,1,128
404,338,6499,2,0,B|430:261|430:261|414:217,1,128,8|0,0:0|0:0,0:0:0:0:
272,99,6749,6,0,L|129:107,1,128
261,303,6999,2,0,P|299:249|288:179,1,128,8|0,0:0|0:0,0:0:0:0:
59,155,7249,6,0,P|105:201|176:203,1,128
376,84,7499,2,0,L|383:211,1,128,8|0,0:0|0:0,0:0:0:0:
157,334,7749,6,0,L|164:206,1,128
167,174,7999,1,8,0:0:0:0:
374,300,8165,1,0,0:0:0:0:
351,293,8249,2,0,P|311:261|300:187,1,128
428,87,8499,6,0,L|234:76,1,192,12|0,0:0|0:0,0:0:0:0:
112,291,8915,1,0,0:0:0:0:
132,279,8999,2,0,P|172:247|183:173,1,128,8|0,0:0|0:0,0:0:0:0:
34,101,9249,2,0,P|48:162|100:198,1,128
336,85,9499,2,0,P|276:66|219:92,1,128,8|0,0:0|0:0,0:0:0:0:
381,304,9749,6,0,L|393:170,1,128
395,144,9999,1,8,0:0:0:0:
126,66,10165,6,0,P|189:5|302:38,1,192
190,117,10499,2,0,L|58:109,1,128,8|0,0:0|0:0,0:0:0:0:
63,292,10749,6,0,P|124:302|190:271,1,128
259,56,10999,2,0,P|200:31|138:40,1,128,8|0,0:0|0:0,0:0:0:0:
367,167,11249,6,0,L|379:39,1,128
160,236,11499,2,0,L|172:364,1,128,8|0,0:0|0:0,0:0:0:0:
397,265,11749,6,0,P|326:260|269:193,1,153.5999953125,2|0,0:0|0:0,0:0:0:0:
33,168,11999,2,0,P|90:126|177:140,1,153.5999953125,10|0,0:0|0:0,0:0:0:0:
409,67,12249,2,0,P|333:60|273:103,1,153.5999953125,2|0,0:0|0:0,0:0:0:0:
72,324,12499,6,0,L|269:317,1,192,14|0,0:0|0:0,0:0:0:0:
409,67,12999,2,0,L|212:60,1,192,2|0,0:0|0:0,0:0:0:0:
59,229,13415,1,0,0:0:0:0:
75,209,13499,2,0,P|126:179|205:187,1,128,8|0,0:0|0:0,0:0:0:0:
304,274,13749,6,0,L|450:268,1,128,4|0,0:0|0:0,0:0:0:0:
364,70,13999,2,0,P|303:69|250:113,1,128,8|0,0:0|0:0,0:0:0:0:
104,335,14249,6,0,P|165:336|218:292,1,128
158,110,14499,2,0,L|30:104,1,128,8|0,0:0|0:0,0:0:0:0:
312,173,14749,6,0,P|336:109|309:38,1,128
111,184,14999,2,0,P|175:196|229:164,1,128,8|0,0:0|0:0,0:0:0:0:
421,269,15249,6,0,P|359:256|304:286,1,128
168,366,15499,2,0,L|163:229,1,128,8|0,0:0|0:0,0:0:0:0:
320,53,15749,6,0,P|374:60|338:92,1,128,2|0,0:0|0:0,0:0:0:0:
127,215,15999,6,0,P|92:169|148:181,1,147.200002807617,10|0,0:0|0:0,0:0:0:0:
324,346,16248,6,0,P|387:327|323:323,1,166.399992382813,2|0,0:0|0:0,0:0:0:0:
69,263,16499,6,0,L|228:258,1,144.000005493164,12|0,0:0|0:0,0:0:0:0:
417,116,16999,6,0,P|324:125|251:62,1,192,8|0,0:0|0:0,0:0:0:0:
122,228,17415,1,0,0:0:0:0:
135,209,17499,2,0,P|188:172|272:181,1,128,8|0,0:0|0:0,0:0:0:0:
348,286,17749,6,0,L|220:280,1,128,4|0,0:0|0:0,0:0:0:0:
314,84,17999,2,0,P|355:131|358:193,1,128,8|0,0:0|0:0,0:0:0:0:
135,209,18249,6,0,L|140:79,1,128
366,144,18499,2,0,P|312:177|250:171,1,128,8|0,0:0|0:0,0:0:0:0:
66,246,18749,6,0,P|128:240|181:273,1,128
341,374,18999,2,0,L|346:247,1,128,8|0,0:0|0:0,0:0:0:0:
287,76,19249,5,8,0:0:0:0:
237,68,19332,1,8,0:0:0:0:
191,88,19415,1,8,0:0:0:0:
151,118,19498,1,8,0:0:0:0:
105,138,19582,1,8,0:0:0:0:
54,134,19665,1,8,0:0:0:0:
9,111,19749,5,12,0:0:0:0:
256,192,19832,12,0,20749,0:0:0:0:
257,162,20999,6,0,L|248:314,1,144.000005493164,12|0,0:0|0:0,0:0:0:0:
333,109,21415,1,8,0:0:0:0:
333,109,21499,1,8,0:0:0:0:
61,138,21749,6,0,P|136:142|201:74,1,163.200003112793,4|8,0:0|0:0,0:0:0:0:
457,217,22165,1,0,0:0:0:0:
443,203,22249,2,0,P|370:170|295:196,1,163.200003112793,0|8,0:0|0:0,0:0:0:0:
145,339,22749,6,0,L|139:169,1,163.200003112793,0|8,0:0|0:0,0:0:0:0:
372,80,23165,1,0,0:0:0:0:
371,101,23249,2,0,L|365:264,1,163.200003112793,0|8,0:0|0:0,0:0:0:0:
136,238,23749,6,0,P|124:291|152:346,1,108.800002075195,2|0,0:0|0:0,0:0:0:0:
169,135,23999,2,0,P|129:98|67:94,1,108.800002075195,10|0,0:0|0:0,0:0:0:0:
248,231,24249,2,0,P|300:214|334:163,1,108.800002075195,2|0,0:0|0:0,0:0:0:0:
133,25,24499,6,0,P|79:83|90:166,1,163.200003112793,12|0,0:0|0:0,0:0:0:0:
327,291,24915,1,0,0:0:0:0:
311,280,24999,2,0,P|244:250|156:262,1,163.200003112793,8|0,0:0|0:0,0:0:0:0:
348,147,25415,1,0,0:0:0:0:
368,151,25499,2,0,P|422:146|474:102,1,108.800002075195,8|0,0:0|0:0,0:0:0:0:
274,29,25749,6,0,L|265:145,1,108.800002075195,2|0,0:0|0:0,0:0:0:0:
328,334,25999,2,0,P|343:284|330:227,1,108.800002075195,10|0,0:0|0:0,0:0:0:0:
118,201,26249,2,0,P|165:219|225:209,1,108.800002075195,2|0,0:0|0:0,0:0:0:0:
431,154,26499,6,0,P|380:102|292:106,1,163.200003112793,12|0,0:0|0:0,0:0:0:0:
123,285,26915,1,0,0:0:0:0:
122,266,26999,2,0,L|114:99,1,163.200003112793,8|0,0:0|0:0,0:0:0:0:
339,189,27415,1,0,0:0:0:0:
326,174,27499,2,0,P|282:145|225:145,1,108.800002075195,8|0,0:0|0:0,0:0:0:0:
366,283,27749,6,0,P|412:257|435:200,1,108.800002075195,2|0,0:0|0:0,0:0:0:0:
286,107,27999,2,0,L|173:110,1,108.800002075195,10|0,0:0|0:0,0:0:0:0:
222,334,28249,2,0,P|248:288|240:227,1,108.800002075195,2|0,0:0|0:0,0:0:0:0:
96,91,28499,6,0,L|85:269,1,163.200003112793,12|0,0:0|0:0,0:0:0:0:
325,194,28915,1,0,0:0:0:0:
312,179,28999,2,0,P|265:151|211:152,1,108.800002075195,8|0,0:0|0:0,0:0:0:0:
191,161,29249,1,0,0:0:0:0:
309,338,29415,1,0,0:0:0:0:
328,336,29499,2,0,L|440:330,1,108.800002075195,8|0,0:0|0:0,0:0:0:0:
433,101,29749,6,0,P|348:117|311:186,1,163.200003112793,4|8,0:0|0:0,0:0:0:0:
73,76,30165,1,0,0:0:0:0:
92,74,30249,2,0,L|254:62,1,163.200003112793,0|8,0:0|0:0,0:0:0:0:
128,334,30749,6,0,P|100:260|136:190,1,163.200003112793,0|8,0:0|0:0,0:0:0:0:
365,126,31165,1,0,0:0:0:0:
363,145,31249,2,0,L|349:313,1,163.200003112793,0|8,0:0|0:0,0:0:0:0:
259,57,31749,6,0,P|239:125|262:193,1,128,2|0,0:0|0:0,0:0:0:0:
448,332,31999,2,0,P|390:289|319:288,1,128,10|0,0:0|0:0,0:0:0:0:
82,290,32248,2,0,P|152:297|215:263,1,128,2|0,0:0|0:0,0:0:0:0:
377,130,32498,6,0,P|379:70|350:123,1,163.200003112793,12|0,0:0|0:0,0:0:0:0:
329,362,32915,1,0,0:0:0:0:
331,342,32999,2,0,L|340:233,1,108.800002075195,8|0,0:0|0:0,0:0:0:0:
269,63,33249,2,0,P|251:123|264:182,1,108.800002075195
446,275,33499,2,0,P|452:221|434:170,1,108.800002075195,8|0,0:0|0:0,0:0:0:0:
257,167,33749,6,0,L|135:173,1,108.800002075195,4|0,0:0|0:0,0:0:0:0:
48,296,33999,2,0,P|103:299|153:265,1,108.800002075195,8|0,0:0|0:0,0:0:0:0:
227,24,34249,2,0,P|196:70|201:130,1,108.800002075195
311,244,34499,2,0,L|419:249,1,108.800002075195,8|0,0:0|0:0,0:0:0:0:
423,78,34749,6,0,P|378:119|378:168,1,108.800002075195
319,382,34999,2,0,P|364:341|364:292,1,108.800002075195,8|0,0:0|0:0,0:0:0:0:
275,154,35249,2,0,L|166:145,1,108.800002075195
134,295,35499,2,0,L|25:303,1,108.800002075195,8|0,0:0|0:0,0:0:0:0:
89,95,35749,6,0,P|128:60|201:62,1,108.800002075195,4|0,0:0|0:0,0:0:0:0:
182,55,35999,1,8,0:0:0:0:
263,209,36165,6,0,P|302:244|375:242,1,108.800002075195
356,249,36415,1,8,0:0:0:0:
454,59,36499,2,0,P|386:93|395:169,1,163.200003112793,8|0,0:0|0:0,0:0:0:0:
479,369,36915,6,0,L|494:197,1,163.200003112793,8|0,0:0|0:0,0:0:0:0:
352,101,37249,2,0,P|319:142|319:198,1,96,8|0,0:0|0:0,0:0:0:0:
216,383,37499,2,0,P|249:342|249:286,1,96,8|0,0:0|0:0,0:0:0:0:
122,113,37749,6,0,L|107:279,1,163.200003112793,4|8,0:0|0:0,0:0:0:0:
303,199,38165,1,0,0:0:0:0:
315,183,38249,2,0,P|333:106|281:36,1,163.200003112793,0|8,0:0|0:0,0:0:0:0:
272,313,38749,6,0,L|449:306,1,163.200003112793,0|8,0:0|0:0,0:0:0:0:
256,141,39165,1,0,0:0:0:0:
239,130,39249,2,0,P|160:117|99:167,1,163.200003112793,0|8,0:0|0:0,0:0:0:0:
355,208,39749,6,0,L|362:97,1,108.800002075195,2|0,0:0|0:0,0:0:0:0:
423,254,39999,2,0,P|371:288|307:276,1,108.800002075195,10|0,0:0|0:0,0:0:0:0:
178,114,40249,2,0,P|227:136|254:183,1,108.800002075195,2|0,0:0|0:0,0:0:0:0:
186,308,40499,6,0,L|20:292,1,163.200003112793,12|0,0:0|0:0,0:0:0:0:
107,99,40915,1,0,0:0:0:0:
124,108,40999,2,0,P|141:170|58:155,1,163.200003112793,8|0,0:0|0:0,0:0:0:0:
248,141,41415,1,0,0:0:0:0:
268,143,41499,2,0,L|391:150,1,108.800002075195,8|0,0:0|0:0,0:0:0:0:
358,346,41749,6,0,P|332:295|342:243,1,108.800002075195,2|0,0:0|0:0,0:0:0:0:
479,84,41999,2,0,P|447:132|397:149,1,108.800002075195,10|0,0:0|0:0,0:0:0:0:
159,185,42249,2,0,P|216:187|256:222,1,108.800002075195,2|0,0:0|0:0,0:0:0:0:
69,366,42499,6,0,L|62:196,1,163.200003112793,12|0,0:0|0:0,0:0:0:0:
283,97,42915,1,0,0:0:0:0:
268,111,42999,2,0,P|222:140|159:130,1,108.800002075195,8|0,0:0|0:0,0:0:0:0:
18,276,43249,2,0,P|64:247|127:257,1,108.800002075195
278,334,43499,2,0,L|282:224,1,108.800002075195,8|0,0:0|0:0,0:0:0:0:
429,78,43749,6,0,B|446:120|446:120|432:188,1,108.800002075195,2|0,0:0|0:0,0:0:0:0:
253,133,43999,2,0,L|362:128,1,108.800002075195,8|0,0:0|0:0,0:0:0:0:
317,313,44249,2,0,P|252:317|215:289,1,108.800002075195,2|0,0:0|0:0,0:0:0:0:
119,241,44499,2,0,B|107:304|107:304|124:346,1,108.800002075195,8|0,0:0|0:0,0:0:0:0:
253,133,44749,6,0,B|264:83|264:83|241:25,1,108.800002075195,2|0,0:0|0:0,0:0:0:0:
94,46,44999,2,0,B|83:96|83:96|106:154,1,108.800002075195,8|0,0:0|0:0,0:0:0:0:
174,90,45249,1,0,0:0:0:0:
319,264,45415,1,0,0:0:0:0:
338,262,45499,2,0,L|448:252,1,108.800002075195,8|0,0:0|0:0,0:0:0:0:
362,114,45749,6,0,P|280:113|228:186,1,163.200003112793,4|8,0:0|0:0,0:0:0:0:
101,340,46165,1,0,0:0:0:0:
100,321,46249,2,0,L|87:149,1,163.200003112793,0|8,0:0|0:0,0:0:0:0:
297,51,46749,6,0,B|333:107|333:107|322:203,1,163.200003112793,0|8,0:0|0:0,0:0:0:0:
205,306,47165,1,0,0:0:0:0:
186,305,47249,2,0,L|4:299,1,163.200003112793,0|8,0:0|0:0,0:0:0:0:
267,152,47749,6,0,P|303:179|252:170,1,128,2|0,0:0|0:0,0:0:0:0:
75,147,47999,2,0,P|80:102|98:150,1,128,10|0,0:0|0:0,0:0:0:0:
121,330,48249,2,0,P|79:347|112:308,1,128,2|0,0:0|0:0,0:0:0:0:
273,232,48499,6,0,L|444:237,1,163.200003112793,12|0,0:0|0:0,0:0:0:0:
308,73,48915,1,0,0:0:0:0:
289,68,48999,2,0,P|237:68|194:107,1,108.800002075195,8|0,0:0|0:0,0:0:0:0:
257,330,49249,2,0,P|283:284|270:228,1,108.800002075195
139,200,49499,2,0,L|30:199,1,108.800002075195,8|0,0:0|0:0,0:0:0:0:
221,20,49749,6,0,P|279:67|253:168,1,163.200003112793,4|8,0:0|0:0,0:0:0:0:
84,285,50165,1,0,0:0:0:0:
97,271,50249,2,0,P|142:245|204:253,1,108.800002075195
375,337,50499,2,0,P|329:311|305:253,1,108.800002075195,8|0,0:0|0:0,0:0:0:0:
381,141,50749,6,0,L|489:134,1,108.800002075195
292,21,50999,2,0,P|270:70|281:123,1,108.800002075195,8|0,0:0|0:0,0:0:0:0:
275,355,51249,2,0,P|285:302|263:253,1,108.800002075195
62,227,51499,2,0,P|114:237|163:215,1,108.800002075195,8|0,0:0|0:0,0:0:0:0:
368,80,51749,6,0,L|198:67,1,163.200003112793,4|8,0:0|0:0,0:0:0:0:
62,227,52165,2,0,P|127:186|216:203,1,163.200003112793,0|8,0:0|0:0,0:0:0:0:
151,294,52499,1,8,0:0:0:0:
437,179,52915,5,8,0:0:0:0:
417,183,52999,2,0,B|377:190|377:190|311:154,1,108.800002075195,8|0,0:0|0:0,0:0:0:0:
203,46,53249,2,0,B|229:77|229:77|230:152,1,108.800002075195,8|0,0:0|0:0,0:0:0:0:
193,301,53499,2,0,B|206:262|206:262|271:223,1,108.800002075195,8|0,0:0|0:0,0:0:0:0:
390,105,53749,5,4,0:0:0:0:
405,354,53915,1,0,0:0:0:0:
416,336,53999,2,0,P|433:285|415:234,1,108.800002075195,8|0,0:0|0:0,0:0:0:0:
401,217,54249,1,8,0:0:0:0:
124,77,54499,6,0,B|103:129|103:129|118:179,1,108.800002075195
283,190,54749,2,0,B|303:137|303:137|288:87,1,108.800002075195,8|0,0:0|0:0,0:0:0:0:
204,134,54999,2,0,L|194:266,1,108.800002075195,8|0,0:0|0:0,0:0:0:0:
193,264,55249,1,0,0:0:0:0:
473,152,55415,1,0,0:0:0:0:
453,150,55499,2,0,L|338:141,1,108.800002075195,8|0,0:0|0:0,0:0:0:0:
305,288,55749,6,0,P|367:289|419:247,1,108.800002075195,4|0,0:0|0:0,0:0:0:0:
286,70,55999,2,0,P|254:123|264:189,1,108.800002075195,8|0,0:0|0:0,0:0:0:0:
212,371,56249,2,0,P|211:317|181:272,1,108.800002075195
165,150,56499,6,0,B|107:178|107:178|1:171,1,163.200003112793,12|0,0:0|0:0,0:0:0:0:
305,288,56999,2,0,L|467:298,1,163.200003112793,8|0,0:0|0:0,0:0:0:0:
403,128,57415,1,8,0:0:0:0:
384,124,57499,2,0,P|361:164|408:166,1,108.800002075195,8|0,0:0|0:0,0:0:0:0:
283,63,57749,6,0,L|172:56,1,108.800002075195,4|0,0:0|0:0,0:0:0:0:
210,261,57999,2,0,P|236:219|234:153,1,108.800002075195,8|0,0:0|0:0,0:0:0:0:
36,195,58249,2,0,L|145:189,1,108.800002075195
312,66,58499,2,0,P|311:119|338:166,1,108.800002075195,8|0,0:0|0:0,0:0:0:0:
481,254,58749,6,0,L|365:248,1,108.800002075195
189,355,58999,2,0,P|230:318|243:265,1,108.800002075195,8|0,0:0|0:0,0:0:0:0:
133,89,59249,2,0,P|160:136|209:160,1,108.800002075195
401,160,59499,2,0,P|345:160|300:190,1,108.800002075195,8|0,0:0|0:0,0:0:0:0:
109,354,59749,6,0,B|81:300|81:300|95:226,1,128,2|0,0:0|0:0,0:0:0:0:
269,214,59999,2,0,B|297:268|297:268|282:342,1,128,10|0,0:0|0:0,0:0:0:0:
181,285,60249,2,0,L|185:155,1,128,2|0,0:0|0:0,0:0:0:0:
385,40,60499,6,0,L|390:203,1,163.200003112793,12|0,0:0|0:0,0:0:0:0:
184,157,60915,2,0,L|180:322,1,163.200003112793,8|0,0:0|0:0,0:0:0:0:
27,249,61249,6,0,P|85:221|153:229,1,128,8|0,0:0|0:0,0:0:0:0:
348,351,61499,2,0,P|294:314|267:251,1,128,8|0,0:0|0:0,0:0:0:0:
410,67,61749,6,0,B|424:121|424:121|401:177,1,108.800002075195,4|0,0:0|0:0,0:0:0:0:
248,164,61999,2,0,B|234:110|234:110|257:53,1,108.800002075195,8|0,0:0|0:0,0:0:0:0:
334,115,62249,1,0,0:0:0:0:
332,134,62499,6,0,L|324:248,1,108.800002075195
185,326,62749,2,0,B|234:305|234:305|310:325,1,108.800002075195,8|0,0:0|0:0,0:0:0:0:
464,317,62999,2,0,B|421:284|421:284|400:208,1,108.800002075195,8|0,0:0|0:0,0:0:0:0:
482,101,63249,1,0,0:0:0:0:
463,99,63499,2,0,L|350:89,1,108.800002075195,8|0,0:0|0:0,0:0:0:0:
120,39,63749,6,0,P|172:70|183:166,1,163.200003112793,4|8,0:0|0:0,0:0:0:0:
77,343,64248,1,0,0:0:0:0:
88,180,64498,6,0,L|76:351,1,163.200003112793,12|0,0:0|0:0,0:0:0:0:
364,222,64998,2,0,L|352:59,2,163.200003112793,8|8|8,0:0|0:0|0:0,0:0:0:0:
224,379,65665,1,8,0:0:0:0:
237,365,65749,6,0,P|258:311|252:254,1,108.800002075195,4|0,0:0|0:0,0:0:0:0:
240,54,65999,2,0,P|236:107|257:157,1,108.800002075195,8|0,0:0|0:0,0:0:0:0:
443,244,66249,2,0,P|393:222|339:225,1,108.800002075195
70,234,66499,2,0,P|123:237|173:216,1,108.800002075195,8|0,0:0|0:0,0:0:0:0:
360,78,66749,6,0,P|422:78|362:97,1,163.200003112793,12|0,0:0|0:0,0:0:0:0:
173,216,67165,2,0,P|115:165|193:189,1,217.600004150391,8|0,0:0|0:0,0:0:0:0:
326,358,67665,1,8,0:0:0:0:
334,341,67749,6,0,P|348:291|338:235,1,108.800002075195,4|0,0:0|0:0,0:0:0:0:
189,79,67999,2,0,P|179:132|193:184,1,108.800002075195,8|0,0:0|0:0,0:0:0:0:
203,203,68249,1,0,0:0:0:0:
341,132,68415,1,8,0:0:0:0:
346,114,68499,1,8,0:0:0:0:
224,309,68665,1,8,0:0:0:0:
205,308,68749,6,0,L|36:302,1,163.200003112793,12|0,0:0|0:0,0:0:0:0:
208,140,69165,2,0,P|223:181|189:147,1,108.800002075195,8|0,0:0|0:0,0:0:0:0:
330,116,69415,1,0,0:0:0:0:
341,132,69499,2,0,P|356:186|338:241,1,108.800002075195,8|0,0:0|0:0,0:0:0:0:
231,372,69749,6,0,L|236:327,1,27.2000005187988,2|0,0:0|0:0,0:0:0:0:
265,35,69999,5,0,0:0:0:0:
465,277,70249,5,2,0:0:0:0:
99,192,70499,5,0,0:0:0:0:
401,84,70749,5,2,0:0:0:0:
225,370,70999,5,0,0:0:0:0:
192,119,71249,6,8,L|187:177,2,54.4000010375977
336,260,71499,2,8,L|331:205,2,54.4000010375977
225,370,71749,1,12,0:0:0:0:
256,192,71832,12,0,72665,0:0:0:0:
280,90,72749,6,0,P|241:128|184:144,1,108.800002075195,2|0,0:0|0:0,0:0:0:0:
1,194,72999,2,0,P|53:207|95:249,1,108.800002075195,2|0,0:0|0:0,0:0:0:0:
225,381,73249,2,0,P|211:329|226:271,1,108.800002075195,2|0,0:0|0:0,0:0:0:0:
342,207,73499,2,0,L|472:204,1,108.800002075195,10|0,0:0|0:0,0:0:0:0:
299,31,73749,6,0,P|301:108|206:161,1,192,4|8,0:0|0:0,0:0:0:0:
53,307,74249,2,0,P|106:271|179:277,1,128
404,336,74499,2,0,P|346:308|315:241,1,128,8|0,0:0|0:0,0:0:0:0:
439,84,74749,6,0,L|437:212,1,128
219,226,74999,2,0,P|270:163|337:158,1,128,8|0,0:0|0:0,0:0:0:0:
253,361,75249,2,0,L|118:355,1,128
5,216,75499,2,0,P|70:221|130:185,1,128,8|0,0:0|0:0,0:0:0:0:
411,103,75749,6,0,P|333:48|236:72,1,192,0|8,0:0|0:0,0:0:0:0:
329,296,76165,1,0,0:0:0:0:
347,295,76249,2,0,L|486:292,1,128
311,161,76499,2,0,P|253:185|190:170,1,128,8|0,0:0|0:0,0:0:0:0:
88,53,76749,6,0,P|119:43|163:48,2,64
245,89,76999,1,8,0:0:0:0:
413,239,77249,6,0,P|382:229|338:234,2,64
256,275,77499,1,8,0:0:0:0:
37,226,77749,6,0,P|112:175|219:192,1,192,4|8,0:0|0:0,0:0:0:0:
409,332,78165,1,0,0:0:0:0:
399,315,78249,2,0,P|377:253|389:186,1,128
240,44,78499,2,0,P|248:106|227:166,1,128,8|0,0:0|0:0,0:0:0:0:
178,334,78749,6,0,L|34:324,1,128
226,166,78999,2,0,P|276:134|351:143,1,128,8|0,0:0|0:0,0:0:0:0:
328,360,79249,2,0,P|296:306|305:244,1,128
448,102,79499,2,0,P|456:164|424:218,1,128,8|0,0:0|0:0,0:0:0:0:
155,185,79749,6,0,B|127:133|127:133|149:48,1,128
305,54,79999,2,0,B|333:106|333:106|315:172,1,128,8|0,0:0|0:0,0:0:0:0:
230,121,80249,1,0,0:0:0:0:
203,379,80415,1,8,0:0:0:0:
206,359,80499,2,0,L|218:220,1,128,8|0,0:0|0:0,0:0:0:0:
417,54,80749,6,0,L|434:245,1,192,4|8,0:0|0:0,0:0:0:0:
163,154,81165,2,0,B|259:104|259:193|363:143,1,192
347,149,81499,1,8,0:0:0:0:
168,353,81665,1,0,0:0:0:0:
185,344,81749,6,0,P|220:299|216:230,1,128,4|0,0:0|0:0,0:0:0:0:
189,25,81999,2,0,P|210:77|272:108,1,128,8|0,0:0|0:0,0:0:0:0:
459,220,82249,2,0,P|402:212|344:250,1,128,0|0,0:0|0:3,0:0:0:0:
44,200,82499,2,0,P|101:208|159:170,1,128,8|0,0:0|0:3,0:0:0:0:
355,19,82749,6,0,L|366:158,1,128
365,146,82999,1,8,0:0:0:0:
108,373,83165,1,0,0:0:0:0:
102,354,83249,6,0,B|84:296|84:296|113:228,1,128
272,245,83499,2,0,B|289:303|289:303|261:371,1,128,8|0,0:0|0:0,0:0:0:0:
187,299,83749,6,0,L|196:171,1,128
61,64,83999,2,0,B|124:85|124:85|209:66,1,128,8|0,0:0|0:0,0:0:0:0:
339,14,84249,2,0,B|301:69|301:69|297:157,1,128
432,275,84499,2,0,P|479:265|430:251,1,128,8|0,0:0|0:0,0:0:0:0:
337,372,84749,5,0,0:0:0:0:
174,100,84915,1,0,0:0:0:0:
173,119,84999,2,0,L|163:269,1,128,8|0,0:0|0:0,0:0:0:0:
163,266,85249,1,0,0:0:0:0:
386,102,85415,1,0,0:0:0:0:
374,86,85499,2,0,P|323:52|252:59,1,128,8|0,0:0|0:0,0:0:0:0:
65,234,85749,6,0,B|186:209|186:209|261:231,1,192,4|0,0:0|0:0,0:0:0:0:
418,362,86165,2,0,P|394:273|473:203,1,192,4|8,0:0|0:0,0:0:0:0:
457,206,86499,1,8,0:0:0:0:
152,47,86749,6,0,L|140:248,1,192,4|0,0:0|0:0,0:0:0:0:
330,371,87165,2,0,B|377:292|377:292|341:190,1,192,4|8,0:0|0:0,0:0:0:0:
343,197,87499,1,8,0:0:0:0:
65,196,87749,6,0,P|113:158|197:170,1,128
422,148,87999,2,0,P|374:110|290:122,1,128,8|0,0:0|0:0,0:0:0:0:
140,238,88249,6,0,B|126:306|126:306|161:363,1,128
366,327,88499,2,0,B|379:259|379:259|345:202,1,128,8|0,0:0|0:0,0:0:0:0:
254,283,88749,5,4,0:0:0:0:
241,27,89249,2,0,L|234:161,1,128
235,155,89499,1,0,0:0:0:0:
50,305,89749,6,0,B|176:243|176:365|311:289,1,268.799991796875,4|8,0:0|0:0,0:0:0:0:
307,291,90499,1,0,0:0:0:0:
419,49,90749,6,0,P|265:63|234:154,1,268.799991796875,8|8,0:0|0:0,0:0:0:0:
347,138,91499,1,0,0:0:0:0:
408,356,91749,6,0,P|419:309|407:259,1,89.5999972656251,2|0,0:0|0:0,0:0:0:0:
181,200,91999,2,0,P|221:235|276:248,1,108.800002075195,10|0,0:0|0:0,0:0:0:0:
444,66,92249,2,0,P|384:88|346:138,1,128,2|0,0:0|0:0,0:0:0:0:
217,314,92499,6,0,L|75:309,1,134.399995898438,4|0,0:0|0:0,0:0:0:0:
237,93,92999,1,8,0:0:0:0:
237,93,93249,2,0,P|262:137|260:206,1,108.800002075195
82,309,93499,2,0,P|82:255|108:207,1,108.800002075195,8|0,0:0|0:0,0:0:0:0:
289,194,93749,6,0,L|421:189,1,128,4|0,0:0|0:0,0:0:0:0:
307,318,93999,2,0,L|175:313,1,128,8|0,0:0|0:0,0:0:0:0:
260,100,94249,2,0,P|322:104|372:144,1,128
180,312,94499,2,0,P|152:255|162:192,1,128,8|0,0:0|0:0,0:0:0:0:
367,251,94749,6,0,L|357:390,1,128
254,175,94999,2,0,P|302:144|385:149,1,128,8|0,0:0|0:0,0:0:0:0:
161,193,95249,2,0,P|110:166|72:92,1,128
220,263,95499,2,0,P|222:320|177:389,1,128,8|0,0:0|0:0,0:0:0:0:
87,288,95749,6,0,P|125:311|85:299,1,128,2|0,0:0|0:0,0:0:0:0:
255,130,95999,6,0,P|215:95|238:142,1,147.200002807617,10|0,0:0|0:0,0:0:0:0:
400,293,96249,6,0,P|404:355|365:306,1,166.399992382813,2|0,0:0|0:0,0:0:0:0:
337,133,96499,6,0,B|458:144|458:144|437:160,1,144.000005493164,12|0,0:0|0:0,0:0:0:0:
246,369,96999,5,8,0:0:0:0:
246,369,97249,2,0,L|244:207,1,144.000005493164,0|8,0:0|0:0,0:0:0:0:
73,86,97749,6,0,P|145:125|47:148,1,230.39999296875,4|0,0:0|0:0,0:0:0:0:
53,160,98499,1,0,0:0:0:0:
256,127,98749,6,0,L|393:134,1,115.199996484375,8|0,0:0|0:0,0:0:0:0:
162,339,99249,2,0,P|139:292|162:225,1,115.199996484375,8|0,0:0|0:0,0:0:0:0:
338,256,99749,6,0,L|332:390,1,115.199996484375,8|0,0:0|0:0,0:0:0:0:
135,139,100249,6,0,L|142:298,1,144.000005493164,8|0,0:0|0:0,0:0:0:0:
340,38,100749,6,0,P|312:96|333:159,1,128,8|0,0:0|0:0,0:0:0:0:
427,212,100999,6,8,P|434:182|425:146,2,64
307,307,101249,6,8,P|292:341|295:382,2,73.6000014038086
224,175,101499,6,8,P|210:136|177:114,2,83.1999961914064
130,198,101749,5,4,0:0:0:0:
351,180,101999,5,0,0:0:0:0:
130,198,102124,1,4,0:0:0:0:
272,82,102374,5,0,0:0:0:0:
254,303,102499,1,0,0:0:0:0:
272,82,102624,1,0,0:0:0:0:
81,268,102749,5,4,0:0:0:0:
327,346,102999,1,4,0:0:0:0:
327,346,103249,2,8,P|338:307|326:252,2,83.1999961914064
182,260,103499,2,8,P|171:299|183:354,2,83.1999961914064
318,172,103749,6,0,L|455:181,1,128,4|0,0:0|0:0,0:0:0:0:
306,31,103999,2,0,P|255:58|246:124,1,128,8|0,0:0|0:0,0:0:0:0:
342,356,104249,2,0,P|344:298|291:257,1,128
72,248,104499,2,0,P|142:252|192:215,1,128,8|0,0:0|0:0,0:0:0:0:
118,31,104749,6,0,L|112:159,1,128
277,288,104999,2,0,P|299:225|275:154,1,128,8|0,0:0|0:0,0:0:0:0:
74,328,105249,2,0,P|137:306|208:330,1,128
450,221,105499,2,0,P|387:243|316:219,1,128,8|0,0:0|0:0,0:0:0:0:
182,66,105749,6,0,P|142:46|172:89,1,128,2|0,0:0|0:0,0:0:0:0:
329,228,105999,6,0,P|377:198|320:190,1,147.200002807617,10|0,0:0|0:0,0:0:0:0:
180,348,106249,6,0,P|116:361|166:322,1,166.399992382813,2|0,0:0|0:0,0:0:0:0:
410,285,106499,6,0,L|266:281,1,144.000005493164,4|0,0:0|0:0,0:0:0:0:
91,144,106999,2,0,P|187:149|244:72,1,192,8|0,0:0|0:0,0:0:0:0:
423,53,107415,1,8,0:0:0:0:
422,72,107499,2,0,L|415:209,1,128,8|0,0:0|0:0,0:0:0:0:
214,214,107749,6,0,P|265:172|345:177,1,128,4|0,0:0|0:0,0:0:0:0:
297,332,107999,2,0,L|169:322,1,128,8|0,0:0|0:0,0:0:0:0:
213,95,108249,2,0,B|237:153|237:153|210:224,1,128
19,163,108499,2,0,L|148:159,1,128,8|0,0:0|0:0,0:0:0:0:
329,43,108749,6,0,P|313:113|332:165,1,128
281,382,108999,2,0,P|299:321|283:260,1,128,8|0,0:0|0:0,0:0:0:0:
158,83,109249,5,8,0:0:0:0:
106,93,109332,1,8,0:0:0:0:
74,134,109415,1,8,0:0:0:0:
74,186,109498,1,8,0:0:0:0:
108,226,109582,1,8,0:0:0:0:
160,235,109665,1,8,0:0:0:0:
205,209,109748,5,12,0:0:0:0:
256,192,109832,12,0,110749,0:0:0:0:
274,317,110999,6,4,B|265:286|285:246|285:246|371:132|285:52|285:52|201:135|276:193,1,435.200008300781,4|0,0:0|0:0,0:0:0:0:
354,294,111749,5,2,0:0:0:0:
354,294,111999,1,0,0:0:0:0:
96,164,112249,5,0,0:0:0:0:
96,164,112499,1,0,0:0:0:0:
376,68,112749,5,0,0:0:0:0:
376,68,112999,1,0,0:0:0:0:
195,343,113249,5,0,0:0:0:0:
195,343,113499,1,0,0:0:0:0:
254,49,113749,5,2,0:0:0:0:
254,49,113999,1,0,0:0:0:0:
397,303,114249,5,0,0:0:0:0:
397,303,114499,1,0,0:0:0:0:
108,264,114749,5,0,0:0:0:0:
108,264,114999,1,0,0:0:0:0:
383,111,115249,5,0,0:0:0:0:
383,111,115499,2,2,L|381:152,2,27.2000005187988
