osu file format v14

[General]
AudioFilename: audio.mp3
AudioLeadIn: 0
PreviewTime: 71374
Countdown: 0
SampleSet: Soft
StackLeniency: 0.7
Mode: 0
LetterboxInBreaks: 0
WidescreenStoryboard: 1

[Editor]
Bookmarks: 21749,53749,73749,103749,106249
DistanceSpacing: 1
BeatDivisor: 3
GridSize: 32
TimelineZoom: 3.399999

[Metadata]
Title:Jingle Bells ga Tomaranai
TitleUnicode:ジングルベルがとまらない
Artist:Aqours
ArtistUnicode:Aqours
Creator:StarrStyx
Version:Easy
Source:Lovelive! Sunshine!!
Tags:ラブライブ!サンシャイン!! opening anime tv size school idol project Inami Anju 伊波杏樹 Aida Rikako 逢田梨香子 Suwa Nanaka 諏訪ななか Komiya Arisa 小宮有紗 Saito Shuka 斉藤朱夏 Kobayashi Aika 小林愛香 Takatsuki Kanako 高槻かなこ Suzuki Aina 鈴木愛奈 Furihata Ai 降幡 愛 Takami Chika 高海千歌 Sakurauchi Riko 桜内梨子 Matsuura Kanan 松浦果南 Kurosawa Dia 黒澤ダイヤ Watanabe You 渡辺 曜 Tsushima Yoshiko 津島善子 Kunikida Hanamaru 国木田花丸 Ohara Mari 小原鞠莉 Kurosawa Ruby 黒澤ルビィ gidz gee little cloudsplash16 crystal
BeatmapID:1149463
BeatmapSetID:535998

[Difficulty]
HPDrainRate:2
CircleSize:2
OverallDifficulty:2
ApproachRate:3
SliderMultiplier:0.700000005960464
SliderTickRate:1

[Events]
//Background and Video events
0,0,"715177.png",0,0
//Break Periods
//Storyboard Layer 0 (Background)
//Storyboard Layer 1 (Fail)
//Storyboard Layer 2 (Pass)
//Storyboard Layer 3 (Foreground)
//Storyboard Sound Samples

[TimingPoints]
1749,250,4,2,99,40,1,0
4999,-100,4,2,99,50,0,0
5249,-100,4,2,99,60,0,0
5499,-100,4,2,99,70,0,0
5749,-100,4,2,99,80,0,0
11749,-100,4,2,99,85,0,0
12499,-100,4,2,99,65,0,0
13749,-100,4,2,99,80,0,0
15749,-100,4,2,99,85,0,0
16499,-100,4,2,99,65,0,0
17749,-100,4,2,99,80,0,0
19249,-100,4,2,99,70,0,0
21749,-100,4,2,99,60,0,0
31749,-100,4,2,99,70,0,0
32498,-100,4,2,99,60,0,0
35749,-100,4,2,99,70,0,0
37749,-100,4,2,99,60,0,0
47749,-100,4,2,99,70,0,0
48499,-100,4,2,99,60,0,0
59749,-100,4,2,99,70,0,0
60499,-100,4,2,99,60,0,0
61249,-100,4,2,99,70,0,0
61749,-100,4,2,99,60,0,0
73749,-100,4,2,99,80,0,1
89749,-100,4,2,99,60,0,0
91999,-100,4,2,99,70,0,0
92499,-100,4,2,99,60,0,0
93249,-100,4,2,99,70,0,0
93749,-100,4,2,99,80,0,1
95749,-100,4,2,99,85,0,1
96499,-100,4,2,99,70,0,1
97749,-100,4,2,99,60,0,0
100249,-100,4,2,99,70,0,0
100999,-100,4,2,99,75,0,0
101749,-100,4,2,99,80,0,1
103749,-100,4,2,99,80,0,0
105749,-100,4,2,99,85,0,0
106499,-100,4,2,99,65,0,0
107749,-100,4,2,99,80,0,0
109249,-100,4,2,99,70,0,0
111749,-100,4,2,99,40,0,0

[Colours]
Combo1 : 135,255,121
Combo2 : 255,164,62
Combo3 : 255,142,199
Combo4 : 125,249,255

[HitObjects]
31,290,1749,6,0,B|143:274|143:274|199:309|199:309|312:292,1,280.000002384186,2|0,0:0|0:0,0:0:0:0:
417,369,3249,1,0,0:0:0:0:
483,245,3749,2,0,P|500:122|373:83,1,280.000002384186,2|2,0:0|0:0,0:0:0:0:
251,154,5249,1,2,0:0:0:0:
134,75,5749,6,0,L|122:225,1,140.000001192093,4|0,0:0|0:0,0:0:0:0:
73,345,6749,2,0,P|141:352|206:326,1,140.000001192093,0|0,0:0|0:0,0:0:0:0:
334,269,7749,2,0,P|403:330|315:352,2,210.000001788139,0|12|0,0:0|0:0|0:0,0:0:0:0:
282,139,9749,6,0,L|428:132,1,140.000001192093
501,247,10749,2,0,L|361:253,1,140.000001192093
253,343,11749,2,0,P|154:367|66:314,1,210.000001788139,2|14,0:0|0:0,0:0:0:0:
175,226,12999,1,2,0:0:0:0:
325,79,13749,6,0,L|344:230,1,140.000001192093,4|0,0:0|0:0,0:0:0:0:
417,336,14749,2,0,P|352:357|271:334,1,140.000001192093
245,207,15749,2,0,P|152:155|53:182,1,210.000001788139,2|12,0:0|0:0,0:0:0:0:
204,328,17249,1,0,0:0:0:0:
328,261,17749,6,0,L|340:118,1,140.000001192093,4|0,0:0|0:0,0:0:0:0:
443,215,18749,2,0,L|431:354,1,140.000001192093,0|8,0:0|0:0,0:0:0:0:
256,192,19749,12,12,21749,0:0:0:0:
225,73,22749,6,0,L|72:79,1,140.000001192093,0|0,0:0|0:0,0:0:0:0:
28,206,23749,2,0,P|128:178|224:229,1,210.000001788139,2|12,0:0|0:0,0:0:0:0:
375,362,25249,1,0,0:0:0:0:
476,266,25749,6,0,L|491:121,1,140.000001192093,2|2,0:0|0:0,0:0:0:0:
379,40,26749,2,0,L|364:179,1,140.000001192093,0|0,0:0|0:0,0:0:0:0:
242,109,27749,2,0,P|174:89|94:109,1,140.000001192093,2|2,0:0|0:0,0:0:0:0:
46,228,28749,2,0,P|114:240|180:221,1,140.000001192093,0|0,0:0|0:0,0:0:0:0:
285,314,29749,6,0,L|429:325,1,140.000001192093,4|0,0:0|0:0,0:0:0:0:
479,195,30749,2,0,P|498:129|475:47,1,140.000001192093,0|0,0:0|0:0,0:0:0:0:
358,125,31749,2,0,L|205:110,1,140.000001192093,2|2,0:0|0:0,0:0:0:0:
101,34,32749,2,0,P|78:99|89:173,1,140.000001192093,0|0,0:0|0:0,0:0:0:0:
70,307,33749,6,0,L|215:300,1,140.000001192093,0|0,0:0|0:0,0:0:0:0:
334,363,34749,2,0,P|350:296|331:229,1,140.000001192093,0|0,0:0|0:0,0:0:0:0:
249,116,35749,2,0,L|467:110,1,210.000001788139,0|8,0:0|0:0,0:0:0:0:
367,299,37249,1,8,0:0:0:0:
246,370,37749,6,0,P|226:303|242:235,1,140.000001192093,4|0,0:0|0:0,0:0:0:0:
367,172,38749,2,0,P|386:105|370:37,1,140.000001192093,0|0,0:0|0:0,0:0:0:0:
245,101,39749,2,0,B|91:90|91:90|134:130,1,210.000001788139,2|12,0:0|0:0,0:0:0:0:
302,250,41249,1,0,0:0:0:0:
425,184,41749,6,0,P|441:250|423:319,1,140.000001192093,2|2,0:0|0:0,0:0:0:0:
292,365,42749,2,0,L|148:356,1,140.000001192093,0|0,0:0|0:0,0:0:0:0:
70,240,43749,2,0,P|139:249|203:222,2,140.000001192093,2|2|2,0:0|0:0|0:0,0:0:0:0:
121,110,45249,1,0,0:0:0:0:
237,33,45749,6,0,L|380:42,1,140.000001192093,4|0,0:0|0:0,0:0:0:0:
466,149,46749,2,0,L|326:140,1,140.000001192093,0|0,0:0|0:0,0:0:0:0:
234,246,47749,2,0,P|336:238|417:312,1,210.000001788139,2|12,0:0|0:0,0:0:0:0:
210,360,49249,1,0,0:0:0:0:
87,292,49749,6,0,L|95:146,1,140.000001192093,4|0,0:0|0:0,0:0:0:0:
226,105,50749,2,0,L|218:244,1,140.000001192093,0|0,0:0|0:0,0:0:0:0:
313,347,51749,2,0,P|361:258|325:157,1,210.000001788139,4|8,0:0|0:0,0:0:0:0:
165,293,53249,1,8,0:0:0:0:
78,183,53749,6,0,L|220:176,1,140.000001192093,4|8,0:0|0:0,0:0:0:0:
315,76,54749,2,0,P|380:49|463:62,1,140.000001192093,8|0,0:0|0:0,0:0:0:0:
401,187,55749,2,0,P|453:272|397:377,2,210.000001788139,4|12|0,0:0|0:0|0:0,0:0:0:0:
310,293,57749,6,0,L|162:287,1,140.000001192093,4|0,0:0|0:0,0:0:0:0:
67,191,58749,2,0,L|206:196,1,140.000001192093
259,67,59749,2,0,P|357:28|459:66,1,210.000001788139,2|12,0:0|0:0,0:0:0:0:
408,265,61249,1,8,0:0:0:0:
282,326,61749,6,0,L|281:179,1,140.000001192093,4|0,0:0|0:0,0:0:0:0:
152,130,62749,2,0,L|152:269,1,140.000001192093,8|0,0:0|0:0,0:0:0:0:
43,182,63749,2,0,P|37:89|137:10,1,210.000001788139,4|12,0:0|0:0,0:0:0:0:
304,108,65249,1,8,0:0:0:0:
422,32,65749,6,0,L|427:179,1,140.000001192093,4|0,0:0|0:0,0:0:0:0:
485,298,66749,2,0,P|429:314|373:300,1,116.666667660077,12|0,0:0|0:0,0:0:0:0:
312,148,67749,6,0,P|245:128|164:149,1,140.000001192093,4|0,0:0|0:0,0:0:0:0:
168,281,68749,2,0,L|293:280,1,116.666667660077,12|0,0:0|0:0,0:0:0:0:
430,356,69749,6,0,L|437:212,1,140.000001192093,2|2,0:0|0:0,0:0:0:0:
380,87,70749,2,0,P|313:96|268:150,1,140.000001192093,2|0,0:0|0:0,0:0:0:0:
274,289,71749,1,12,0:0:0:0:
256,192,71874,12,0,73749,0:0:0:0:
204,107,74749,6,0,L|64:116,1,140.000001192093,2|8,0:0|0:0,0:0:0:0:
22,250,75749,2,0,P|91:255|155:222,1,140.000001192093,0|8,0:0|0:0,0:0:0:0:
260,313,76749,2,0,L|399:322,1,140.000001192093,0|8,0:0|0:0,0:0:0:0:
471,201,77749,6,0,P|493:136|463:55,1,140.000001192093,4|8,0:0|0:0,0:0:0:0:
349,133,78749,2,0,L|180:118,1,140.000001192093,0|8,0:0|0:0,0:0:0:0:
96,37,79749,2,0,P|70:104|81:175,1,140.000001192093,0|8,0:0|0:0,0:0:0:0:
130,300,80749,1,4,0:0:0:0:
333,107,81749,6,0,L|472:119,1,140.000001192093,4|8,0:0|0:0,0:0:0:0:
480,259,82749,2,0,P|412:278|341:263,1,140.000001192093,0|8,0:0|0:0,0:0:0:0:
223,334,83749,2,0,P|155:315|84:330,1,140.000001192093,0|8,0:0|0:0,0:0:0:0:
32,199,84749,2,0,L|25:50,1,140.000001192093,0|8,0:0|0:0,0:0:0:0:
154,113,85749,6,0,L|160:231,1,116.666667660077,4|8,0:0|0:0,0:0:0:0:
305,303,86749,2,0,L|299:186,1,116.666667660077,4|8,0:0|0:0,0:0:0:0:
436,97,87749,2,0,P|382:51|305:41,2,140.000001192093,4|4|4,0:0|0:0|0:0,0:0:0:0:
351,364,89749,6,0,L|348:224,1,140.000001192093,4|0,0:0|0:0,0:0:0:0:
221,164,90749,2,0,L|218:303,1,140.000001192093,8|8,0:0|0:0,0:0:0:0:
88,250,91749,2,0,P|53:156|102:62,1,210.000001788139,2|4,0:0|0:0,0:0:0:0:
288,157,93249,1,0,0:0:0:0:
393,65,93749,6,0,L|397:211,1,140.000001192093,4|8,0:0|0:0,0:0:0:0:
476,320,94749,2,0,P|412:345|339:332,1,140.000001192093,0|8,0:0|0:0,0:0:0:0:
229,252,95749,2,0,B|162:242|162:242|95:263|95:263|11:249,1,210.000001788139,2|12,0:0|0:0,0:0:0:0:
154,85,97249,1,0,0:0:0:0:
280,24,97749,6,0,P|294:92|263:176,1,140.000001192093,4|0,0:0|0:0,0:0:0:0:
157,235,98749,2,0,P|143:303|174:387,1,140.000001192093,8|8,0:0|0:0,0:0:0:0:
283,299,99749,2,0,L|442:309,1,140.000001192093,8|8,0:0|0:0,0:0:0:0:
464,173,100749,2,0,L|324:181,1,140.000001192093,8|0,0:0|0:0,0:0:0:0:
239,69,101749,6,0,P|136:62|71:153,1,210.000001788139,4|0,0:0|0:0,0:0:0:0:
63,207,102749,2,0,L|57:290,1,70.0000005960464,4|4,0:0|0:0,0:0:0:0:
242,368,103749,6,0,L|253:210,1,140.000001192093,4|0,0:0|0:0,0:0:0:0:
284,92,104749,2,0,P|349:63|428:76,1,140.000001192093
369,202,105749,2,0,L|153:191,1,210.000001788139,2|4,0:0|0:0,0:0:0:0:
304,343,107249,1,0,0:0:0:0:
173,292,107749,6,0,P|104:279|36:309,1,140.000001192093,4|0,0:0|0:0,0:0:0:0:
13,167,108749,2,0,L|168:157,1,140.000001192093,0|8,0:0|0:0,0:0:0:0:
272,84,109749,2,0,P|371:49|297:285,1,560.000004768371,12|2,0:0|0:0,0:0:0:0:
207,177,112249,1,0,0:0:0:0:
109,77,112749,6,0,L|98:233,1,140.000001192093,0|0,0:0|0:0,0:0:0:0:
217,292,113749,2,0,L|226:152,1,140.000001192093,2|0,0:0|0:0,0:0:0:0:
360,108,114749,2,0,L|350:247,1,140.000001192093,0|0,0:0|0:0,0:0:0:0:
343,317,115499,1,0,0:0:0:0:
