osu file format v14

[General]
AudioFilename: audio.mp3
AudioLeadIn: 0
PreviewTime: 152798
Countdown: 0
SampleSet: Soft
StackLeniency: 0.5
Mode: 0
LetterboxInBreaks: 0
WidescreenStoryboard: 0

[Editor]
DistanceSpacing: 1.1
BeatDivisor: 6
GridSize: 4
TimelineZoom: 3.799999

[Metadata]
Title:Jingle Bells ga Tomaranai
TitleUnicode:ジングルベルがとまらない
Artist:Aqours
ArtistUnicode:Aqours
Creator:Cris-
Version:Yeah! Dancin' Christmas!!
Source:Love Live! Sunshine!!
Tags:wolf3211 Hazu- Christmas X-Mas Xmas LoveLive! ラブライブ!サンシャイン!! ラブライブ!サンシャイン!! School Idol Project Festival Takami Chika 高海千歌 Inami Anju 伊波杏樹 Sakurauchi Riko 桜内梨子 Aida Rikako 逢田梨香子 Watanabe You 渡辺 曜 Saito Shuka 斉藤朱夏 Matsuura Kanan 松浦果南 Suwa Nanaka 諏訪ななか Kurosawa Dia 黒澤ダイヤ Komiya Arisa 小林愛香 Ohara Mari 小原鞠莉 Suzuki Aina 鈴木愛奈 Tsushima Yoshiko 津島善子 Kobayashi Aika 小林愛香 Kunikida Hanamaru 国木田花丸 Takatsuki Kanako 高槻かなこ Kurosawa Ruby 黒澤ルビィ Furihata Ai 降幡 愛 畑 亜貴 Aki Hata 光増ハジメ Hajime Mitsumasu EFFY Sunrise Anime Pop J-Pop JPop Video Game VGM Japanese Collab Collaboration 1/3 Swing
BeatmapID:2740342
BeatmapSetID:1313213

[Difficulty]
HPDrainRate:5
CircleSize:4.2
OverallDifficulty:9
ApproachRate:9.5
SliderMultiplier:2.2
SliderTickRate:1

[Events]
//Background and Video events
0,0,"Jingle Bells ga Tomaranai.jpg",0,0
//Break Periods
//Storyboard Layer 0 (Background)
//Storyboard Layer 1 (Fail)
//Storyboard Layer 2 (Pass)
//Storyboard Layer 3 (Foreground)
//Storyboard Layer 4 (Overlay)
//Storyboard Sound Samples

[TimingPoints]
882,250,4,2,1,65,1,0
4882,-90.9090909090909,4,2,1,75,0,0
11882,-90.9090909090909,4,2,1,5,0,0
12132,-90.9090909090909,4,2,1,75,0,0
12465,-90.9090909090909,4,2,1,5,0,0
12548,-90.9090909090909,4,2,1,75,0,0
15632,-76.9230769230769,4,2,1,75,0,0
16048,-76.9230769230769,4,2,1,5,0,0
16131,-90.9090909090909,4,2,1,75,0,0
18882,-111.111111111111,4,2,1,70,0,0
20132,-100,4,2,1,60,0,0
20882,-100,4,2,1,60,0,0
30882,-90.9090909090909,4,2,1,60,0,0
31632,-100,4,2,1,60,0,0
34882,-90.9090909090909,4,2,1,60,0,0
36048,-83.3333333333333,4,2,1,70,0,0
36882,-100,4,2,1,60,0,0
46882,-90.9090909090909,4,2,1,70,0,0
47632,-100,4,2,1,60,0,0
50882,-100,4,2,1,65,0,0
52048,-90.9090909090909,4,2,1,70,0,0
52882,-90.9090909090909,4,2,1,65,0,0
68882,-111.111111111111,4,2,1,60,0,0
70882,-111.111111111111,4,2,1,70,0,0
72632,-76.9230769230769,4,2,1,70,0,0
72882,-76.9230769230769,4,2,1,80,0,1
84882,-100,4,2,1,80,0,0
85298,-76.9230769230769,4,2,1,80,0,1
85632,-100,4,2,1,80,0,0
86298,-76.9230769230769,4,2,1,80,0,1
86632,-100,4,2,1,80,0,0
86798,-100,4,2,1,5,0,0
86882,-76.9230769230769,4,2,1,80,0,1
87882,-100,4,2,1,80,0,0
88382,-76.9230769230769,4,2,1,80,0,1
88632,-76.9230769230769,4,2,1,80,0,0
88882,-100,4,2,1,80,0,1
89298,-100,4,2,1,5,0,1
89382,-90.9090909090909,4,2,1,80,0,0
89882,-100,4,2,1,80,0,1
90298,-100,4,2,1,5,0,1
90382,-90.9090909090909,4,2,1,80,0,0
90882,-90.9090909090909,4,2,1,80,0,1
91882,-90.9090909090909,4,2,1,80,0,0
92132,-90.9090909090909,4,2,1,80,0,1
92632,-90.9090909090909,4,2,1,80,0,0
92882,-76.9230769230769,4,2,1,80,0,1
95632,-111.111111111111,4,2,1,80,0,1
96048,-111.111111111111,4,2,1,5,0,1
96132,-111.111111111111,4,2,1,80,0,1
96882,-125,4,2,1,60,0,0
97882,-111.111111111111,4,2,1,60,0,0
98882,-100,4,2,1,60,0,0
99298,-100,4,2,1,5,0,0
99382,-90.9090909090909,4,2,1,60,0,0
99798,-90.9090909090909,4,2,1,5,0,0
99882,-83.3333333333333,4,2,1,60,0,0
102132,-76.9230769230769,4,2,1,80,0,1
102882,-90.9090909090909,4,2,1,75,0,0
109882,-90.9090909090909,4,2,1,5,0,0
110132,-90.9090909090909,4,2,1,75,0,0
110465,-90.9090909090909,4,2,1,5,0,0
110548,-90.9090909090909,4,2,1,75,0,0
113632,-76.9230769230769,4,2,1,75,0,0
114048,-76.9230769230769,4,2,1,5,0,0
114132,-90.9090909090909,4,2,1,75,0,0
116882,-111.111111111111,4,2,1,70,0,0
118132,-100,4,2,1,60,0,0
118882,-100,4,2,1,60,0,0
128881,-90.9090909090909,4,2,1,60,0,0
129631,-100,4,2,1,60,0,0
132882,-90.9090909090909,4,2,1,60,0,0
134048,-83.3333333333333,4,2,1,70,0,0
134882,-90.9090909090909,4,2,1,65,0,0
150882,-111.111111111111,4,2,1,60,0,0
152882,-111.111111111111,4,2,1,70,0,0
154382,-90.9090909090908,4,2,1,70,0,0
154882,-76.9230769230769,4,2,1,80,0,1
166882,-100,4,2,1,80,0,0
167298,-76.9230769230769,4,2,1,80,0,1
167632,-100,4,2,1,80,0,0
168298,-76.9230769230769,4,2,1,80,0,1
168632,-100,4,2,1,80,0,0
168798,-100,4,2,1,5,0,0
168882,-76.9230769230769,4,2,1,80,0,1
169882,-100,4,2,1,80,0,0
170382,-76.9230769230769,4,2,1,80,0,1
170632,-76.9230769230769,4,2,1,80,0,0
170882,-100,4,2,1,80,0,1
171298,-100,4,2,1,5,0,1
171382,-90.9090909090909,4,2,1,80,0,0
171882,-100,4,2,1,80,0,1
172298,-100,4,2,1,5,0,1
172382,-90.9090909090909,4,2,1,80,0,0
172882,-90.9090909090909,4,2,1,80,0,1
173882,-90.9090909090909,4,2,1,80,0,0
174132,-90.9090909090909,4,2,1,80,0,1
174632,-90.9090909090909,4,2,1,80,0,0
174882,-76.9230769230769,4,2,1,80,0,1
177632,-111.111111111111,4,2,1,80,0,1
178882,-125,4,2,1,60,0,0
179882,-111.111111111111,4,2,1,60,0,0
180882,-100,4,2,1,60,0,0
181298,-100,4,2,1,5,0,0
181382,-90.9090909090909,4,2,1,60,0,0
181798,-90.9090909090909,4,2,1,5,0,0
181882,-83.3333333333333,4,2,1,60,0,0
184132,-76.9230769230769,4,2,1,80,0,1
184882,-100,4,2,1,70,0,0
186382,-83.3333333333333,4,2,1,70,0,0
186882,-90.9090909090909,4,2,1,70,0,0
202882,-100,4,2,1,65,0,0
204882,-133.333333333333,4,2,1,60,0,0
206298,-133.333333333333,4,2,1,5,0,0
206382,-133.333333333333,4,2,1,60,0,0
206798,-133.333333333333,4,2,1,5,0,0
206882,-200,4,2,1,55,0,0
214882,-133.333333333333,4,2,1,60,0,0
217882,-111.111111111111,4,2,1,60,0,0
218882,-100,4,2,1,80,0,1
219132,-100,4,2,1,80,0,0
219298,-76.9230769230769,4,2,1,80,0,1
219632,-100,4,2,1,80,0,0
219882,-100,4,2,1,80,0,1
220132,-100,4,2,1,80,0,0
220298,-76.9230769230769,4,2,1,80,0,1
220632,-100,4,2,1,80,0,0
220882,-76.9230769230769,4,2,1,80,0,1
221882,-100,4,2,1,80,0,0
222382,-76.9230769230769,4,2,1,80,0,1
222632,-90.9090909090909,4,2,1,80,0,1
222882,-90.9090909090909,4,2,1,80,0,0
223382,-90.9090909090909,4,2,1,80,0,0
223882,-83.3333333333333,4,2,1,80,0,0
224882,-76.9230769230769,4,2,1,80,0,1
234882,-100,4,2,1,80,0,1
235257,-76.9230769230769,4,2,1,80,0,1
235882,-100,4,2,1,80,0,1
236257,-76.9230769230769,4,2,1,80,0,1
236632,-100,4,2,1,80,0,1
236798,-76.9230769230769,4,2,1,5,0,1
236882,-100,4,2,1,80,0,0
238882,-100,4,2,1,80,0,1
239298,-100,4,2,1,5,0,1
239382,-90.9090909090909,4,2,1,80,0,0
239882,-100,4,2,1,80,0,1
240382,-90.9090909090909,4,2,1,80,0,0
240882,-90.9090909090909,4,2,1,80,0,1
241882,-90.9090909090909,4,2,1,80,0,0
242132,-90.9090909090909,4,2,1,80,0,1
242632,-90.9090909090909,4,2,1,80,0,0
242882,-76.9230769230769,4,2,1,80,0,1
245632,-111.111111111111,4,2,1,80,0,1
246882,-125,4,2,1,60,0,0
247882,-111.111111111111,4,2,1,60,0,0
248882,-100,4,2,1,60,0,0
249298,-100,4,2,1,5,0,0
249382,-90.9090909090909,4,2,1,60,0,0
249798,-90.9090909090909,4,2,1,5,0,0
249882,-83.3333333333333,4,2,1,60,0,0
252132,-76.9230769230769,4,2,1,80,0,1
252882,-90.9090909090909,4,2,1,75,0,0
259881,-90.9090909090909,4,2,1,5,0,0
260131,-90.9090909090909,4,2,1,75,0,0
263632,-76.9230769230769,4,2,1,75,0,0
264048,-76.9230769230769,4,2,1,5,0,0
264132,-90.9090909090909,4,2,1,75,0,0
266882,-111.111111111111,4,2,1,75,0,0
268132,-133.333333333333,4,2,1,75,0,0
268798,-133.333333333333,4,2,1,5,0,0
268882,-133.333333333333,4,2,1,60,0,0

[Colours]
Combo1 : 242,98,214
Combo2 : 239,90,154
Combo3 : 65,222,179
Combo4 : 210,176,98
Combo5 : 236,216,72
Combo6 : 84,154,224

[HitObjects]
29,60,882,5,6,0:0:0:0:
82,1,1132,1,2,0:0:0:0:
276,108,1382,5,2,0:0:0:0:
217,43,1632,1,2,0:0:0:0:
36,155,1882,5,2,0:0:0:0:
106,77,2132,1,2,0:0:0:0:
278,221,2382,5,2,0:0:0:0:
194,127,2632,2,0,P|170:138|145:151,3,55,10|8|8|8,0:0|0:3|0:3|0:3,0:0:0:0:
278,221,2882,5,14,0:3:0:0:
382,111,3132,1,2,0:0:0:0:
452,318,3382,5,10,0:3:0:0:
327,163,3632,1,10,0:0:0:0:
231,380,3882,6,0,P|173:338|104:353,1,146.666666666667,10|0,0:0|0:0,0:0:0:0:
264,301,4132,2,0,P|252:230|193:192,1,146.666666666667,10|0,0:0|0:0,0:0:0:0:
348,290,4382,2,0,P|389:232|374:162,1,146.666666666667,10|8,0:0|0:3,0:0:0:0:
403,353,4632,2,0,P|473:341|512:281,1,146.666666666667,10|8,0:0|0:3,0:0:0:0:
231,380,4882,6,0,B|186:401|148:364|170:350|131:318|90:336,1,161.333338256836,14|0,0:3|0:0,0:0:0:0:
34,177,5132,2,0,P|-2:234|65:247,1,161.333338256836,8|0,0:0|0:0,0:0:0:0:
238,153,5382,2,0,B|213:118|166:129|166:129|157:172|116:185,1,161.333338256836,10|0,0:3|0:0,0:0:0:0:
0,0,5632,2,0,B|-12:27|9:51|9:51|113:28,1,161.333338256836,8|0,0:0|0:0,0:0:0:0:
412,109,5882,6,0,B|385:82|385:82|306:100|306:100|276:71,1,161.333338256836,10|0,0:3|0:0,0:0:0:0:
143,290,6132,2,0,P|196:234|269:256,1,161.333338256836,8|0,0:0|0:0,0:0:0:0:
34,177,6382,2,0,B|3:232|55:285|55:285|54:265|66:246,1,161.333338256836,10|0,0:3|0:0,0:0:0:0:
238,153,6632,2,0,B|192:172|155:134|178:120|140:87|98:104,1,161.333338256836,8|0,0:0|0:0,0:0:0:0:
237,380,6882,6,0,P|305:350|391:333,1,161.333338256836,10|0,0:3|0:0,0:0:0:0:
143,290,7132,2,0,B|164:334|131:365|131:365|87:369|67:328,1,161.333338256836,8|2,0:0|0:0,0:0:0:0:
269,256,7382,1,8,0:3:0:0:
34,177,7632,6,0,B|129:241|236:145|158:94|261:-7|362:53,1,403.33334564209,14|0,0:0|0:0,0:0:0:0:
309,182,8132,6,0,P|285:121|342:145,1,161.333338256836,8|0,0:0|0:0,0:0:0:0:
88,49,8382,2,0,P|111:109|54:85,1,161.333338256836,8|0,0:3|0:0,0:0:0:0:
189,0,8632,1,10,0:0:0:0:
269,256,8798,1,2,0:0:0:0:
211,325,8882,6,0,B|239:362|239:362|350:334,1,161.333338256836,10|2,0:3|0:0,0:0:0:0:
173,245,9132,2,0,P|94:266|17:286,1,161.333338256836,8|2,0:0|0:0,0:0:0:0:
269,256,9382,1,8,0:3:0:0:
88,49,9632,1,10,0:0:0:0:
273,0,9798,1,2,0:0:0:0:
248,92,9882,6,0,B|290:75|328:108|305:122|342:160|388:141,1,161.333338256836,10|2,0:3|0:0,0:0:0:0:
181,24,10132,1,10,0:0:0:0:
211,325,10382,2,0,B|169:308|131:341|154:355|117:393|71:374,1,161.333338256836,10|2,0:3|0:0,0:0:0:0:
269,256,10632,1,10,0:0:0:0:
50,135,10882,6,0,P|-4:78|-1:0,1,161.333338256836,10|0,0:3|0:0,0:0:0:0:
107,211,11132,2,0,P|85:286|15:321,1,161.333338256836,10|0,0:0|0:0,0:0:0:0:
143,123,11382,2,0,P|219:103|284:146,1,161.333338256836,10|0,0:3|0:0,0:0:0:0:
50,135,11632,6,0,B|6:118|-29:54|0:-1|0:-1|48:5|60:43,1,242.000007385254,10|0,0:3|0:0,0:0:0:0:
269,256,12132,6,0,B|274:300|305:307|340:312|362:275|366:235|336:183|213:199|192:295,1,322.666676513672,14|0,0:0|0:0,0:0:0:0:
16,384,12548,1,8,0:0:0:0:
39,300,12632,2,0,P|108:291|100:361,1,161.333338256836,8|8,0:0|0:0,0:0:0:0:
0,187,12882,6,0,P|21:104|52:36,1,161.333338256836,14|0,0:3|0:0,0:0:0:0:
284,146,13132,2,0,B|220:159|220:159|195:142|195:142|131:156,1,161.333338256836,8|0,0:0|0:0,0:0:0:0:
300,0,13382,2,0,P|377:14|457:30,1,161.333338256836,10|0,0:3|0:0,0:0:0:0:
164,68,13632,2,0,P|147:2|213:17,1,161.333338256836,8|0,0:0|0:0,0:0:0:0:
157,247,13882,6,0,B|114:242|88:281|88:281|91:236|57:211,1,161.333338256836,10|0,0:3|0:0,0:0:0:0:
268,292,14132,2,0,B|310:190|310:190|283:145,1,161.333338256836,8|0,0:0|0:0,0:0:0:0:
154,328,14382,2,0,B|194:311|235:348|208:363|250:400|290:385,1,161.333338256836,10|0,0:3|0:0,0:0:0:0:
53,309,14632,2,0,P|3:355|66:381,1,161.333338256836,8|0,0:0|0:0,0:0:0:0:
268,292,14882,5,2,1:2:0:0:
149,145,15132,1,10,0:0:0:0:
256,75,15382,1,10,0:3:0:0:
72,304,15632,6,0,B|145:252|221:304|169:346|273:397|354:356|374:268|333:220|248:198|198:241|175:288,1,476.666644846599,14|0,0:3|0:0,0:0:0:0:
33,378,16131,6,0,P|-11:312|17:242,1,161.333338256836,8|0,0:0|0:0,0:0:0:0:
72,304,16382,1,8,0:3:0:0:
226,136,16548,1,8,0:0:0:0:
164,68,16632,2,0,P|88:85|8:106,1,161.333338256836,10|2,0:3|0:0,0:0:0:0:
298,72,16882,6,0,P|307:1|236:4,1,161.333338256836,14|0,0:3|0:0,0:0:0:0:
136,158,17132,2,0,B|110:197|110:197|149:304,1,161.333338256836,8|0,0:0|0:0,0:0:0:0:
364,188,17382,2,0,B|321:204|284:170|307:157|271:118|226:136,1,161.333338256836,10|0,0:3|0:0,0:0:0:0:
258,384,17632,2,0,P|336:363|414:345,1,161.333338256836,8|0,0:0|0:0,0:0:0:0:
149,305,17882,6,0,B|45:331|45:331|38:362|61:381,1,161.333338256836,10|0,0:3|0:0,0:0:0:0:
305,257,18132,2,0,B|280:292|233:281|233:281|224:238|183:225,1,161.333338256836,8|2,0:0|0:0,0:0:0:0:
11,107,18382,5,8,0:3:0:0:
38,125,18465,1,8,0:3:0:0:
83,124,18548,1,8,0:3:0:0:
127,83,18632,1,10,0:0:0:0:
182,34,18715,1,8,0:0:0:0:
262,49,18798,1,8,0:0:0:0:
302,143,18882,6,0,P|335:135|365:127,11,65.9999979858399,14|0|2|0|2|0|2|0|2|0|2|0,0:0|0:0|0:0|0:0|0:0|0:0|0:0|0:0|0:0|0:0|0:0|0:0,0:0:0:0:
365,126,19882,1,8,0:3:0:0:
254,376,20132,6,0,B|312:289|224:192|178:263|86:169|141:77,1,366.666666666667,14|8,0:0|0:3,0:0:0:0:
141,77,20632,1,8,0:3:0:0:
40,356,20882,6,0,P|113:337|182:320,1,146.666666666667,14|0,0:3|0:0,0:0:0:0:
150,190,21132,2,0,P|79:208|9:227,1,146.666666666667,8|0,0:0|0:0,0:0:0:0:
44,375,21382,2,0,P|117:355|185:338,1,146.666666666667,10|0,0:3|0:0,0:0:0:0:
147,171,21632,1,8,0:0:0:0:
403,264,21882,6,0,P|429:328|386:384,1,146.666666666667,10|0,0:3|0:0,0:0:0:0:
331,226,22132,2,0,P|262:216|235:151,1,146.666666666667,8|0,0:0|0:0,0:0:0:0:
400,183,22382,2,0,P|442:128|512:137,1,146.666666666667,10|0,0:3|0:0,0:0:0:0:
403,264,22632,1,8,0:0:0:0:
175,96,22882,6,0,B|152:46|96:36|60:48|76:82|102:73,1,146.666666666667,10|0,0:3|0:0,0:0:0:0:
235,151,23132,2,0,B|289:156|325:112|333:75|295:72|290:99,1,146.666666666667,10|0,0:0|0:0,0:0:0:0:
157,176,23382,2,0,B|124:219|144:274|173:298|195:268|174:249,1,146.666666666667,10|0,0:3|0:0,0:0:0:0:
476,90,23632,6,0,B|536:23|483:-43|402:-30|375:57|416:100|527:81|485:208,1,366.666666666667,10|8,0:0|0:3,0:0:0:0:
412,307,24132,6,0,P|340:286|270:271,1,146.666666666667,10|0,0:0|0:0,0:0:0:0:
253,342,24382,2,0,P|324:357|395:378,1,146.666666666667,8|0,0:3|0:0,0:0:0:0:
286,199,24632,1,8,0:0:0:0:
12,347,24882,6,0,B|11:305|51:282|55:303|96:280|96:238,1,146.666666666667,10|0,0:3|0:0,0:0:0:0:
21,32,25132,2,0,B|55:52|55:97|34:90|34:138|71:158,1,146.666666666667,10|0,0:0|0:0,0:0:0:0:
286,199,25382,2,0,B|249:218|211:195|227:181|185:156|150:178,1,146.666666666667,10|0,0:3|0:0,0:0:0:0:
396,29,25632,6,0,B|464:54|490:117|484:192|433:222|433:222|392:219|362:173|374:129,1,366.666666666667,10|8,0:0|0:3,0:0:0:0:
505,269,26132,6,0,P|443:306|375:288,1,146.666666666667,10|0,0:0|0:0,0:0:0:0:
211,378,26382,2,0,P|272:341|341:359,1,146.666666666667,8|0,0:3|0:0,0:0:0:0:
505,269,26632,1,8,0:0:0:0:
227,151,26882,6,0,B|213:190|175:198|175:198|207:221|209:260,1,146.666666666667,10|0,0:3|0:0,0:0:0:0:
303,125,27132,2,0,B|343:116|369:145|369:145|373:106|406:85,1,146.666666666667,10|0,0:0|0:0,0:0:0:0:
243,69,27382,2,0,B|215:38|227:0|227:0|191:16|156:0,1,146.666666666667,10|0,0:3|0:0,0:0:0:0:
297,226,27632,6,0,B|367:270|434:213|391:181|466:108|576:165|557:256|494:278|455:265,1,366.666666666667,10|8,0:0|0:3,0:0:0:0:
340,156,28132,6,0,P|332:93|392:106,1,146.666666666667,10|0,0:0|0:0,0:0:0:0:
297,226,28382,1,8,0:3:0:0:
106,88,28548,1,8,0:0:0:0:
39,153,28632,2,0,B|7:187|7:187|40:281,1,146.666666666667,10|0,0:0|0:0,0:0:0:0:
225,185,28882,6,0,B|135:166|135:166|117:179|117:179|148:186,1,146.666666666667,14|0,0:3|0:0,0:0:0:0:
267,113,29132,2,0,B|223:31|223:31|202:26|202:26|216:54,1,146.666666666667,8|0,0:0|0:0,0:0:0:0:
340,156,29382,2,0,B|374:70|374:70|364:50|364:50|352:79,1,146.666666666667,10|0,0:3|0:0,0:0:0:0:
297,226,29632,1,8,0:0:0:0:
62,101,29882,6,0,B|33:69|53:32|53:32|93:23|117:51,1,146.666666666667,10|0,0:3|0:0,0:0:0:0:
70,202,30132,2,0,B|57:242|15:243|15:243|-13:213|0:178,1,146.666666666667,8|0,0:0|0:0,0:0:0:0:
155,148,30382,2,0,B|196:138|218:174|218:174|206:214|169:220,1,146.666666666667,10|0,0:3|0:0,0:0:0:0:
62,101,30632,1,8,0:0:0:0:
420,64,30882,6,0,B|442:127|393:175|393:175|392:155|379:138,1,161.333338256836,10|0,0:3|0:0,0:0:0:0:
260,33,31132,2,0,B|303:-18|368:0|368:0|352:10|343:31,1,161.333338256836,10|0,0:0|0:0,0:0:0:0:
313,185,31382,2,0,B|245:172|229:106|229:106|246:114|267:112,1,161.333338256836,10|0,0:3|0:0,0:0:0:0:
485,250,31632,6,0,B|398:188|301:280|372:326|286:420|191:364,1,366.666666666667,10|8,0:0|0:3,0:0:0:0:
242,283,32131,1,8,0:0:0:0:
57,164,32381,6,0,P|76:223|126:185,1,146.666666666667,10|0,0:3|0:0,0:0:0:0:
267,113,32631,2,0,P|248:54|198:92,1,146.666666666667,10|0,0:0|0:0,0:0:0:0:
338,306,32882,6,0,P|356:234|387:169,1,146.666666666667,14|0,0:3|0:0,0:0:0:0:
276,365,33132,2,0,P|239:300|193:245,1,146.666666666667,8|0,0:0|0:0,0:0:0:0:
376,384,33382,2,0,P|427:330|486:289,1,146.666666666667,10|0,0:3|0:0,0:0:0:0:
276,365,33632,1,8,0:0:0:0:
353,27,33882,6,0,B|323:54|339:93|339:93|373:67|361:28,1,146.666666666667,10|0,0:3|0:0,0:0:0:0:
203,125,34132,2,0,B|230:155|269:139|269:139|246:105|205:116,1,146.666666666667,10|0,0:0|0:0,0:0:0:0:
299,280,34382,2,0,B|329:253|313:214|313:214|276:240|290:277,1,146.666666666667,10|0,0:3|0:0,0:0:0:0:
453,183,34632,2,0,B|426:153|387:169|387:169|410:205|450:192,1,146.666666666667,10|0,0:0|0:0,0:0:0:0:
202,28,34882,6,0,B|98:52|98:52|90:83|112:102,1,161.333338256836,14|0,0:3|0:0,0:0:0:0:
111,101,35132,1,10,0:0:0:0:
239,248,35298,2,0,P|256:169|278:91,1,161.333338256836,8|0,0:3|0:0,0:0:0:0:
277,91,35548,1,8,0:0:0:0:
113,286,35632,2,0,P|91:223|158:232,1,161.333338256836,10|0,0:0|0:0,0:0:0:0:
158,232,35882,1,8,0:3:0:0:
0,145,36048,6,0,B|68:184|133:122|83:91|153:26|217:63,1,263.99999194336,10|0,0:0|0:0,0:0:0:0:
415,165,36382,2,0,P|330:192|249:223,1,175.999994628906,10|0,0:0|0:0,0:0:0:0:
345,0,36632,2,0,P|430:27|511:58,1,175.999994628906,10|0,0:0|0:0,0:0:0:0:
149,115,36882,6,0,B|126:65|172:36|172:36|189:62|217:63,1,146.666666666667,14|0,0:3|0:0,0:0:0:0:
249,223,37132,2,0,B|218:267|169:242|169:242|184:214|171:190,1,146.666666666667,8|0,0:0|0:0,0:0:0:0:
292,80,37382,2,0,B|346:86|349:140|349:140|317:141|303:166,1,146.666666666667,10|0,0:3|0:0,0:0:0:0:
149,115,37632,1,8,0:0:0:0:
434,10,37882,6,0,B|459:43|459:43|430:144,1,146.666666666667,10|0,0:3|0:0,0:0:0:0:
512,291,38132,2,0,B|470:296|470:296|397:221,1,146.666666666667,8|0,0:0|0:0,0:0:0:0:
228,219,38382,2,0,B|244:180|244:180|345:154,1,146.666666666667,10|0,0:3|0:0,0:0:0:0:
434,10,38632,1,8,0:0:0:0:
151,173,38882,6,0,P|87:186|80:122,1,146.666666666667,10|0,0:3|0:0,0:0:0:0:
238,134,39132,2,0,P|281:181|228:219,1,146.666666666667,10|0,0:0|0:0,0:0:0:0:
166,77,39382,2,0,P|184:15|243:41,1,146.666666666667,10|0,0:3|0:0,0:0:0:0:
153,354,39632,6,0,B|106:365|57:324|75:253|146:219|207:254|217:341|273:363|334:322,1,366.666666666667,10|8,0:0|0:3,0:0:0:0:
151,173,40132,1,10,0:0:0:0:
354,67,40298,1,2,0:0:0:0:
373,157,40382,2,0,B|333:177|296:153|312:138|274:116|237:134,1,146.666666666667,8|0,0:3|0:0,0:0:0:0:
440,92,40632,1,8,0:0:0:0:
370,333,40882,6,0,B|343:344|329:366|329:366|308:361|306:339|306:339|331:327|346:302,1,146.666666666667,10|0,0:3|0:0,0:0:0:0:
473,265,41132,2,0,B|495:282|521:282|521:282|528:304|510:316|510:316|487:300|458:300,1,146.666666666667,10|0,0:0|0:0,0:0:0:0:
363,205,41382,2,0,B|366:176|354:153|354:153|369:137|389:146|389:146|386:174|401:199,1,146.666666666667,10|0,0:3|0:0,0:0:0:0:
234,364,41632,6,0,B|184:393|123:346|160:315|105:265|51:293,1,220,10|0,0:0|0:0,0:0:0:0:
193,70,42048,1,8,0:3:0:0:
260,136,42132,2,0,P|236:205|216:276,1,146.666666666667,10|0,0:0|0:0,0:0:0:0:
136,146,42382,2,0,P|115:75|91:6,1,146.666666666667,10|0,0:3|0:0,0:0:0:0:
260,136,42632,1,10,0:0:0:0:
56,275,42882,6,0,B|60:310|34:340|34:340|70:324|104:341,1,146.666666666667,10|0,0:3|0:0,0:0:0:0:
136,146,43132,2,0,B|99:151|71:123|71:123|87:160|71:196,1,146.666666666667,8|0,0:0|0:0,0:0:0:0:
266,226,43382,2,0,B|259:188|285:158|285:158|249:174|215:157,1,146.666666666667,10|0,0:3|0:0,0:0:0:0:
183,355,43632,2,0,B|218:348|248:374|248:374|232:338|250:300,1,146.666666666667,8|0,0:0|0:0,0:0:0:0:
148,228,43882,6,0,B|139:267|139:267|176:275|176:275|185:236|185:236|157:230,1,146.666666666667,10|0,0:3|0:0,0:0:0:0:
323,339,44132,2,0,B|344:373|344:373|376:351|376:351|355:318|355:318|331:333,1,146.666666666667,8|0,0:0|0:0,0:0:0:0:
454,229,44382,1,10,0:3:0:0:
270,84,44548,1,8,0:0:0:0:
214,157,44632,2,0,B|243:189|243:189|342:162,1,146.666666666667,8|0,0:0|0:0,0:0:0:0:
512,313,44882,6,0,P|447:337|395:290,1,146.666666666667,14|0,0:3|0:0,0:0:0:0:
245,337,45132,2,0,P|256:268|323:247,1,146.666666666667,8|0,0:0|0:0,0:0:0:0:
358,94,45382,2,0,P|411:138|396:206,1,146.666666666667,10|0,0:3|0:0,0:0:0:0:
512,313,45632,1,8,0:0:0:0:
177,237,45882,6,0,B|147:204|167:170|167:170|207:181|234:151,1,146.666666666667,10|0,0:3|0:0,0:0:0:0:
188,321,46132,2,0,B|174:362|135:362|135:362|124:321|85:314,1,146.666666666667,8|0,0:0|0:0,0:0:0:0:
257,268,46382,2,0,B|299:258|318:293|318:293|289:322|302:360,1,146.666666666667,10|0,0:3|0:0,0:0:0:0:
177,237,46632,1,8,0:0:0:0:
421,50,46882,6,0,B|479:86|459:152|459:152|450:131|432:121,1,161.333338256836,10|0,0:3|0:0,0:0:0:0:
256,46,47132,2,0,B|322:30|354:91|354:91|333:82|314:90,1,161.333338256836,10|0,0:0|0:0,0:0:0:0:
137,155,47382,2,0,B|173:96|239:116|239:116|218:126|208:144,1,161.333338256836,10|0,0:3|0:0,0:0:0:0:
0,0,47632,6,0,B|-34:57|14:108|34:81|85:132|55:190,1,220,14|0,0:0|0:0,0:0:0:0:
256,46,48048,1,8,0:3:0:0:
327,116,48132,2,0,P|298:182|286:255,1,146.666666666667,8|0,0:0|0:0,0:0:0:0:
137,155,48382,2,0,P|125:82|95:15,1,146.666666666667,10|0,0:3|0:0,0:0:0:0:
327,116,48632,1,10,0:0:0:0:
162,360,48882,6,0,B|73:329|73:329|54:340|54:340|84:351,1,146.666666666667,14|0,0:3|0:0,0:0:0:0:
192,268,49132,2,0,B|150:184|150:184|129:178|129:178|142:206,1,146.666666666667,8|0,0:0|0:0,0:0:0:0:
286,255,49382,2,0,B|315:166|315:166|304:147|304:147|293:177,1,146.666666666667,10|0,0:3|0:0,0:0:0:0:
348,322,49632,2,0,B|430:280|430:280|436:259|436:259|409:273,1,146.666666666667,8|0,0:0|0:0,0:0:0:0:
162,360,49882,6,0,B|137:311|69:307|49:334|60:362|82:351,1,146.666666666667,10|0,0:3|0:0,0:0:0:0:
192,268,50132,2,0,B|209:216|163:165|129:169|119:199|142:206,1,146.666666666667,10|0,0:0|0:0,0:0:0:0:
286,255,50382,2,0,B|334:228|341:164|310:142|284:154|293:176,1,146.666666666667,10|0,0:3|0:0,0:0:0:0:
348,322,50632,2,0,B|401:337|450:297|444:259|417:250|408:273,1,146.666666666667,8|0,0:0|0:0,0:0:0:0:
162,360,50882,6,0,P|98:317|36:286,1,146.666666666667,14|0,0:3|0:0,0:0:0:0:
35,285,51132,1,8,0:0:0:0:
235,66,51298,2,0,P|260:120|197:127,1,146.666666666667,10|0,0:3|0:0,0:0:0:0:
194,124,51548,1,8,0:0:0:0:
21,93,51632,2,0,B|62:111|95:82|79:67|117:40|151:56,1,146.666666666667,10|0,0:0|0:0,0:0:0:0:
151,56,51882,1,8,0:3:0:0:
359,281,52048,6,0,B|303:243|237:300|277:334|217:392|162:360,1,242.000007385254,10|0,0:0|0:0,0:0:0:0:
420,176,52382,2,0,P|440:253|460:332,1,161.333338256836,10|0,0:0|0:0,0:0:0:0:
225,126,52632,2,0,P|205:204|185:283,1,161.333338256836,10|0,0:0|0:0,0:0:0:0:
420,176,52882,6,0,P|430:108|365:125,1,161.333338256836,14|2,0:0|0:0,0:0:0:0:
359,281,53132,2,0,P|292:298|297:229,1,161.333338256836,10|0,0:0|0:0,0:0:0:0:
297,228,53382,1,2,0:0:0:0:
512,384,53632,1,2,0:0:0:0:
359,281,53798,1,2,0:0:0:0:
359,281,53882,6,0,B|391:316|391:316|500:286,1,161.333338256836,10|0,0:0|0:0,0:0:0:0:
323,154,54132,2,0,P|312:192|301:231,2,80.6666691284181,10|0|0,1:3|0:0|0:0,0:0:0:0:
470,39,54382,2,0,P|491:115|512:194,1,161.333338256836,10|8,1:3|1:3,0:0:0:0:
342,76,54632,2,0,P|332:8|397:25,1,161.333338256836,10|0,1:3|0:0,0:0:0:0:
225,126,54882,5,14,0:3:0:0:
359,281,55132,1,10,0:3:0:0:
256,363,55382,1,10,0:3:0:0:
342,76,55632,6,0,B|265:26|190:93|239:127|157:209|41:155|54:47|123:22|165:35,1,403.33334564209,14|8,0:0|0:3,0:0:0:0:
295,159,56132,2,0,P|331:229|295:296,1,161.333338256836,10|0,0:0|0:0,0:0:0:0:
229,227,56382,1,8,0:3:0:0:
424,139,56548,1,8,0:0:0:0:
342,76,56632,2,0,B|450:44|450:44|483:78,1,161.333338256836,10|0,0:0|0:0,0:0:0:0:
295,159,56882,6,0,P|220:138|140:115,1,161.333338256836,14|0,0:3|0:0,0:0:0:0:
295,296,57132,2,0,P|344:249|365:313,1,161.333338256836,8|0,0:0|0:0,0:0:0:0:
145,381,57382,2,0,P|127:302|89:231,1,161.333338256836,10|0,0:3|0:0,0:0:0:0:
348,384,57632,2,0,B|391:404|428:373|408:355|449:321|487:338,1,161.333338256836,8|0,0:0|0:0,0:0:0:0:
225,279,57882,6,0,P|274:232|295:296,1,161.333338256836,10|0,0:3|0:0,0:0:0:0:
424,139,58132,2,0,P|346:117|267:96,1,161.333338256836,8|0,0:0|0:0,0:0:0:0:
295,296,58382,2,0,P|372:274|451:253,1,161.333338256836,10|0,0:3|0:0,0:0:0:0:
205,156,58632,1,8,0:0:0:0:
459,56,58882,6,0,B|472:42|479:21|479:21|539:59|512:125,1,161.333338256836,14|0,0:0|0:0,0:0:0:0:
357,161,59132,2,0,B|357:141|347:122|347:122|416:106|444:172,1,161.333338256836,10|0,0:0|0:0,0:0:0:0:
382,307,59382,2,0,B|368:293|347:286|347:286|385:226|451:253,1,161.333338256836,10|0,0:0|0:0,0:0:0:0:
253,384,59632,6,0,B|292:329|238:261|202:300|147:238|180:184,1,242.000007385254,14|0,0:0|0:0,0:0:0:0:
380,42,60048,6,0,B|295:20|205:-2|205:-2|248:42,1,242.000007385254,10|0,1:3|0:0,0:0:0:0:
357,161,60382,2,0,B|413:146|473:131|473:131|444:161,1,161.333338256836,10|0,0:0|0:0,0:0:0:0:
334,280,60632,2,0,B|277:265|217:250|217:250|246:280,1,161.333338256836,10|0,0:0|0:0,0:0:0:0:
487,372,60882,5,10,0:0:0:0:
487,372,60965,2,0,P|497:334|508:295,1,80.6666691284181,2|2,0:0|0:0,0:0:0:0:
296,373,61132,2,0,B|256:362|256:362|283:343|283:343|383:370|383:370|407:353|407:353|374:343,1,242.000007385254,10|2,0:0|0:0,0:0:0:0:
164,180,61632,1,2,0:0:0:0:
267,45,61798,1,2,0:0:0:0:
267,45,61882,6,0,P|190:67|111:88,1,161.333338256836,10|0,0:0|0:0,0:0:0:0:
22,31,62132,1,10,1:3:0:0:
0,65,62215,1,8,0:3:0:0:
0,105,62298,1,8,0:3:0:0:
21,139,62382,2,0,P|51:206|-1:266,1,161.333338256836,8|8,0:0|0:0,0:0:0:0:
112,88,62632,1,10,1:3:0:0:
276,306,62882,6,0,B|310:311|365:291|369:210|331:171|253:145|185:209|221:247|261:290|192:315|145:302|132:279|124:252|147:222|180:232,1,403.33334564209,14|0,0:0|0:0,0:0:0:0:
332,373,63382,1,10,0:3:0:0:
501,110,63632,6,0,B|439:66|374:110|418:146|329:190|260:155|243:80|278:38|351:20|393:56|412:93,1,403.33334564209,14|0,0:0|0:0,0:0:0:0:
458,186,64131,1,2,0:0:0:0:
169,53,64381,5,10,0:3:0:0:
131,69,64465,1,8,0:3:0:0:
93,85,64548,1,8,0:3:0:0:
55,101,64631,2,0,P|42:63|28:25,1,80.6666691284181,10|0,0:0|0:0,0:0:0:0:
181,136,64798,1,8,0:0:0:0:
119,198,64881,6,0,B|151:233|151:233|260:203,1,161.333338256836,14|0,0:3|0:0,0:0:0:0:
412,92,65131,2,0,B|380:127|380:127|271:97,1,161.333338256836,10|0,0:0|0:0,0:0:0:0:
314,308,65381,2,0,P|392:287|469:266,1,161.333338256836,10|0,0:3|0:0,0:0:0:0:
261,203,65632,1,10,0:0:0:0:
474,39,65882,6,0,P|539:59|496:113,1,161.333338256836,14|0,0:3|0:0,0:0:0:0:
412,92,66132,1,8,0:0:0:0:
314,308,66298,6,0,B|346:253|290:192|255:231|199:164|238:109,1,242.000007385254,14|8,0:3|0:3,0:0:0:0:
323,136,66632,1,8,0:3:0:0:
178,354,66882,6,0,P|101:328|24:303,1,161.333338256836,14|0,0:3|0:0,0:0:0:0:
161,258,67132,2,0,P|237:283|314:308,1,161.333338256836,10|0,0:0|0:0,0:0:0:0:
178,354,67382,1,10,0:3:0:0:
3,192,67548,1,8,0:0:0:0:
74,119,67632,1,10,0:0:0:0:
161,258,67798,1,8,0:0:0:0:
232,185,67882,6,0,P|206:108|181:31,1,161.333338256836,14|0,0:0|0:0,0:0:0:0:
181,31,68132,1,8,0:0:0:0:
0,315,68298,6,0,B|43:268|117:306|89:350|169:385|211:332,1,242.000007385254,14|8,0:3|0:0,0:0:0:0:
161,258,68632,1,10,0:3:0:0:
458,372,68882,5,6,0:0:0:0:
484,297,69132,1,2,0:0:0:0:
264,89,69382,5,10,0:3:0:0:
238,164,69632,1,10,0:3:0:0:
458,372,69882,5,10,0:3:0:0:
484,297,70132,1,10,0:3:0:0:
264,89,70382,5,10,0:3:0:0:
240,115,70465,1,8,0:3:0:0:
238,164,70548,1,8,0:3:0:0:
286,200,70632,1,10,0:0:0:0:
329,266,70715,1,8,0:0:0:0:
306,355,70798,1,8,0:0:0:0:
207,384,70882,6,0,B|145:398|94:331|107:263|157:221|214:210|266:262|255:298|255:298|225:276|188:287,1,395.999987915039,14|0,0:3|0:0,0:0:0:0:
392,120,71882,6,0,P|326:104|264:89,1,131.99999597168,2|0,0:0|0:0,0:0:0:0:
182,32,72132,2,0,P|248:16|310:1,1,131.99999597168,2|0,0:0|0:0,0:0:0:0:
228,182,72382,1,10,0:3:0:0:
183,171,72465,1,8,0:3:0:0:
125,157,72548,1,8,0:3:0:0:
38,136,72632,6,0,P|13:61|91:76,1,190.66665793864,10|0,0:0|0:0,0:0:0:0:
163,324,72882,6,0,B|27:359|27:359|51:316,1,190.66665793864,14|0,0:3|0:0,0:0:0:0:
228,182,73132,2,0,B|286:236|244:307|244:307|237:279|216:264,1,190.66665793864,8|0,0:0|0:0,0:0:0:0:
91,76,73382,2,0,B|227:41|227:41|203:84,1,190.66665793864,8|0,0:3|0:0,0:0:0:0:
26,218,73632,2,0,B|-32:164|10:93|10:93|17:121|38:136,1,190.66665793864,10|0,0:0|0:0,0:0:0:0:
228,182,73882,6,0,P|323:156|413:133,1,190.66665793864,10|0,0:3|0:0,0:0:0:0:
309,289,74132,2,0,P|213:263|123:240,1,190.66665793864,10|0,0:0|0:0,0:0:0:0:
375,343,74382,2,0,P|450:318|391:268,1,190.66665793864,10|0,0:3|0:0,0:0:0:0:
211,375,74632,2,0,B|168:398|119:356|150:328|98:288|52:315,1,190.66665793864,10|0,0:0|0:0,0:0:0:0:
228,182,74882,6,0,P|260:271|292:361,1,190.66665793864,10|0,0:3|0:0,0:0:0:0:
125,240,75132,2,0,P|157:150|189:60,1,190.66665793864,8|0,0:0|0:0,0:0:0:0:
405,147,75382,2,0,P|348:77|263:104,1,190.66665793864,8|0,0:3|0:0,0:0:0:0:
125,240,75632,1,10,0:0:0:0:
198,303,75715,2,0,P|242:286|286:270,1,95.3333289693199,2|0,0:0|0:0,0:0:0:0:
158,151,75882,6,0,B|28:199|28:199|43:150,1,190.66665793864,10|0,0:3|0:0,0:0:0:0:
274,188,76132,2,0,B|404:236|404:236|389:187,1,190.66665793864,8|0,0:0|0:0,0:0:0:0:
198,303,76382,2,0,B|68:351|68:351|83:302,1,190.66665793864,10|8,0:3|0:3,0:0:0:0:
314,340,76632,1,8,0:0:0:0:
174,76,76882,6,0,P|99:99|158:151,1,190.66665793864,10|0,0:3|0:0,0:0:0:0:
372,59,77132,2,0,B|329:82|280:40|311:12|259:-28|213:-1,1,190.66665793864,8|0,0:0|0:0,0:0:0:0:
230,209,77382,2,0,B|273:232|322:190|291:162|343:122|389:149,1,190.66665793864,8|0,0:3|0:0,0:0:0:0:
174,76,77632,2,0,P|99:99|158:151,1,190.66665793864,10|0,0:0|0:0,0:0:0:0:
372,59,77882,6,0,B|424:63|453:21|453:21|460:72|510:93,1,190.66665793864,10|0,0:3|0:0,0:0:0:0:
456,311,78132,2,0,B|403:306|374:348|374:348|367:297|317:276,1,190.66665793864,10|0,0:0|0:0,0:0:0:0:
158,151,78382,2,0,P|182:244|206:336,1,190.66665793864,10|0,0:3|0:0,0:0:0:0:
310,199,78632,2,0,P|285:107|261:15,1,190.66665793864,10|0,0:0|0:0,0:0:0:0:
15,109,78882,6,0,P|71:178|157:152,1,190.66665793864,10|0,0:3|0:0,0:0:0:0:
404,57,79132,2,0,P|347:-12|261:14,1,190.66665793864,8|0,0:0|0:0,0:0:0:0:
310,199,79382,1,8,0:3:0:0:
95,98,79548,1,8,0:0:0:0:
139,19,79632,2,0,P|231:43|324:68,1,190.66665793864,10|0,0:0|0:0,0:0:0:0:
149,301,79882,6,0,B|95:98|95:98|48:159,1,285.99998690796,14|8,0:3|0:0,0:0:0:0:
301,372,80298,6,0,B|352:347|352:347|397:171|397:171|440:149,1,285.99998690796,14|8,0:3|1:3,0:0:0:0:
282,289,80632,2,0,P|257:197|232:104,1,190.66665793864,10|0,1:3|0:0,0:0:0:0:
468,228,80882,6,0,P|523:283|446:301,1,190.66665793864,14|0,0:3|0:0,0:0:0:0:
338,110,81132,2,0,B|472:40|472:40|461:77,1,190.66665793864,10|0,0:0|0:0,0:0:0:0:
257,197,81382,2,0,B|214:221|164:181|194:152|141:113|96:142,1,190.66665793864,10|0,0:3|0:0,0:0:0:0:
301,372,81632,2,0,P|326:280|350:188,1,190.66665793864,10|0,0:0|0:0,0:0:0:0:
186,281,81882,6,0,P|197:326|210:372,2,95.3333289693199,10|0|2,0:3|0:0|0:0,0:0:0:0:
38,189,82132,2,0,P|60:266|116:212,1,190.66665793864,10|0,0:0|0:0,0:0:0:0:
233,105,82382,2,0,P|141:80|49:56,1,190.66665793864,10|2,0:3|0:0,0:0:0:0:
163,0,82632,1,10,0:0:0:0:
186,281,82798,1,2,0:0:0:0:
246,212,82882,6,0,B|297:181|297:181|417:230,1,190.66665793864,10|0,0:3|0:0,0:0:0:0:
246,351,83132,2,0,B|194:381|194:381|74:332,1,190.66665793864,10|0,0:0|0:0,0:0:0:0:
304,281,83382,2,0,P|392:317|480:352,1,190.66665793864,10|0,0:3|0:0,0:0:0:0:
246,212,83632,2,0,B|194:182|194:182|74:231,1,190.66665793864,10|0,0:0|0:0,0:0:0:0:
306,126,83882,6,0,P|384:135|335:196,1,190.66665793864,10|0,0:3|0:0,0:0:0:0:
214,103,84132,1,8,0:0:0:0:
441,0,84298,1,8,0:3:0:0:
505,67,84382,2,0,B|536:118|536:118|487:238,1,190.66665793864,10|8,0:3|0:3,0:0:0:0:
421,299,84632,2,0,B|390:248|390:248|439:126,1,190.66665793864,10|0,0:0|0:0,0:0:0:0:
461,368,84882,6,0,B|421:411|353:376|379:335|306:303|267:352,1,220,14|2,0:3|0:0,0:0:0:0:
67,183,85298,6,0,P|-21:261|91:293,1,285.99998690796,14|8,0:3|1:3,0:0:0:0:
91,292,85632,1,8,0:3:0:0:
214,103,85882,6,0,P|146:75|78:48,1,146.666666666667,14|8,0:3|0:0,0:0:0:0:
78,48,86132,1,10,0:0:0:0:
202,219,86298,6,0,B|413:134|413:134|391:189,1,285.99998690796,14|8,0:3|0:3,0:0:0:0:
391,188,86632,2,0,P|333:137|346:74,1,146.666666666667,10|0,0:3|0:0,0:0:0:0:
470,224,86882,5,14,0:3:0:0:
384,356,87132,1,10,0:3:0:0:
246,212,87382,1,10,0:3:0:0:
56,384,87632,1,10,0:3:0:0:
470,224,87882,6,0,P|449:157|427:83,2,146.666666666667,14|8|8,0:0|0:3|0:3,0:0:0:0:
224,28,88382,6,0,B|174:1|115:58|138:136|238:165|301:90,1,285.99998690796,14|0,0:0|0:0,0:0:0:0:
217,366,88882,6,0,B|136:345|136:345|87:369|87:369|-19:341|-19:341|48:285|48:285|79:294,1,366.666666666667,14|0,0:0|0:0,0:0:0:0:
154,242,89382,2,0,P|123:126|91:8,1,242.000007385254,10|0,0:0|0:0,0:0:0:0:
347,165,89882,6,0,P|428:47|301:88,1,366.666666666667,10|0,0:0|0:0,0:0:0:0:
259,168,90382,2,0,B|215:214|141:176|169:132|90:97|48:150,1,242.000007385254,10|0,0:0|0:0,0:0:0:0:
257,358,90882,6,0,P|243:283|308:244,1,161.333338256836,10|0,1:3|0:0,0:0:0:0:
471,152,91132,2,0,P|413:202|348:166,1,161.333338256836,10|0,0:3|0:0,0:0:0:0:
186,66,91382,2,0,P|257:92|259:168,1,161.333338256836,10|0,0:3|0:0,0:0:0:0:
456,28,91632,6,0,P|357:-10|343:93,1,242.000007385254,14|0,0:3|0:0,0:0:0:0:
154,242,92048,1,8,0:3:0:0:
209,318,92132,6,0,B|166:344|166:344|63:302,1,161.333338256836,10|0,0:0|0:0,0:0:0:0:
0,368,92382,1,10,0:3:0:0:
246,231,92548,1,8,0:0:0:0:
302,307,92632,2,0,P|376:276|451:246,1,161.333338256836,10|8,0:3|0:0,0:0:0:0:
276,161,92882,6,0,P|198:169|246:231,1,190.66665793864,14|0,0:3|0:0,0:0:0:0:
473,128,93132,2,0,B|421:114|386:154|386:154|386:102|343:76,1,190.66665793864,8|0,0:0|0:0,0:0:0:0:
302,307,93382,2,0,B|436:365|436:365|396:385,1,190.66665793864,10|0,0:3|0:0,0:0:0:0:
246,231,93632,2,0,P|159:266|70:303,1,190.66665793864,8|0,0:0|0:0,0:0:0:0:
240,135,93882,6,0,B|283:112|332:154|301:182|353:222|399:195,1,190.66665793864,10|0,0:3|0:0,0:0:0:0:
163,103,94132,2,0,P|97:145|168:178,1,190.66665793864,8|0,0:0|0:0,0:0:0:0:
343,76,94382,6,0,B|293:55|286:4|286:4|257:46|205:42,1,190.66665793864,10|0,0:3|0:0,0:0:0:0:
150,269,94632,2,0,B|200:290|207:341|207:341|236:299|289:304,1,190.66665793864,8|0,0:0|0:0,0:0:0:0:
98,146,94882,5,10,0:3:0:0:
343,76,95132,1,10,0:3:0:0:
69,156,95382,1,10,0:3:0:0:
374,66,95632,6,0,B|324:149|407:234|449:169|528:257|476:334,1,329.9999899292,14|0,0:3|0:0,0:0:0:0:
476,334,96132,1,8,1:3:0:0:
172,245,96382,2,0,P|232:227|298:207,1,131.99999597168,10|0,0:3|0:0,0:0:0:0:
298,207,96632,1,10,1:3:0:0:
48,59,96882,6,0,B|0:133|0:133|74:292|74:292|28:366,1,352,14|2,0:3|0:0,0:0:0:0:
298,207,97882,6,0,P|325:107|230:155,1,263.99999194336,14|0,0:3|0:0,0:0:0:0:
229,154,98298,1,8,0:3:0:0:
229,154,98382,1,10,0:0:0:0:
50,360,98882,6,0,B|-1:354|-3:298|-3:298|62:241|147:288|92:338|178:384|235:342,1,366.666666666667,14|0,0:3|0:0,0:0:0:0:
288,255,99382,6,0,B|306:219|350:185|421:207|454:249|433:323|363:354|277:306|323:273|261:226|193:268,1,403.33334564209,14|0,0:3|0:0,0:0:0:0:
114,184,99882,6,0,P|199:159|283:136,1,175.999994628906,14|0,0:3|0:0,0:0:0:0:
363,36,100132,1,8,0:3:0:0:
341,60,100215,2,0,P|299:48|257:37,1,87.9999973144532,8|8,0:3|0:3,0:0:0:0:
377,147,100382,5,14,0:0:0:0:
407,131,100465,1,8,0:0:0:0:
459,135,100548,1,8,0:0:0:0:
512,188,100632,1,8,0:0:0:0:
501,276,100715,1,8,0:0:0:0:
413,312,100798,1,8,0:0:0:0:
340,231,100882,5,10,0:0:0:0:
46,361,101132,1,10,0:0:0:0:
94,214,101298,6,0,P|181:239|263:263,1,175.999994628906,10|0,0:0|0:0,0:0:0:0:
340,231,101548,1,8,0:0:0:0:
357,202,101632,2,0,P|363:160|338:124,1,87.9999973144532,2|0,0:0|0:0,0:0:0:0:
280,175,101798,1,8,0:0:0:0:
337,325,101882,6,0,P|419:337|468:268,1,175.999994628906,10|0,0:0|0:0,0:0:0:0:
196,193,102132,6,0,P|154:299|263:264,1,285.99998690796,14|0,0:3|0:0,0:0:0:0:
338,124,102465,5,8,0:0:0:0:
301,141,102548,1,8,0:0:0:0:
249,131,102631,1,8,0:0:0:0:
207,73,102715,1,8,0:0:0:0:
154,4,102798,1,8,0:0:0:0:
50,26,102882,6,0,P|12:94|56:154,1,161.333338256836,14|0,0:3|0:0,0:0:0:0:
310,45,103132,2,0,P|231:24|154:4,1,161.333338256836,8|0,0:0|0:0,0:0:0:0:
124,216,103382,2,0,P|203:195|280:175,1,161.333338256836,10|0,0:3|0:0,0:0:0:0:
56,154,103632,2,0,P|18:222|62:282,1,161.333338256836,8|0,0:0|0:0,0:0:0:0:
223,111,103882,6,0,B|103:79|103:79|120:111,1,161.333338256836,10|0,0:3|0:0,0:0:0:0:
202,279,104132,2,0,B|322:247|322:247|303:278,1,161.333338256836,8|0,0:0|0:0,0:0:0:0:
156,384,104382,2,0,P|77:363|0:343,1,161.333338256836,10|0,0:3|0:0,0:0:0:0:
202,279,104632,2,0,P|281:300|358:320,1,161.333338256836,8|0,0:0|0:0,0:0:0:0:
124,216,104882,6,0,B|145:260|112:291|112:291|68:295|48:254,1,161.333338256836,10|0,0:3|0:0,0:0:0:0:
217,150,105132,2,0,B|262:132|298:171|275:184|312:218|355:202,1,161.333338256836,8|2,0:0|0:0,0:0:0:0:
121,112,105382,1,8,0:3:0:0:
396,21,105632,6,0,B|458:-23|522:33|510:122|426:172|335:146|284:86|294:16,1,403.33334564209,14|0,0:0|0:0,0:0:0:0:
135,192,106132,2,0,P|121:112|107:32,1,161.333338256836,10|0,0:0|0:0,0:0:0:0:
265,225,106382,2,0,P|251:304|237:384,1,161.333338256836,8|0,0:3|0:0,0:0:0:0:
135,192,106632,1,10,0:0:0:0:
345,75,106798,1,2,0:0:0:0:
398,153,106882,6,0,P|323:170|263:120,1,161.333338256836,10|2,0:3|0:0,0:0:0:0:
347,333,107132,2,0,P|406:282|482:299,1,161.333338256836,8|2,0:0|0:0,0:0:0:0:
265,225,107382,1,8,0:3:0:0:
466,98,107632,1,10,0:0:0:0:
287,27,107798,1,2,0:0:0:0:
263,119,107882,6,0,P|342:140|419:160,1,161.333338256836,10|2,0:3|0:0,0:0:0:0:
195,51,108132,1,10,0:0:0:0:
246,299,108382,2,0,P|167:320|90:340,1,161.333338256836,10|2,0:3|0:0,0:0:0:0:
298,220,108632,1,10,0:0:0:0:
40,151,108882,6,0,B|-2:144|-15:99|-15:99|8:60|53:71,1,161.333338256836,10|0,0:3|0:0,0:0:0:0:
97,227,109132,2,0,B|112:267|80:300|80:300|34:299|21:254,1,161.333338256836,10|0,0:0|0:0,0:0:0:0:
133,139,109382,2,0,B|160:105|205:116|205:116|227:157|195:190,1,161.333338256836,10|0,0:3|0:0,0:0:0:0:
40,151,109632,6,0,B|-2:144|-15:99|-15:99|8:60|54:71|54:71|88:40|64:-1,1,242.000007385254,10|0,0:3|0:0,0:0:0:0:
412,107,110132,6,0,B|366:151|296:144|251:89|275:18|275:18|234:51|190:33,1,322.666676513672,14|0,0:0|0:0,0:0:0:0:
97,227,110548,1,8,0:0:0:0:
40,151,110632,2,0,P|114:130|176:176,1,161.333338256836,8|8,0:0|0:0,0:0:0:0:
69,384,110882,6,0,P|36:311|3:238,1,161.333338256836,14|0,0:3|0:0,0:0:0:0:
293,312,111132,2,0,B|248:294|212:333|235:346|198:380|155:364,1,161.333338256836,8|0,0:0|0:0,0:0:0:0:
177,177,111382,2,0,B|222:159|258:198|235:211|272:245|315:229,1,161.333338256836,10|0,0:3|0:0,0:0:0:0:
126,292,111632,2,0,P|93:219|60:146,1,161.333338256836,8|0,0:0|0:0,0:0:0:0:
315,229,111882,6,0,P|377:202|327:156,1,161.333338256836,10|0,0:3|0:0,0:0:0:0:
210,306,112132,2,0,P|201:373|266:353,1,161.333338256836,8|0,0:0|0:0,0:0:0:0:
177,177,112382,2,0,P|106:155|66:219,1,161.333338256836,10|0,0:3|0:0,0:0:0:0:
223,65,112632,2,0,P|294:87|334:23,1,161.333338256836,8|0,0:0|0:0,0:0:0:0:
177,177,112882,5,2,1:2:0:0:
350,258,113132,1,10,0:0:0:0:
266,353,113382,1,10,0:3:0:0:
19,219,113632,6,0,B|117:322|264:217|169:133|318:37|413:132,1,476.666644846599,14|0,0:3|0:0,0:0:0:0:
349,339,114132,6,0,P|305:275|334:203,1,161.333338256836,8|0,0:0|0:0,0:0:0:0:
388,265,114382,1,8,0:3:0:0:
237,384,114548,1,8,0:0:0:0:
175,316,114632,2,0,P|99:333|19:354,1,161.333338256836,10|2,0:3|0:0,0:0:0:0:
187,190,114882,6,0,B|294:229|294:229|333:203,1,161.333338256836,14|0,0:3|0:0,0:0:0:0:
136,115,115132,2,0,P|92:178|120:250,1,161.333338256836,8|0,0:0|0:0,0:0:0:0:
234,61,115382,2,0,B|127:22|127:22|88:48,1,161.333338256836,10|0,0:3|0:0,0:0:0:0:
284,135,115632,2,0,P|327:71|299:0,1,161.333338256836,8|0,0:0|0:0,0:0:0:0:
136,115,115882,6,0,B|116:153|68:148|68:148|53:107|10:100,1,161.333338256836,10|0,0:3|0:0,0:0:0:0:
194,239,116132,2,0,B|213:200|261:205|261:205|276:246|319:253,1,161.333338256836,8|2,0:0|0:0,0:0:0:0:
143,384,116382,5,8,0:3:0:0:
162,356,116465,1,8,0:3:0:0:
161,310,116548,1,8,0:3:0:0:
119,265,116632,1,10,0:0:0:0:
69,209,116715,1,8,0:0:0:0:
84,127,116798,1,8,0:0:0:0:
180,89,116882,6,0,P|172:56|164:26,11,65.9999979858399,14|0|2|0|2|0|2|0|2|0|2|0,0:0|0:0|0:0|0:0|0:0|0:0|0:0|0:0|0:0|0:0|0:0|0:0,0:0:0:0:
163,25,117882,1,8,0:3:0:0:
472,130,118132,6,0,B|391:151|391:151|342:127|342:127|236:155|236:155|303:211|303:211|334:202,1,366.666666666667,14|8,0:0|0:3,0:0:0:0:
333,202,118632,1,8,0:3:0:0:
125,291,118882,6,0,B|97:322|109:360|109:360|73:344|39:359,1,146.666666666667,14|0,0:3|0:0,0:0:0:0:
185,235,119132,2,0,B|225:244|251:215|251:215|255:254|288:275,1,146.666666666667,8|0,0:0|0:0,0:0:0:0:
109,209,119382,2,0,B|95:170|57:162|57:162|89:139|91:100,1,146.666666666667,10|0,0:3|0:0,0:0:0:0:
125,291,119632,1,8,0:0:0:0:
376,111,119882,6,0,B|405:23|405:23|394:3|394:3|383:33,1,146.666666666667,8|0,0:3|0:0,0:0:0:0:
300,71,120132,2,0,B|251:-8|251:-8|230:-12|230:-12|245:14,1,146.666666666667,8|0,0:0|0:0,0:0:0:0:
262,145,120382,2,0,B|171:130|171:130|153:144|153:144|185:150,1,146.666666666667,10|0,0:3|0:0,0:0:0:0:
336,183,120632,1,8,0:0:0:0:
126,315,120882,6,0,B|134:356|176:360|176:360|207:331|196:294,1,146.666666666667,10|0,0:3|0:0,0:0:0:0:
44,250,121132,2,0,B|2:237|-21:272|-21:272|-12:312|24:321,1,146.666666666667,10|0,0:0|0:0,0:0:0:0:
139,214,121382,2,0,B|169:184|151:146|151:146|112:134|84:161,1,146.666666666667,10|0,0:3|0:0,0:0:0:0:
286,326,121632,6,0,B|230:231|324:145|370:216|462:119|400:32,1,366.666666666667,10|8,0:0|0:3,0:0:0:0:
214,55,122132,2,0,P|281:36|331:86,1,146.666666666667,10|0,0:0|0:0,0:0:0:0:
255,142,122382,2,0,P|187:161|138:111,1,146.666666666667,8|0,0:3|0:0,0:0:0:0:
331,86,122632,1,8,0:0:0:0:
211,289,122882,6,0,B|173:329|117:321|86:299|112:271|134:288,1,146.666666666667,10|0,0:3|0:0,0:0:0:0:
283,255,123132,2,0,B|335:266|356:319|352:357|315:348|319:321,1,146.666666666667,10|0,0:0|0:0,0:0:0:0:
216,206,123382,2,0,B|197:154|233:108|268:94|280:130|254:141,1,146.666666666667,10|0,0:3|0:0,0:0:0:0:
54,340,123632,6,0,B|8:282|26:224|112:208|143:145|104:76|32:63|-4:115|9:161,1,366.666666666667,10|8,0:0|0:3,0:0:0:0:
135,288,124132,2,0,P|205:269|276:250,1,146.666666666667,10|0,0:0|0:0,0:0:0:0:
196,377,124382,2,0,P|125:358|54:339,1,146.666666666667,10|0,0:3|0:0,0:0:0:0:
179,181,124632,1,10,0:0:0:0:
463,281,124882,6,0,B|486:311|469:348|469:348|429:361|404:325,1,146.666666666667,10|0,0:3|0:0,0:0:0:0:
426,138,125132,2,0,B|456:114|493:131|493:131|506:171|470:196,1,146.666666666667,8|0,0:0|0:0,0:0:0:0:
287,174,125382,2,0,B|263:143|280:106|280:106|320:93|345:129,1,146.666666666667,10|0,0:3|0:0,0:0:0:0:
315,314,125632,2,0,B|284:337|247:320|247:320|234:280|270:255,1,146.666666666667,8|0,0:0|0:0,0:0:0:0:
363,205,125882,6,0,P|391:250|345:222,1,146.666666666667,10|0,0:3|0:0,0:0:0:0:
162,164,126132,2,0,P|133:209|179:181,1,146.666666666667,10|0,0:0|0:0,0:0:0:0:
304,66,126382,1,10,0:3:0:0:
91,0,126548,1,8,0:0:0:0:
37,68,126632,2,0,B|71:100|71:100|165:67,1,146.666666666667,10|0,0:0|0:0,0:0:0:0:
322,186,126882,6,0,P|347:120|304:65,1,146.666666666667,14|0,0:3|0:0,0:0:0:0:
250,223,127132,2,0,P|180:233|154:298,1,146.666666666667,8|0,0:0|0:0,0:0:0:0:
319,266,127382,2,0,P|361:321|431:311,1,146.666666666667,10|0,0:3|0:0,0:0:0:0:
322,186,127632,1,8,0:0:0:0:
118,310,127882,6,0,B|136:332|137:360|137:360|158:366|170:349|170:349|155:327|154:298,1,146.666666666667,10|0,0:3|0:0,0:0:0:0:
47,216,128132,2,0,B|18:220|-6:207|-6:207|-22:221|-12:242|-12:242|12:238|37:252,1,146.666666666667,8|0,0:0|0:0,0:0:0:0:
158,199,128382,2,0,B|169:172|192:156|192:156|187:135|165:133|165:133|155:156|129:171,1,146.666666666667,10|0,0:3|0:0,0:0:0:0:
118,310,128631,1,8,0:0:0:0:
404,213,128881,6,0,B|405:192|405:192|457:230|439:297|439:297|425:280,1,161.333338256836,10|0,0:3|0:0,0:0:0:0:
274,238,129131,2,0,B|255:246|255:246|261:182|330:165|330:165|321:185,1,161.333338256836,10|0,0:0|0:0,0:0:0:0:
362,335,129381,2,0,B|378:346|378:346|320:373|270:322|270:322|292:320,1,161.333338256836,10|0,0:3|0:0,0:0:0:0:
389,114,129631,6,0,B|346:59|278:80|307:123|218:137|168:89|173:19|214:-7|282:-3|310:32|316:71,1,366.666666666667,14|8,0:0|0:3,0:0:0:0:
321,185,130131,1,10,0:0:0:0:
490,0,130381,2,0,P|501:74|512:145,1,146.666666666667,10|0,0:3|0:0,0:0:0:0:
411,259,130631,2,0,P|399:184|388:113,1,146.666666666667,10|0,0:0|0:0,0:0:0:0:
478,310,130881,6,0,P|421:351|356:324,1,146.666666666667,14|0,0:3|0:0,0:0:0:0:
164,359,131132,2,0,P|228:331|285:373,1,146.666666666667,8|0,0:0|0:0,0:0:0:0:
478,299,131382,2,0,P|421:340|356:313,1,146.666666666667,10|0,0:3|0:0,0:0:0:0:
160,371,131632,2,0,P|224:343|281:385,1,146.666666666667,8|0,0:0|0:0,0:0:0:0:
120,196,131882,6,0,B|108:183|91:189|91:189|70:273|70:273|56:279|45:268,1,146.666666666667,10|0,0:3|0:0,0:0:0:0:
191,161,132132,2,0,B|204:148|198:131|198:131|114:110|114:110|108:96|119:86,1,146.666666666667,10|0,0:0|0:0,0:0:0:0:
224,232,132382,2,0,B|235:244|252:238|252:238|273:154|273:154|287:148|299:160,1,146.666666666667,10|0,0:3|0:0,0:0:0:0:
154,268,132632,2,0,B|141:279|147:296|147:296|231:317|231:317|237:331|225:342,1,146.666666666667,10|0,0:0|0:0,0:0:0:0:
415,171,132882,6,0,B|452:275|452:275|417:312,1,161.333338256836,14|0,0:3|0:0,0:0:0:0:
416,312,133132,1,8,0:0:0:0:
300,161,133298,2,0,B|263:57|263:57|298:20,1,161.333338256836,10|0,0:3|0:0,0:0:0:0:
298,19,133548,1,8,0:0:0:0:
191,161,133632,2,0,B|145:181|109:148|126:132|84:101|48:120,1,161.333338256836,10|0,0:0|0:0,0:0:0:0:
48,119,133882,1,8,0:3:0:0:
277,299,134048,6,0,B|255:317|252:344|252:344|215:295|258:235|289:270|328:208|300:161,1,263.99999194336,10|0,0:0|0:0,0:0:0:0:
23,257,134382,2,0,P|101:227|165:282,1,175.999994628906,10|0,0:0|0:0,0:0:0:0:
379,127,134632,2,0,P|315:72|236:101,1,175.999994628906,10|0,0:0|0:0,0:0:0:0:
277,299,134882,6,0,P|355:280|433:260,1,161.333338256836,14|2,0:0|0:0,0:0:0:0:
300,161,135132,2,0,P|221:179|143:199,1,161.333338256836,8|0,0:0|0:0,0:0:0:0:
277,299,135382,1,10,0:3:0:0:
218,47,135632,1,2,0:0:0:0:
277,299,135798,1,2,0:0:0:0:
277,299,135882,6,0,P|238:286|200:273,2,80.6666691284181,10|8|8,0:0|0:3|0:3,0:0:0:0:
362,239,136132,1,10,0:3:0:0:
398,249,136215,1,8,0:3:0:0:
434,260,136298,1,8,0:3:0:0:
470,271,136382,2,0,P|488:192|508:114,1,161.333338256836,10|8,0:3|0:3,0:0:0:0:
362,239,136632,2,0,B|393:362|393:362|363:345,1,161.333338256836,10|0,0:3|0:0,0:0:0:0:
201,273,136882,5,14,0:3:0:0:
333,124,137132,1,10,0:3:0:0:
230,42,137382,1,10,0:3:0:0:
291,331,137632,6,0,B|240:398|166:403|91:354|85:288|85:288|107:248|168:241|201:273,1,403.33334564209,14|8,0:0|0:3,0:0:0:0:
372,383,138132,2,0,P|389:306|338:250,1,161.333338256836,10|0,0:0|0:0,0:0:0:0:
291,331,138382,1,8,0:3:0:0:
416,131,138548,1,8,0:0:0:0:
334,68,138632,2,0,B|442:36|442:36|475:70,1,161.333338256836,10|0,0:0|0:0,0:0:0:0:
322,171,138882,6,0,P|247:150|167:127,1,161.333338256836,14|0,0:3|0:0,0:0:0:0:
338,250,139132,2,0,P|413:229|493:206,1,161.333338256836,8|0,0:0|0:0,0:0:0:0:
291,331,139382,2,0,P|224:315|263:260,1,161.333338256836,10|0,0:3|0:0,0:0:0:0:
479,304,139632,2,0,P|518:359|451:374,1,161.333338256836,8|0,0:0|0:0,0:0:0:0:
338,250,139882,6,0,B|370:135|370:135|375:159|386:173,1,161.333338256836,10|0,0:3|0:0,0:0:0:0:
205,319,140132,2,0,P|184:244|161:164,1,161.333338256836,8|0,0:0|0:0,0:0:0:0:
338,345,140382,2,0,B|382:367|419:332|402:316|442:284|479:304,1,161.333338256836,10|0,0:3|0:0,0:0:0:0:
261,384,140632,1,8,0:0:0:0:
386,173,140882,6,0,B|387:136|425:125|425:125|435:117|435:117|432:130|432:130|442:170|411:190,1,161.333338256836,14|0,0:0|0:0,0:0:0:0:
280,136,141132,2,0,B|255:108|274:74|274:74|276:61|276:61|283:72|283:72|318:93|310:130,1,161.333338256836,10|0,0:0|0:0,0:0:0:0:
218,244,141382,2,0,B|181:242|170:204|170:204|162:194|162:194|175:197|175:197|215:187|235:218,1,161.333338256836,10|0,0:0|0:0,0:0:0:0:
480,304,141632,6,0,B|425:265|357:319|396:355|334:410|280:377,1,242.000007385254,14|0,0:0|0:0,0:0:0:0:
83,266,142048,6,0,P|7:322|103:345,1,242.000007385254,10|0,1:3|0:0,0:0:0:0:
235,217,142382,2,0,P|285:254|221:269,1,161.333338256836,10|0,0:0|0:0,0:0:0:0:
72,121,142632,2,0,P|22:162|85:173,1,161.333338256836,10|0,0:0|0:0,0:0:0:0:
257,81,142882,5,10,0:0:0:0:
185,369,143048,1,2,0:0:0:0:
185,369,143132,2,0,B|214:378|231:350|231:350|183:232|183:232|202:202|234:217,1,242.000007385254,10|2,0:0|0:0,0:0:0:0:
380,338,143632,2,0,P|343:353|305:368,1,80.6666691284181,2|0,0:0|3:0,0:0:0:0:
331,236,143798,1,2,3:0:0:0:
331,236,143882,6,0,P|405:264|482:292,1,161.333338256836,10|0,0:0|0:0,0:0:0:0:
512,135,144132,1,10,0:3:0:0:
475,148,144215,1,8,0:3:0:0:
438,161,144298,1,8,0:3:0:0:
401,174,144382,2,0,P|387:136|374:99,2,80.6666691284181,8|8|8,0:0|0:3|0:3,0:0:0:0:
485,34,144632,1,10,0:3:0:0:
331,236,144882,6,0,P|237:270|256:172,1,242.000007385254,14|8,0:0|0:3,0:0:0:0:
448,98,145382,1,10,0:0:0:0:
484,358,145632,6,0,B|560:257|452:151|399:242|300:132|373:36,1,403.33334564209,14|0,0:0|0:0,0:0:0:0:
448,98,146132,1,10,0:3:0:0:
244,255,146381,5,10,0:0:0:0:
206,239,146465,1,8,0:3:0:0:
168,223,146548,1,8,0:3:0:0:
130,207,146631,2,0,P|117:245|103:283,1,80.6666691284181,10|0,0:0|0:0,0:0:0:0:
256,172,146798,1,8,0:0:0:0:
200,103,146882,6,0,P|272:76|330:126,1,161.333338256836,14|0,0:3|0:0,0:0:0:0:
130,32,147132,2,0,P|71:82|0:55,1,161.333338256836,10|0,0:0|0:0,0:0:0:0:
256,172,147381,2,0,P|235:250|214:327,1,161.333338256836,10|0,0:3|0:0,0:0:0:0:
130,207,147632,1,10,0:0:0:0:
385,25,147882,6,0,P|406:103|427:180,1,161.333338256836,14|0,0:3|0:0,0:0:0:0:
330,126,148132,1,8,0:0:0:0:
214,328,148298,6,0,B|377:387|377:387|433:350,1,242.000007385254,14|8,0:3|0:3,0:0:0:0:
364,274,148632,1,8,0:3:0:0:
126,380,148882,6,0,P|100:303|75:226,1,161.333338256836,14|0,0:3|0:0,0:0:0:0:
164,175,149132,2,0,P|189:251|214:328,1,161.333338256836,10|0,0:0|0:0,0:0:0:0:
75,227,149382,1,10,0:3:0:0:
268,119,149548,1,8,0:0:0:0:
339,192,149632,1,10,0:0:0:0:
78,73,149798,1,8,0:0:0:0:
149,0,149882,6,0,P|226:26|303:51,1,161.333338256836,14|0,0:0|0:0,0:0:0:0:
302,50,150132,1,8,0:0:0:0:
79,162,150298,6,0,P|135:258|240:221,1,242.000007385254,14|8,0:3|0:0,0:0:0:0:
164,175,150632,1,10,0:3:0:0:
26,384,150882,5,6,0:0:0:0:
0,309,151132,1,2,0:0:0:0:
220,101,151382,5,10,0:3:0:0:
246,176,151632,1,10,0:3:0:0:
26,384,151882,6,0,P|58:373|88:362,2,65.9999979858399,10|8|8,0:3|0:3|0:3,0:0:0:0:
112,279,152132,2,0,P|144:290|174:300,2,65.9999979858399,10|10|10,0:3|0:3|0:3,0:0:0:0:
63,176,152382,5,10,0:0:0:0:
89,200,152465,1,8,0:3:0:0:
138,202,152548,1,8,0:3:0:0:
174,154,152632,1,10,0:3:0:0:
240,111,152715,1,8,0:3:0:0:
329,134,152798,1,8,0:3:0:0:
358,233,152882,6,0,P|347:265|336:295,2,65.9999979858399,14|10|10,0:3|0:3|0:3,0:0:0:0:
450,186,153132,2,0,P|439:154|428:123,2,65.9999979858399,10|8|8,0:3|0:3|0:3,0:0:0:0:
329,134,153382,5,8,0:3:0:0:
329,134,153465,2,0,P|339:102|350:71,1,65.9999979858399,8|8,0:3|0:3,0:0:0:0:
488,0,153632,1,10,0:3:0:0:
488,0,153715,2,0,P|498:31|509:62,1,65.9999979858399,10|10,0:3|0:3,0:0:0:0:
289,0,153882,6,0,P|258:-3|232:17,2,65.9999979858399,10|10|10,0:0|0:3|0:3,0:0:0:0:
428,124,154132,2,0,P|453:103|485:106,2,65.9999979858399,10|10|10,0:0|0:3|0:3,0:0:0:0:
279,260,154382,5,14,0:0:0:0:
249,276,154465,1,2,0:3:0:0:
197,272,154548,1,10,0:3:0:0:
144,219,154632,1,10,0:0:0:0:
155,131,154715,1,10,0:0:0:0:
243,95,154798,1,10,0:0:0:0:
316,175,154882,6,0,P|410:152|500:128,1,190.66665793864,14|0,0:3|0:0,0:0:0:0:
382,319,155132,2,0,P|288:296|198:272,1,190.66665793864,8|0,0:0|0:0,0:0:0:0:
452,219,155382,2,0,B|420:261|454:317|485:289|522:343|495:383,1,190.66665793864,8|0,0:3|0:0,0:0:0:0:
316,175,155632,2,0,P|272:107|351:92,1,190.66665793864,10|0,0:0|0:0,0:0:0:0:
382,319,155882,6,0,P|288:296|198:272,1,190.66665793864,10|0,0:3|0:0,0:0:0:0:
31,179,156132,2,0,B|82:210|82:210|202:161,1,190.66665793864,10|0,0:0|0:0,0:0:0:0:
172,357,156382,2,0,B|121:326|121:326|1:375,1,190.66665793864,10|0,0:3|0:0,0:0:0:0:
197,272,156632,2,0,B|237:244|290:281|262:312|318:346|361:315,1,190.66665793864,10|0,0:0|0:0,0:0:0:0:
203,160,156882,6,0,P|117:196|27:233,1,190.66665793864,10|0,0:3|0:0,0:0:0:0:
245,86,157132,2,0,P|324:93|285:164,1,190.66665793864,8|0,0:0|0:0,0:0:0:0:
31,54,157382,2,0,B|11:94|41:124|41:124|84:75|143:100,1,190.66665793864,8|0,0:3|0:0,0:0:0:0:
381,0,157632,1,10,0:0:0:0:
449,72,157715,2,0,P|432:116|416:160,1,95.3333289693199,2|0,0:0|0:0,0:0:0:0:
245,86,157882,6,0,P|206:15|286:7,1,190.66665793864,10|0,0:3|0:0,0:0:0:0:
149,246,158132,2,0,P|187:175|107:167,1,190.66665793864,8|0,0:0|0:0,0:0:0:0:
362,315,158382,2,0,P|323:244|403:236,1,190.66665793864,10|8,0:3|0:3,0:0:0:0:
188,370,158632,1,8,0:0:0:0:
245,86,158882,6,0,B|285:58|338:95|310:126|366:160|409:129,1,190.66665793864,10|0,0:3|0:0,0:0:0:0:
204,198,159132,2,0,P|167:110|130:21,1,190.66665793864,8|0,0:0|0:0,0:0:0:0:
308,192,159382,2,0,P|271:279|234:368,1,190.66665793864,8|0,0:3|0:0,0:0:0:0:
40,241,159632,2,0,B|80:269|133:232|105:201|161:167|204:198,1,190.66665793864,10|0,0:0|0:0,0:0:0:0:
410,129,159882,6,0,P|486:116|454:186,1,190.66665793864,10|0,0:3|0:0,0:0:0:0:
245,86,160132,2,0,P|212:15|289:28,1,190.66665793864,10|0,0:0|0:0,0:0:0:0:
355,214,160382,2,0,P|267:250|178:287,1,190.66665793864,10|0,0:3|0:0,0:0:0:0:
321,374,160632,2,0,P|408:337|497:300,1,190.66665793864,10|0,0:0|0:0,0:0:0:0:
194,162,160882,6,0,B|176:208|122:218|122:218|170:231|179:287,1,190.66665793864,10|0,0:3|0:0,0:0:0:0:
334,136,161132,2,0,B|343:80|390:67|390:67|337:57|319:10,1,190.66665793864,8|0,0:0|0:0,0:0:0:0:
245,86,161382,1,8,0:3:0:0:
433,239,161548,1,8,0:0:0:0:
512,195,161632,2,0,P|488:103|463:10,1,190.66665793864,10|0,0:0|0:0,0:0:0:0:
257,174,161882,6,0,P|148:140|245:86,1,285.99998690796,14|8,0:3|0:0,0:0:0:0:
433,239,162298,6,0,B|364:190|288:262|344:298|276:372|202:328,1,285.99998690796,14|8,0:3|0:3,0:0:0:0:
71,234,162632,2,0,P|14:306|55:384,1,190.66665793864,10|0,1:3|0:0,0:0:0:0:
240,258,162882,6,0,P|216:166|191:73,1,190.66665793864,14|0,0:3|0:0,0:0:0:0:
22,50,163132,2,0,P|46:142|70:234,1,190.66665793864,10|0,0:0|0:0,0:0:0:0:
256,12,163382,2,0,B|299:-12|349:28|319:57|372:96|417:67,1,190.66665793864,10|0,0:3|0:0,0:0:0:0:
203,181,163632,2,0,B|160:205|110:165|140:136|87:97|42:126,1,190.66665793864,10|0,0:0|0:0,0:0:0:0:
279,232,163882,6,0,P|303:191|287:148,2,95.3333289693199,10|0|2,0:3|0:0|0:0,0:0:0:0:
119,334,164132,2,0,P|211:359|303:383,1,190.66665793864,10|0,0:0|0:0,0:0:0:0:
203,181,164382,2,0,P|111:206|19:230,1,190.66665793864,10|2,0:3|0:0,0:0:0:0:
279,232,164632,1,10,0:0:0:0:
55,84,164798,1,2,0:0:0:0:
115,15,164882,6,0,B|166:-16|166:-16|287:33,1,190.66665793864,10|0,0:3|0:0,0:0:0:0:
461,134,165132,2,0,B|410:103|410:103|289:152,1,190.66665793864,10|0,0:0|0:0,0:0:0:0:
119,334,165382,2,0,P|62:264|103:183,1,190.66665793864,10|0,0:3|0:0,0:0:0:0:
279,232,165632,2,0,P|335:301|294:382,1,190.66665793864,10|0,0:0|0:0,0:0:0:0:
162,254,165882,6,0,P|187:162|211:70,1,190.66665793864,10|0,0:3|0:0,0:0:0:0:
279,232,166132,1,8,0:0:0:0:
123,66,166298,1,8,0:3:0:0:
194,0,166382,2,0,B|236:-24|287:14|257:43|311:81|355:52,1,190.66665793864,10|8,0:3|0:3,0:0:0:0:
183,178,166632,2,0,B|140:202|89:163|119:134|65:96|21:125,1,190.66665793864,10|0,0:0|0:0,0:0:0:0:
279,232,166882,6,0,B|338:196|338:196|478:252,1,220,14|2,0:3|0:0,0:0:0:0:
235,363,167298,6,0,B|248:296|193:264|193:264|186:319|130:363|67:340,1,285.99998690796,14|8,0:3|1:3,0:0:0:0:
66,339,167632,1,8,0:3:0:0:
280,150,167882,6,0,P|308:218|335:286,1,146.666666666667,14|8,0:3|0:0,0:0:0:0:
334,285,168132,1,10,0:0:0:0:
0,98,168298,6,0,B|66:61|66:61|191:121|191:121|250:82,1,285.99998690796,14|8,0:3|0:3,0:0:0:0:
251,82,168632,2,0,P|264:21|201:27,1,146.666666666667,10|0,0:3|0:0,0:0:0:0:
66,163,168882,5,14,0:3:0:0:
152,295,169132,1,10,0:3:0:0:
290,151,169382,1,10,0:3:0:0:
480,323,169632,1,10,0:3:0:0:
66,163,169882,6,0,P|86:96|108:22,2,146.666666666667,14|8|8,0:0|0:3|0:3,0:0:0:0:
279,376,170382,6,0,B|266:321|306:277|337:318|380:286|386:207|340:184|298:191|277:211|272:244,1,285.99998690796,14|0,0:0|0:0,0:0:0:0:
41,97,170882,6,0,B|111:141|178:84|135:52|210:-21|320:36|301:127|238:149|199:136,1,366.666666666667,14|0,0:0|0:0,0:0:0:0:
151,225,171382,2,0,P|116:110|80:-6,1,242.000007385254,10|0,0:0|0:0,0:0:0:0:
367,99,171882,6,0,B|385:64|385:64|407:94|407:94|314:275|314:275|333:309|333:309|355:265,1,366.666666666667,10|0,0:0|0:0,0:0:0:0:
463,253,172382,2,0,P|362:185|262:117,1,242.000007385254,10|0,0:0|0:0,0:0:0:0:
134,326,172882,6,0,B|106:357|63:347|63:347|41:307|73:272,1,161.333338256836,10|0,1:3|0:0,0:0:0:0:
169,154,173132,2,0,B|209:161|223:204|223:204|199:243|151:234,1,161.333338256836,10|0,0:3|0:0,0:0:0:0:
5,207,173382,2,0,B|-8:167|21:134|21:134|67:136|82:181,1,161.333338256836,10|0,0:3|0:0,0:0:0:0:
223,305,173632,6,0,B|282:340|341:282|301:247|362:193|419:224,1,242.000007385254,14|0,0:3|0:0,0:0:0:0:
123,75,174048,1,8,0:3:0:0:
199,20,174132,6,0,B|225:63|225:63|183:166,1,161.333338256836,10|0,0:0|0:0,0:0:0:0:
249,229,174382,1,10,0:3:0:0:
18,320,174548,1,8,0:0:0:0:
74,244,174632,2,0,P|148:275|223:305,1,161.333338256836,10|8,0:3|0:0,0:0:0:0:
420,224,174882,6,0,B|393:264|430:317|461:288|496:344|465:387,1,190.66665793864,14|0,0:3|0:0,0:0:0:0:
249,229,175132,2,0,B|222:188|259:135|290:164|325:108|294:65,1,190.66665793864,8|0,0:0|0:0,0:0:0:0:
323,261,175382,2,0,P|298:341|224:307,1,190.66665793864,10|0,0:3|0:0,0:0:0:0:
396,144,175632,2,0,P|420:224|495:187,1,190.66665793864,8|0,0:0|0:0,0:0:0:0:
294,65,175882,6,0,P|207:102|118:139,1,190.66665793864,10|0,0:3|0:0,0:0:0:0:
337,0,176132,2,0,P|424:37|513:74,1,190.66665793864,8|0,0:0|0:0,0:0:0:0:
246,4,176382,2,0,B|205:-23|152:14|181:45|125:80|82:49,1,190.66665793864,10|0,0:3|0:0,0:0:0:0:
254,178,176632,2,0,B|295:151|348:188|319:219|375:254|418:223,1,190.66665793864,8|0,0:0|0:0,0:0:0:0:
269,347,176882,5,10,0:3:0:0:
119,139,177132,1,10,0:3:0:0:
286,370,177382,1,10,0:3:0:0:
102,115,177632,6,0,B|87:158|128:181|128:181|286:123|286:123|328:147|312:193,1,329.9999899292,14|0,0:3|0:0,0:0:0:0:
311,193,178132,1,8,1:3:0:0:
150,46,178382,2,0,P|208:24|273:1,1,131.99999597168,10|8,0:3|0:3,0:0:0:0:
273,0,178632,1,10,1:3:0:0:
152,273,178882,6,0,B|193:303|248:271|264:227|246:160|163:132|82:160|57:234,1,352,14|2,0:3|0:0,0:0:0:0:
358,359,179882,6,0,B|316:290|316:290|386:121,1,263.99999194336,14|8,0:3|0:3,0:0:0:0:
386,120,180298,1,8,0:3:0:0:
386,120,180382,1,10,0:0:0:0:
104,20,180882,6,0,B|40:-11|-11:52|20:114|72:119|72:119|230:54,1,366.666666666667,14|0,0:3|0:0,0:0:0:0:
307,135,181382,6,0,B|371:151|399:89|353:30|290:42|246:85|288:197|251:247|184:250|136:183|175:136|227:144,1,403.33334564209,14|0,0:3|0:0,0:0:0:0:
318,219,181882,6,0,P|350:294|290:351,1,175.999994628906,14|0,0:3|0:0,0:0:0:0:
163,276,182132,1,8,0:3:0:0:
185,300,182215,2,0,P|227:287|269:276,1,87.9999973144532,8|8,0:3|0:3,0:0:0:0:
389,134,182382,5,14,0:0:0:0:
355,147,182465,1,8,0:0:0:0:
307,135,182548,1,8,0:0:0:0:
287,78,182632,1,8,0:0:0:0:
236,18,182715,1,8,0:0:0:0:
145,14,182798,1,8,0:0:0:0:
88,100,182882,5,10,0:0:0:0:
369,49,183132,1,10,0:0:0:0:
293,259,183298,6,0,P|206:234|124:210,1,175.999994628906,10|0,0:0|0:0,0:0:0:0:
39,255,183548,1,8,0:0:0:0:
22,284,183632,2,0,P|16:326|41:362,1,87.9999973144532,2|0,0:0|0:0,0:0:0:0:
108,308,183798,1,8,0:0:0:0:
54,147,183882,6,0,B|98:114|98:114|213:149,1,175.999994628906,10|0,0:0|0:0,0:0:0:0:
373,230,184132,6,0,B|330:198|330:198|156:250|156:250|124:210,1,285.99998690796,14|8,0:3|1:3,0:0:0:0:
164,46,184465,5,8,0:0:0:0:
198,33,184548,1,8,0:0:0:0:
246,45,184631,1,8,0:0:0:0:
266,102,184715,1,8,0:0:0:0:
317,162,184798,1,8,0:0:0:0:
406,133,184882,6,0,P|451:29|349:78,1,293.333333333333,10|0,0:3|0:0,0:0:0:0:
231,184,185298,2,0,P|148:216|176:132,1,220,10|0,0:3|0:0,0:0:0:0:
293,249,185632,2,0,P|312:278|305:314,3,73.3333333333333,10|8|8|8,1:3|0:3|0:3|0:3,0:0:0:0:
493,173,186048,6,0,P|474:202|481:238,1,73.3333333333333,10|0,0:3|0:0,0:0:0:0:
406,133,186215,1,10,0:3:0:0:
371,144,186298,1,10,0:3:0:0:
299,164,186382,6,0,P|286:122|273:80,3,87.9999973144532,14|2|2|8,0:0|0:0|0:0|0:3,0:0:0:0:
208,217,186715,1,8,0:0:0:0:
155,201,186798,1,8,0:0:0:0:
81,182,186882,6,0,P|54:86|151:111,1,242.000007385254,14|10,0:3|0:0,0:0:0:0:
85,336,187298,1,2,0:0:0:0:
85,336,187382,2,0,B|13:316|13:316|-2:274|-2:274|32:245|32:245|106:265,1,242.000007385254,10|10,0:3|0:0,0:0:0:0:
372,224,187882,6,0,B|425:251|432:314|417:353|380:333|391:305,1,161.333338256836,14|0,0:3|0:0,0:0:0:0:
317,162,188132,2,0,B|312:102|364:62|405:58|407:99|379:102,1,161.333338256836,10|0,0:0|0:0,0:0:0:0:
290,240,188382,2,0,B|238:272|180:248|154:215|189:193|206:217,1,161.333338256836,14|0,0:3|0:0,0:0:0:0:
372,224,188632,1,10,0:0:0:0:
146,37,188882,6,0,B|9:79|9:79|52:114|52:114|68:74,1,242.000007385254,14|10,0:3|0:0,0:0:0:0:
317,162,189298,1,2,0:0:0:0:
317,162,189382,2,0,B|274:193|274:193|145:148|145:148|102:178,1,242.000007385254,10|10,0:3|0:0,0:0:0:0:
389,112,189882,6,0,B|429:90|465:114|465:114|458:71|487:39,1,161.333338256836,14|0,0:3|0:0,0:0:0:0:
317,162,190132,2,0,B|313:207|274:226|274:226|315:242|328:283,1,161.333338256836,10|0,0:0|0:0,0:0:0:0:
309,69,190382,2,0,B|270:43|272:0|272:0|238:27|199:18,1,161.333338256836,14|0,0:3|0:0,0:0:0:0:
389,112,190632,1,10,0:0:0:0:
248,305,190882,6,0,B|155:335|168:254|137:224|73:244|70:302|112:322|141:302,1,242.000007385254,14|10,0:3|0:0,0:0:0:0:
404,199,191298,1,2,0:0:0:0:
404,199,191382,2,0,B|445:333|445:333|423:367|423:367|401:310,1,242.000007385254,10|10,0:3|0:0,0:0:0:0:
167,137,191882,6,0,B|134:101|156:59|156:59|201:49|227:80,1,161.333338256836,14|0,0:3|0:0,0:0:0:0:
173,231,192132,2,0,B|158:275|111:276|111:276|80:243|94:204,1,161.333338256836,10|0,0:0|0:0,0:0:0:0:
252,178,192382,2,0,B|297:166|322:207|322:207|308:251|267:258,1,161.333338256836,14|0,0:3|0:0,0:0:0:0:
167,137,192632,1,10,0:0:0:0:
447,0,192882,6,0,P|469:79|492:155,1,161.333338256836,14|0,0:3|0:0,0:0:0:0:
442,334,193132,2,0,P|419:254|396:178,1,161.333338256836,10|0,0:0|0:0,0:0:0:0:
512,231,193382,1,10,0:0:0:0:
293,367,193548,1,8,0:0:0:0:
293,367,193632,2,0,P|244:307|172:330,1,161.333338256836,10|0,0:0|0:0,0:0:0:0:
15,218,193882,6,0,P|123:252|189:161,1,242.000007385254,14|8,0:3|0:0,0:0:0:0:
453,44,194298,6,0,P|375:21|298:0,1,161.333338256836,14|10,0:3|0:3,0:0:0:0:
268,183,194548,1,10,0:3:0:0:
305,170,194631,1,10,0:3:0:0:
358,154,194714,1,10,0:0:0:0:
428,134,194798,1,10,0:0:0:0:
512,109,194882,6,0,P|489:186|467:263,1,161.333338256836,14|0,0:3|0:0,0:0:0:0:
400,384,195132,2,0,P|377:306|355:229,1,161.333338256836,10|0,0:0|0:0,0:0:0:0:
258,99,195382,2,0,B|205:56|132:104|168:143|107:193|54:159,1,242.000007385254,10|10,0:3|0:0,0:0:0:0:
308,12,195882,6,0,B|360:-30|433:17|397:56|459:106|512:72,1,242.000007385254,10|8,0:3|0:0,0:0:0:0:
320,211,196298,1,2,0:0:0:0:
320,211,196382,2,0,P|296:139|346:79,1,161.333338256836,8|0,0:3|0:0,0:0:0:0:
377,153,196632,1,10,0:0:0:0:
215,307,196882,6,0,P|138:284|61:262,1,161.333338256836,10|0,0:3|0:0,0:0:0:0:
166,166,197132,2,0,P|243:189|320:211,1,161.333338256836,10|0,0:0|0:0,0:0:0:0:
209,60,197382,2,0,B|45:109|45:109|0:55,1,242.000007385254,10|10,0:3|0:0,0:0:0:0:
281,120,197882,6,0,B|445:71|445:71|490:125,1,242.000007385254,10|8,0:3|0:0,0:0:0:0:
209,60,198298,1,2,0:0:0:0:
209,60,198382,2,0,P|132:83|55:106,1,161.333338256836,8|8,0:3|0:3,0:0:0:0:
12,192,198632,1,10,0:0:0:0:
206,305,198882,6,0,P|182:231|232:172,1,161.333338256836,14|0,0:3|0:0,0:0:0:0:
285,252,199132,2,0,P|308:325|258:384,1,161.333338256836,10|0,0:0|0:0,0:0:0:0:
359,193,199382,2,0,P|459:148|508:245,1,242.000007385254,10|10,0:3|0:0,0:0:0:0:
251,95,199882,6,0,P|201:192|101:147,1,242.000007385254,10|10,0:3|0:0,0:0:0:0:
386,61,200382,2,0,P|335:119|359:193,1,161.333338256836,10|8,0:3|0:3,0:0:0:0:
439,140,200632,1,10,0:0:0:0:
256,0,200882,6,0,P|140:35|23:71,1,242.000007385254,14|8,0:3|0:0,0:0:0:0:
255,179,201382,2,0,B|297:231|250:304|211:268|161:330|195:383,1,242.000007385254,10|8,0:3|0:0,0:0:0:0:
338,147,201882,6,0,P|242:89|165:171,1,242.000007385254,14|8,0:3|0:0,0:0:0:0:
22,112,202215,2,0,P|10:150|0:189,1,80.6666691284181,10|10,0:3|0:3,0:0:0:0:
113,78,202382,2,0,P|101:39|90:0,2,80.6666691284181,10|8|8,0:3|0:3|0:0,0:0:0:0:
255,179,202632,1,8,0:0:0:0:
242,216,202715,1,10,0:0:0:0:
226,269,202798,1,8,0:0:0:0:
206,339,202882,6,0,B|292:392|371:317|317:280|405:189|540:253|521:364|446:393|403:380,1,440,14|2,0:3|0:0,0:0:0:0:
401,379,203632,1,8,1:3:0:0:
242,216,203882,6,0,P|218:114|156:18,1,220,2|0,0:0|0:0,0:0:0:0:
319,270,204382,2,0,P|360:174|437:90,1,220,10|8,1:3|0:3,0:0:0:0:
233,311,204882,6,0,B|187:371|83:357|34:285|41:203|82:143|174:143|191:188|191:188|141:188|118:231,1,495.000018882752,14|0,0:3|0:0,0:0:0:0:
257,56,205882,6,0,B|325:39|325:39|415:138|415:138|484:121,1,275.000010490418,2|0,0:0|0:0,0:0:0:0:
455,2,206382,2,0,B|386:20|386:20|356:150|356:150|288:167,1,275.000010490418,8|0,1:3|0:0,0:0:0:0:
209,143,206882,6,0,B|174:193|223:256|256:220|307:273|280:324,1,220,6|0,0:0|0:0,0:0:0:0:
159,384,207632,1,2,0:0:0:0:
43,229,207882,6,0,P|25:279|7:333,1,110,2|2,0:0|0:0,0:0:0:0:
164,211,208382,1,2,0:0:0:0:
110,61,208632,1,2,0:0:0:0:
354,123,208882,6,0,P|277:79|288:167,1,220,2|0,0:0|0:0,0:0:0:0:
431,79,209632,1,2,0:0:0:0:
214,25,209882,6,0,P|164:42|110:61,2,110,2|0|2,0:0|0:0|0:0,0:0:0:0:
189,121,210632,1,0,0:0:0:0:
384,154,210882,6,0,B|439:129|456:62|427:14|355:24|352:78,1,220,2|0,0:0|0:0,0:0:0:0:
419,228,211632,1,2,0:0:0:0:
189,121,211882,6,0,P|172:171|153:224,1,110,2|2,0:0|0:0,0:0:0:0:
308,164,212382,1,2,0:0:0:0:
254,14,212632,1,2,0:0:0:0:
501,92,212882,6,0,P|457:62|407:78,1,110,2|0,0:0|0:0,0:0:0:0:
321,260,213382,1,8,0:3:0:0:
445,148,213632,1,10,1:3:0:0:
287,93,213882,5,2,0:0:0:0:
354,24,214132,1,8,0:3:0:0:
220,162,214382,2,0,P|181:124|141:85,1,110,10|0,1:3|0:0,0:0:0:0:
321,260,214882,5,6,0:0:0:0:
254,329,215132,1,0,0:0:0:0:
412,236,215382,1,2,0:0:0:0:
345,167,215632,1,0,0:0:0:0:
479,305,215882,6,0,P|499:225|522:145,1,165.000006294251,10|0,0:3|0:0,0:0:0:0:
321,260,216382,1,10,0:3:0:0:
287,93,216632,1,2,0:0:0:0:
287,93,216757,1,2,0:0:0:0:
287,93,216882,6,0,P|301:163|361:126,1,165.000006294251,10|0,0:3|0:0,0:0:0:0:
183,41,217382,1,2,0:0:0:0:
95,137,217632,1,0,0:0:0:0:
270,3,217882,6,0,P|365:33|457:65,1,197.99999395752,10|8,0:3|0:3,0:0:0:0:
469,76,218215,1,8,0:3:0:0:
469,76,218298,1,8,0:3:0:0:
469,76,218382,6,0,P|437:85|406:95,5,65.9999979858399,10|2|2|2|2|2,0:0|0:0|0:0|0:0|0:0|0:0,0:0:0:0:
430,181,218882,6,0,B|380:216|317:167|353:134|300:83|249:110,1,220,14|2,0:3|0:0,0:0:0:0:
46,323,219298,6,0,B|33:256|88:224|88:224|95:279|151:323|214:300,1,285.99998690796,14|8,0:3|1:3,0:0:0:0:
214,299,219632,1,8,0:3:0:0:
430,181,219882,6,0,P|449:251|468:322,1,146.666666666667,14|8,0:3|0:0,0:0:0:0:
468,322,220132,1,10,0:0:0:0:
259,227,220298,6,0,P|197:137|308:160,1,285.99998690796,14|8,0:3|0:3,0:0:0:0:
308,161,220632,2,0,P|363:122|343:54,1,146.666666666667,10|0,0:3|0:0,0:0:0:0:
224,0,220882,5,14,0:3:0:0:
92,81,221132,1,10,0:3:0:0:
259,227,221382,1,10,0:3:0:0:
16,384,221632,1,10,0:3:0:0:
224,0,221882,5,14,0:0:0:0:
430,181,222215,5,8,0:3:0:0:
430,181,222298,1,8,0:3:0:0:
430,181,222382,6,0,P|466:93|503:4,1,190.66665793864,14|0,0:0|0:0,0:0:0:0:
383,60,222632,2,0,P|352:133|321:208,1,161.333338256836,2|0,0:0|0:0,0:0:0:0:
352,304,222882,5,10,0:0:0:0:
323,325,222965,1,8,0:3:0:0:
274,321,223048,1,8,0:3:0:0:
243,270,223132,1,8,0:3:0:0:
181,220,223215,1,8,0:3:0:0:
91,233,223298,1,8,0:3:0:0:
51,329,223382,6,0,P|13:313|-23:298,2,80.6666691284181,14|8|8,0:0|0:3|0:3,0:0:0:0:
197,334,223632,1,10,0:3:0:0:
197,334,223715,2,0,P|159:318|123:303,1,80.6666691284181,8|8,0:3|0:3,0:0:0:0:
3,181,223882,5,14,0:0:0:0:
38,164,223965,1,8,0:3:0:0:
90,144,224048,1,8,0:3:0:0:
158,118,224132,1,10,0:3:0:0:
238,85,224215,2,0,P|221:45|204:4,1,87.9999973144532,8|8,0:3|0:3,0:0:0:0:
398,146,224382,5,14,0:0:0:0:
414,175,224465,1,10,0:3:0:0:
410,225,224548,1,10,0:3:0:0:
359,277,224632,1,10,0:0:0:0:
273,266,224715,1,10,0:0:0:0:
238,180,224798,1,10,0:0:0:0:
316,105,224882,6,0,P|410:125|501:145,1,190.66665793864,14|0,0:3|0:0,0:0:0:0:
359,277,225132,2,0,P|264:256|173:236,1,190.66665793864,8|0,0:0|0:0,0:0:0:0:
439,244,225382,2,0,P|498:298|425:332,1,190.66665793864,8|0,0:3|0:0,0:0:0:0:
241,128,225632,2,0,P|181:73|254:39,1,190.66665793864,10|0,0:0|0:0,0:0:0:0:
359,277,225882,6,0,B|315:255|267:299|299:326|249:367|202:342,1,190.66665793864,10|0,0:3|0:0,0:0:0:0:
316,105,226132,2,0,B|359:82|408:124|377:152|429:192|475:165,1,190.66665793864,8|0,0:0|0:0,0:0:0:0:
282,314,226382,2,0,P|261:220|241:127,1,190.66665793864,10|0,0:3|0:0,0:0:0:0:
439,244,226632,1,8,0:0:0:0:
216,366,226882,6,0,B|170:393|118:353|149:325|100:283|57:306,1,190.66665793864,10|0,0:3|0:0,0:0:0:0:
266,245,227132,2,0,P|342:272|281:314,1,190.66665793864,8|0,0:0|0:0,0:0:0:0:
102,197,227382,2,0,P|42:147|117:127,1,190.66665793864,8|0,0:3|0:0,0:0:0:0:
320,95,227632,2,0,B|274:122|222:82|253:54|204:12|161:35,1,190.66665793864,10|0,0:0|0:0,0:0:0:0:
266,245,227882,6,0,P|354:208|442:172,1,190.66665793864,10|0,0:3|0:0,0:0:0:0:
337,384,228132,2,0,P|248:347|160:311,1,190.66665793864,10|0,0:0|0:0,0:0:0:0:
410,266,228382,2,0,P|469:315|394:335,1,190.66665793864,10|0,0:3|0:0,0:0:0:0:
250,174,228632,2,0,P|191:225|266:245,1,190.66665793864,10|0,0:0|0:0,0:0:0:0:
442,172,228882,6,0,B|478:101|414:49|414:49|417:77|402:99,1,190.66665793864,10|0,0:3|0:0,0:0:0:0:
304,319,229132,2,0,B|289:340|292:368|292:368|228:317|265:247,1,190.66665793864,8|0,0:0|0:0,0:0:0:0:
469,317,229382,1,8,0:3:0:0:
294,95,229548,1,8,0:0:0:0:
250,174,229632,2,0,P|158:150|65:125,1,190.66665793864,10|0,0:0|0:0,0:0:0:0:
258,15,229882,6,0,B|327:-34|403:38|347:74|415:148|489:104,1,285.99998690796,14|8,0:3|0:0,0:0:0:0:
156,317,230298,6,0,B|199:295|199:295|244:119|244:119|295:95,1,285.99998690796,14|8,0:3|1:3,0:0:0:0:
128,238,230632,2,0,P|104:146|79:53,1,190.66665793864,10|0,1:3|0:0,0:0:0:0:
315,177,230882,6,0,P|370:232|293:250,1,190.66665793864,14|0,0:3|0:0,0:0:0:0:
179,64,231132,2,0,B|299:4|299:4|347:33,1,190.66665793864,10|0,0:0|0:0,0:0:0:0:
195,192,231382,2,0,B|75:132|75:132|27:161,1,190.66665793864,10|0,0:3|0:0,0:0:0:0:
212,325,231632,2,0,B|332:265|332:265|380:294,1,190.66665793864,10|0,0:0|0:0,0:0:0:0:
145,263,231882,6,0,P|132:309|120:355,2,95.3333289693199,10|0|2,0:3|0:0|0:0,0:0:0:0:
255,131,232132,2,0,P|331:145|278:202,1,190.66665793864,10|0,0:0|0:0,0:0:0:0:
75,92,232382,2,0,B|121:119|173:79|142:51|191:9|234:32,1,190.66665793864,10|2,0:3|0:0,0:0:0:0:
195,192,232632,1,10,0:0:0:0:
389,68,232798,1,2,0:0:0:0:
439,147,232882,6,0,P|498:78|456:0,1,190.66665793864,10|0,0:3|0:0,0:0:0:0:
360,197,233132,2,0,P|428:256|507:214,1,190.66665793864,10|0,0:0|0:0,0:0:0:0:
310,118,233382,2,0,P|250:186|292:265,1,190.66665793864,10|0,0:3|0:0,0:0:0:0:
389,68,233632,2,0,P|321:8|242:50,1,190.66665793864,10|0,0:0|0:0,0:0:0:0:
54,191,233882,6,0,P|30:99|5:6,1,190.66665793864,10|0,0:3|0:0,0:0:0:0:
158,103,234132,1,8,0:0:0:0:
95,370,234298,1,8,0:3:0:0:
44,279,234382,2,0,B|96:283|125:241|125:241|132:292|182:313,1,190.66665793864,10|8,0:3|0:3,0:0:0:0:
358,198,234632,2,0,B|306:194|277:236|277:236|270:185|220:164,1,190.66665793864,10|0,0:0|0:0,0:0:0:0:
267,384,234882,6,0,B|408:312|408:312|379:333|376:361,1,220,14|2,0:3|0:0,0:0:0:0:
135,246,235298,6,0,P|72:336|182:313,1,285.99998690796,14|8,0:3|1:3,0:0:0:0:
182,312,235632,1,8,0:3:0:0:
273,91,235882,6,0,B|238:108|197:80|221:59|183:30|149:42,1,146.666666666667,14|8,0:3|0:0,0:0:0:0:
149,43,236132,1,10,0:0:0:0:
245,257,236298,6,0,B|286:299|348:290|388:241|370:180|370:180|405:207|445:191,1,285.99998690796,14|8,0:3|0:3,0:0:0:0:
446,191,236632,2,0,P|476:129|425:83,1,146.666666666667,10|0,0:3|0:0,0:0:0:0:
436,277,236882,5,14,0:3:0:0:
300,206,237132,1,10,0:3:0:0:
187,360,237382,1,10,0:3:0:0:
0,174,237632,1,10,0:3:0:0:
436,277,237882,6,0,P|456:210|478:136,2,146.666666666667,14|8|8,0:0|0:3|0:3,0:0:0:0:
245,82,238382,6,0,B|253:55|253:55|269:71|269:71|233:186|233:186|248:204|248:204|258:180,1,220,14|0,0:0|0:0,0:0:0:0:
436,277,238882,6,0,B|354:211|249:290|316:341|217:430|131:366,1,366.666666666667,14|0,0:0|0:0,0:0:0:0:
46,323,239382,2,0,P|-4:242|87:263,1,242.000007385254,10|8,0:0|0:3,0:0:0:0:
247,78,239882,6,0,B|122:47|122:47|76:76|76:76|102:125|102:125|226:155,1,366.666666666667,10|0,0:0|0:0,0:0:0:0:
309,188,240382,2,0,B|289:230|289:230|139:269|139:269|120:305,1,242.000007385254,10|8,0:0|0:3,0:0:0:0:
346,334,240882,6,0,B|371:347|374:382|374:382|433:376|437:316,1,161.333338256836,10|0,1:3|0:0,0:0:0:0:
309,188,241132,2,0,B|283:203|251:188|251:188|226:244|277:276,1,161.333338256836,10|0,0:3|0:0,0:0:0:0:
448,230,241382,2,0,B|448:199|475:179|475:179|441:130|388:158,1,161.333338256836,10|0,0:3|0:0,0:0:0:0:
260,366,241632,6,0,P|143:336|26:306,1,242.000007385254,14|0,0:3|0:0,0:0:0:0:
226,155,242048,1,8,0:3:0:0:
158,94,242132,6,0,B|126:132|126:132|153:240,1,161.333338256836,10|0,0:0|0:0,0:0:0:0:
260,366,242382,1,10,0:3:0:0:
297,353,242465,1,8,0:3:0:0:
350,337,242548,1,8,0:3:0:0:
420,317,242632,1,10,0:3:0:0:
153,240,242798,1,8,0:0:0:0:
91,309,242882,6,0,B|53:263|53:263|85:136,1,190.66665793864,14|0,0:3|0:0,0:0:0:0:
277,22,243132,2,0,P|301:114|326:207,1,190.66665793864,8|0,0:0|0:0,0:0:0:0:
146,84,243382,2,0,P|61:58|4:127,1,190.66665793864,10|0,0:3|0:0,0:0:0:0:
277,22,243632,2,0,P|362:-5|419:64,1,190.66665793864,8|0,0:0|0:0,0:0:0:0:
207,244,243882,6,0,B|230:201|188:152|160:183|120:131|147:85,1,190.66665793864,10|0,0:3|0:0,0:0:0:0:
399,186,244132,2,0,B|426:232|386:284|358:253|316:302|339:345,1,190.66665793864,8|0,0:0|0:0,0:0:0:0:
262,130,244382,2,0,P|173:166|85:203,1,190.66665793864,10|0,0:3|0:0,0:0:0:0:
283,231,244632,2,0,P|371:267|459:304,1,190.66665793864,8|0,0:0|0:0,0:0:0:0:
243,355,244882,5,10,0:3:0:0:
159,116,245132,1,10,0:3:0:0:
255,384,245382,1,10,0:3:0:0:
148,85,245632,6,0,B|257:58|257:58|336:125|336:125|446:98,1,329.9999899292,14|0,0:3|0:0,0:0:0:0:
446,97,246132,1,8,1:3:0:0:
263,294,246382,2,0,P|246:234|228:167,1,131.99999597168,10|8,0:3|0:3,0:0:0:0:
227,166,246632,1,10,1:3:0:0:
461,364,246882,6,0,B|486:367|534:349|538:278|505:244|436:222|377:277|409:311|443:348|383:370|342:359|331:339|324:315|344:289|376:299,1,352,14|2,0:3|0:0,0:0:0:0:
154,146,247882,6,0,B|107:316|107:316|141:301|141:301|156:252,1,263.99999194336,14|8,0:3|0:3,0:0:0:0:
156,252,248298,1,8,0:3:0:0:
156,252,248382,1,10,0:0:0:0:
370,116,248882,6,0,B|387:149|425:182|491:165|523:127|508:59|445:27|364:67|404:100|345:140|289:100,1,366.666666666667,14|0,0:3|0:0,0:0:0:0:
173,47,249382,6,0,B|109:32|57:101|70:170|121:213|180:224|233:171|221:134|221:134|191:157|153:145,1,403.33334564209,14|0,0:3|0:0,0:0:0:0:
71,235,249882,6,0,P|39:310|99:367,1,175.999994628906,14|0,0:3|0:0,0:0:0:0:
226,292,250132,1,8,0:3:0:0:
204,316,250215,2,0,P|162:303|120:292,1,87.9999973144532,8|8,0:3|0:3,0:0:0:0:
0,150,250382,5,14,0:0:0:0:
34,163,250465,1,8,0:0:0:0:
82,151,250548,1,8,0:0:0:0:
102,94,250632,1,8,0:0:0:0:
153,34,250715,1,8,0:0:0:0:
244,30,250798,1,8,0:0:0:0:
301,116,250882,5,10,0:0:0:0:
20,65,251132,1,10,0:0:0:0:
119,292,251298,6,0,P|206:267|288:243,1,175.999994628906,10|0,0:0|0:0,0:0:0:0:
365,275,251548,1,8,0:0:0:0:
382,304,251632,2,0,P|388:346|363:382,1,87.9999973144532,2|0,0:0|0:0,0:0:0:0:
305,331,251798,1,8,0:0:0:0:
362,181,251882,6,0,P|444:169|493:238,1,175.999994628906,10|0,0:0|0:0,0:0:0:0:
259,153,252132,6,0,P|217:47|326:82,1,285.99998690796,14|0,0:3|0:0,0:0:0:0:
288,243,252465,5,8,0:0:0:0:
251,260,252548,1,8,0:0:0:0:
199,250,252631,1,8,0:0:0:0:
157,192,252715,1,8,0:0:0:0:
104,123,252798,1,8,0:0:0:0:
10,162,252882,6,0,P|-17:234|33:286,1,161.333338256836,14|0,0:3|0:0,0:0:0:0:
192,58,253132,2,0,P|113:37|36:17,1,161.333338256836,8|0,0:0|0:0,0:0:0:0:
78,213,253382,2,0,P|157:192|234:172,1,161.333338256836,10|0,0:3|0:0,0:0:0:0:
172,345,253632,2,0,B|132:360|90:323|117:308|76:271|36:288,1,161.333338256836,8|0,0:0|0:0,0:0:0:0:
288,243,253882,6,0,P|323:301|255:311,1,161.333338256836,10|0,0:3|0:0,0:0:0:0:
78,213,254132,2,0,P|42:154|110:144,1,161.333338256836,8|0,0:0|0:0,0:0:0:0:
172,345,254382,2,0,B|151:385|107:380|107:380|74:349|96:305,1,161.333338256836,10|0,0:3|0:0,0:0:0:0:
195,111,254632,2,0,B|216:71|260:75|260:75|292:107|271:151,1,161.333338256836,8|0,0:0|0:0,0:0:0:0:
37,41,254882,6,0,P|116:20|193:0,1,161.333338256836,10|0,0:3|0:0,0:0:0:0:
428,109,255132,2,0,P|349:130|272:150,1,161.333338256836,8|2,0:0|0:0,0:0:0:0:
37,41,255382,1,8,0:3:0:0:
96,306,255632,6,0,B|61:315|61:315|-12:254|-12:254|104:223|104:223|158:249|158:249|246:227,1,403.33334564209,14|0,0:0|0:0,0:0:0:0:
333,336,256131,2,0,P|353:257|374:179,1,161.333338256836,10|0,0:0|0:0,0:0:0:0:
247,227,256381,2,0,P|226:306|206:383,1,161.333338256836,8|0,0:3|0:0,0:0:0:0:
333,336,256631,1,10,0:0:0:0:
177,174,256797,1,2,0:0:0:0:
237,111,256881,6,0,B|208:74|208:74|97:104,1,161.333338256836,10|2,0:3|0:0,0:0:0:0:
247,227,257131,2,0,B|357:197|357:197|386:233,1,161.333338256836,8|2,0:0|0:0,0:0:0:0:
177,174,257381,1,8,0:3:0:0:
422,0,257631,1,10,0:0:0:0:
467,173,257797,1,2,0:0:0:0:
387,130,257881,6,0,P|440:74|513:96,1,161.333338256836,10|2,0:3|0:0,0:0:0:0:
320,59,258131,1,10,0:0:0:0:
346,296,258381,2,0,P|293:240|220:261,1,161.333338256836,10|2,0:3|0:0,0:0:0:0:
266,339,258631,1,10,0:0:0:0:
467,172,258881,6,0,B|494:197|478:233|478:233|478:246|478:246|470:235|470:235|433:217|438:181,1,161.333338256836,10|0,0:3|0:0,0:0:0:0:
426,69,259131,2,0,B|426:32|463:20|463:20|473:12|473:12|470:25|470:25|482:64|452:86,1,161.333338256836,10|0,0:0|0:0,0:0:0:0:
348,153,259381,2,0,B|314:164|291:132|291:132|280:125|280:125|293:123|293:123|327:100|357:123,1,161.333338256836,10|0,0:3|0:0,0:0:0:0:
266,339,259631,6,0,B|210:372|145:312|193:285|130:221|72:247,1,242.000007385254,10|0,0:3|0:0,0:0:0:0:
413,273,260131,6,0,P|449:363|355:339,1,242.000007385254,14|8,0:0|0:3,0:0:0:0:
268,181,260465,1,8,0:3:0:0:
256,220,260547,1,8,0:0:0:0:
246,256,260631,1,8,0:0:0:0:
66,373,260798,1,8,0:0:0:0:
19,295,260882,6,0,P|92:273|145:329,1,161.333338256836,14|0,0:3|0:0,0:0:0:0:
395,215,261131,2,0,P|321:236|268:180,1,161.333338256836,8|0,0:0|0:0,0:0:0:0:
151,46,261381,2,0,P|130:125|110:202,1,161.333338256836,10|0,0:3|0:0,0:0:0:0:
343,156,261631,2,0,P|364:77|384:0,1,161.333338256836,8|0,0:0|0:0,0:0:0:0:
198,149,261881,6,0,B|162:170|119:136|144:111|98:80|60:105,1,161.333338256836,10|0,0:3|0:0,0:0:0:0:
296,53,262131,2,0,B|331:31|374:65|349:90|395:121|433:96,1,161.333338256836,8|0,0:0|0:0,0:0:0:0:
239,305,262382,2,0,P|218:226|198:149,1,161.333338256836,10|0,0:3|0:0,0:0:0:0:
446,228,262632,2,0,P|425:307|405:384,1,161.333338256836,8|0,0:0|0:0,0:0:0:0:
239,305,262881,5,2,1:2:0:0:
446,228,263131,1,10,0:0:0:0:
345,112,263381,1,10,0:3:0:0:
124,335,263632,6,0,B|107:282|146:250|146:250|420:319|420:319|464:279|446:229,1,476.666644846599,14|0,0:3|0:0,0:0:0:0:
345,112,264132,2,0,P|267:132|188:153,1,161.333338256836,8|0,0:0|0:0,0:0:0:0:
125,80,264382,1,8,0:3:0:0:
417,10,264547,1,8,0:0:0:0:
485,72,264631,2,0,P|468:148|447:228,1,161.333338256836,10|2,0:3|0:0,0:0:0:0:
323,295,264882,6,0,B|339:252|305:215|292:238|253:202|271:157,1,161.333338256836,14|0,0:3|0:0,0:0:0:0:
474,338,265132,2,0,B|449:303|402:314|402:314|393:357|352:371,1,161.333338256836,8|0,0:0|0:0,0:0:0:0:
120,321,265382,2,0,B|145:356|192:345|192:345|201:302|242:288,1,161.333338256836,10|0,0:3|0:0,0:0:0:0:
394,124,265632,2,0,B|369:89|322:100|322:100|313:143|272:157,1,161.333338256836,8|0,0:0|0:0,0:0:0:0:
53,70,265882,6,0,B|14:177|14:177|40:216,1,161.333338256836,10|0,0:3|0:0,0:0:0:0:
191,146,266132,2,0,B|217:107|217:107|178:0,1,161.333338256836,8|2,0:0|0:0,0:0:0:0:
128,251,266381,5,10,0:3:0:0:
153,272,266464,1,8,0:3:0:0:
199,276,266547,1,8,0:3:0:0:
248,239,266631,1,10,0:0:0:0:
309,195,266714,1,8,0:0:0:0:
389,219,266797,1,8,0:0:0:0:
431,312,266882,5,14,0:3:0:0:
431,312,266965,2,0,P|438:343|424:371,1,65.9999979858399,10|10,0:3|0:3,0:0:0:0:
316,357,267132,1,10,0:3:0:0:
316,357,267215,2,0,P|308:325|323:296,1,65.9999979858399,10|10,0:3|0:3,0:0:0:0:
389,219,267382,5,10,0:0:0:0:
389,183,267465,1,10,0:0:0:0:
363,138,267548,1,10,0:0:0:0:
294,114,267632,1,10,0:0:0:0:
219,161,267715,1,10,0:3:0:0:
222,255,267798,1,10,0:3:0:0:
322,297,267882,5,8,0:3:0:0:
118,116,268132,6,0,B|161:205|79:278|48:220|-49:298|-8:430|110:431|147:359|138:313,1,440,14|0,0:3|0:0,0:0:0:0:
222,255,268882,5,6,0:0:0:0:
9,150,269132,1,2,0:0:0:0:
115,204,269382,5,2,0:0:0:0:
328,99,269632,1,2,0:0:0:0:
222,153,269882,5,2,0:0:0:0:
9,48,270132,1,2,0:0:0:0:
115,102,270382,5,2,0:0:0:0:
328,0,270632,1,2,0:0:0:0:
222,153,270882,5,2,0:0:0:0:
9,48,271132,1,2,0:0:0:0:
115,204,271382,5,2,0:0:0:0:
328,99,271632,1,2,0:0:0:0:
222,255,271882,5,2,0:0:0:0:
9,150,272132,1,2,0:0:0:0:
115,306,272382,5,2,0:0:0:0:
328,201,272632,1,2,0:0:0:0:
328,0,272882,5,6,0:0:0:0:
115,102,273132,1,2,0:0:0:0:
328,0,273382,5,2,0:0:0:0:
155,186,273632,1,2,0:0:0:0:
328,0,273882,5,2,0:0:0:0:
239,225,274132,1,2,0:0:0:0:
328,0,274382,5,2,0:0:0:0:
328,201,274632,1,2,0:0:0:0:
328,0,274882,5,2,0:0:0:0:
115,102,275132,1,2,0:0:0:0:
166,169,275382,5,2,0:0:0:0:
347,81,275632,1,2,0:0:0:0:
365,167,275882,5,2,0:0:0:0:
220,238,276132,1,2,0:0:0:0:
320,259,276382,5,2,0:0:0:0:
201,0,276632,5,2,0:0:0:0:
