osu file format v14

[General]
AudioFilename: audio.mp3
AudioLeadIn: 0
PreviewTime: 68306
Countdown: 0
SampleSet: Soft
StackLeniency: 0.4
Mode: 0
LetterboxInBreaks: 0
WidescreenStoryboard: 0

[Editor]
Bookmarks: 1593,15019,28446,41872,55299,68725,82152,95579,109005,122432,135858,149285,162711,176138,179495,196278,213061,228166,241593,255019,268446,281872
DistanceSpacing: 1
BeatDivisor: 4
GridSize: 4
TimelineZoom: 1.3

[Metadata]
Title:Hop Step Waai!
TitleUnicode:ホップ・ステップ・ワーイ!
Artist:Aqours
ArtistUnicode:Aqours
Creator:Sure
Version:Insaane!
Source:ラブライブ!サンシャイン!!
Tags:ykcarrot Doyak Lovelive! Sunshine!! School idol project Love Live! anime japanese pop j-pop jpop アクア Inami Anju 伊波杏樹 Aida Rikako 逢田梨香子 Suwa Nanaka 諏訪ななか Komiya Arisa 小宮有紗 Saito Shuka 斉藤朱夏 Kobayashi Aika 小林愛香 Takatsuki Kanako 高槻かなこ Suzuki Aina 鈴木愛奈 Furihata Ai 降幡 愛 Takami Chika 高海千歌 Sakurauchi Riko 桜内梨子 Matsuura Kanan 松浦果南 Kurosawa Dia 黒澤ダイヤ Watanabe You 渡辺 曜 Tsushima Yoshiko 津島善子 Kunikida Hanamaru 国木田花丸 Ohara Mari 小原鞠莉 Kurosawa Ruby 黒澤ルビ Hop! Step! Jump! Project! Yippee!
BeatmapID:3452661
BeatmapSetID:1689532

[Difficulty]
HPDrainRate:5.8
CircleSize:4.5
OverallDifficulty:8
ApproachRate:8.5
SliderMultiplier:2.4
SliderTickRate:2

[Events]
//Background and Video events
0,0,"waai BG.jpg",0,0
//Break Periods
2,213261,219099
//Storyboard Layer 0 (Background)
//Storyboard Layer 1 (Fail)
//Storyboard Layer 2 (Pass)
//Storyboard Layer 3 (Foreground)
//Storyboard Layer 4 (Overlay)
//Storyboard Sound Samples

[TimingPoints]
1593,419.58041958042,4,2,11,60,1,0
1593,-125,4,2,11,60,0,0
2012,-125,4,2,13,60,0,0
2432,-125,4,2,12,60,0,0
2641,-125,4,2,13,60,0,0
3061,-125,4,2,11,60,0,0
3690,-125,4,2,13,60,0,0
4110,-125,4,2,12,60,0,0
4320,-125,4,2,13,60,0,0
4530,-125,4,2,14,60,0,0
4949,-125,4,2,11,60,0,0
5369,-125,4,2,13,60,0,0
5788,-125,4,2,12,60,0,0
5998,-125,4,2,13,60,0,0
6418,-125,4,2,11,60,0,0
7047,-125,4,2,13,60,0,0
7467,-125,4,2,15,60,0,0
7676,-125,4,2,16,60,0,0
7886,-125,4,2,15,60,0,0
8306,-100,4,2,11,60,0,0
8725,-100,4,2,13,60,0,0
9145,-100,4,2,12,60,0,0
9355,-100,4,2,13,60,0,0
9774,-100,4,2,11,60,0,0
10404,-100,4,2,13,60,0,0
10823,-100,4,2,12,60,0,0
11033,-100,4,2,13,60,0,0
11243,-100,4,2,14,60,0,0
11662,-100,4,2,11,60,0,0
12082,-100,4,2,13,60,0,0
12502,-100,4,2,12,60,0,0
12711,-100,4,2,13,60,0,0
13131,-100,4,2,11,60,0,0
15019,-100,4,2,1,70,0,0
26138,-100,4,2,1,60,0,0
26558,-100,4,2,1,70,0,0
26977,-100,4,2,1,60,0,0
27187,-100,4,2,1,70,0,0
27397,-100,4,2,1,60,0,0
27606,-100,4,2,1,70,0,0
27711,-100,4,2,1,65,0,0
27816,-100,4,2,1,60,0,0
28026,-100,4,2,1,70,0,0
28131,-100,4,2,1,65,0,0
28236,-100,4,2,1,60,0,0
28446,-100,4,2,1,70,0,0
54040,-100,4,2,1,60,0,0
54460,-100,4,2,1,70,0,0
55299,-125,4,2,11,60,0,0
55718,-125,4,2,13,60,0,0
56138,-125,4,2,12,60,0,0
56348,-125,4,2,13,60,0,0
56767,-125,4,2,11,60,0,0
57397,-125,4,2,13,60,0,0
57816,-125,4,2,12,60,0,0
58026,-125,4,2,13,60,0,0
58236,-125,4,2,14,60,0,0
58655,-125,4,2,11,60,0,0
59075,-125,4,2,13,60,0,0
59495,-125,4,2,12,60,0,0
59704,-125,4,2,13,60,0,0
60124,-125,4,2,11,60,0,0
60753,-125,4,2,13,60,0,0
61173,-125,4,2,15,60,0,0
61383,-125,4,2,16,60,0,0
61593,-125,4,2,15,60,0,0
62012,-100,4,2,11,60,0,0
62432,-100,4,2,13,60,0,0
62851,-100,4,2,12,60,0,0
63061,-100,4,2,13,60,0,0
63481,-100,4,2,11,60,0,0
64110,-100,4,2,13,60,0,0
64530,-100,4,2,12,60,0,0
64739,-100,4,2,13,60,0,0
64949,-100,4,2,14,60,0,0
65369,-100,4,2,19,60,0,0
65788,-100,4,2,18,60,0,0
66208,-100,4,2,17,60,0,0
66418,-100,4,2,18,60,0,0
66837,-200,4,2,1,60,0,0
67886,-200,4,2,1,30,0,0
68096,-133.333333333333,4,2,1,60,0,0
68516,-133.333333333333,4,2,1,5,0,0
68725,-83.3333333333333,4,2,1,70,0,1
80683,-83.3333333333333,4,2,1,60,0,1
80893,-83.3333333333333,4,2,1,70,0,1
81103,-83.3333333333333,4,2,1,60,0,1
82152,-83.3333333333333,4,2,1,70,0,1
95579,-100,4,2,1,70,0,0
106697,-100,4,2,1,60,0,0
107117,-100,4,2,1,70,0,0
107537,-100,4,2,1,60,0,0
107746,-100,4,2,1,70,0,0
107956,-100,4,2,1,60,0,0
108166,-100,4,2,1,70,0,0
108271,-100,4,2,1,65,0,0
108376,-100,4,2,1,60,0,0
108586,-100,4,2,1,70,0,0
108690,-100,4,2,1,65,0,0
108795,-100,4,2,1,60,0,0
109005,-100,4,2,1,70,0,0
134599,-100,4,2,1,60,0,0
135019,-100,4,2,1,70,0,0
135858,-125,4,2,11,60,0,0
136278,-125,4,2,13,60,0,0
136697,-125,4,2,12,60,0,0
136907,-125,4,2,13,60,0,0
137327,-125,4,2,11,60,0,0
137956,-125,4,2,13,60,0,0
138376,-125,4,2,12,60,0,0
138586,-125,4,2,13,60,0,0
138795,-125,4,2,14,60,0,0
139215,-125,4,2,11,60,0,0
139634,-125,4,2,13,60,0,0
140054,-125,4,2,12,60,0,0
140264,-125,4,2,13,60,0,0
140683,-125,4,2,11,60,0,0
141313,-125,4,2,13,60,0,0
141732,-125,4,2,15,60,0,0
141942,-125,4,2,16,60,0,0
142152,-125,4,2,15,60,0,0
142572,-100,4,2,11,60,0,0
142991,-100,4,2,13,60,0,0
143411,-100,4,2,12,60,0,0
143620,-100,4,2,13,60,0,0
144040,-100,4,2,11,60,0,0
144669,-100,4,2,13,60,0,0
145089,-100,4,2,12,60,0,0
145299,-100,4,2,13,60,0,0
145509,-100,4,2,14,60,0,0
145928,-100,4,2,19,60,0,0
146348,-100,4,2,18,60,0,0
146767,-100,4,2,17,60,0,0
146977,-100,4,2,18,60,0,0
147397,-200,4,2,1,60,0,0
148446,-200,4,2,1,30,0,0
148655,-133.333333333333,4,2,1,60,0,0
149075,-133.333333333333,4,2,1,5,0,0
149285,-83.3333333333333,4,2,1,70,0,1
161243,-83.3333333333333,4,2,1,60,0,1
161453,-83.3333333333333,4,2,1,70,0,1
161662,-83.3333333333333,4,2,1,60,0,1
162711,-83.3333333333333,4,2,1,70,0,1
176138,-100,4,2,1,70,0,0
176348,-100,4,2,1,60,0,0
176558,-100,4,2,1,70,0,0
176767,-100,4,2,1,60,0,0
177816,-200,4,2,1,70,0,0
178865,-100,4,2,1,70,0,0
182012,-100,4,2,1,50,0,0
182432,-100,4,2,1,70,0,0
183271,-66.6666666666667,4,2,1,70,0,0
184320,-100,4,2,1,70,0,0
185369,-100,4,2,1,50,0,0
185788,-100,4,2,1,70,0,0
188725,-100,4,2,1,50,0,0
189145,-100,4,2,1,70,0,0
196068,-100,4,2,1,5,0,0
196278,-100,4,2,1,70,0,0
199530,-100,4,2,1,5,0,0
199634,-100,4,2,1,70,0,0
202886,-100,4,2,1,5,0,0
202991,-100,4,2,1,70,0,0
208655,-100,4,2,1,50,0,0
209704,-178.571428571429,4,2,1,60,0,0
213061,419.58041958042,4,2,1,60,1,0
219774,-100,4,2,1,60,0,0
223130,-100,4,2,1,70,0,0
223340,-100,4,2,1,50,0,0
223550,-100,4,2,1,70,0,0
223760,-100,4,2,1,50,0,0
223970,-100,4,2,1,60,0,0
224599,-200,4,2,1,60,0,0
227326,-200,4,2,1,30,0,0
227536,-133.333333333333,4,2,1,60,0,0
227956,-133.333333333333,4,2,1,5,0,0
228165,419.58041958042,4,2,1,70,1,1
228165,-83.3333333333333,4,2,1,70,0,1
240123,-83.3333333333333,4,2,1,60,0,1
240332,-83.3333333333333,4,2,1,70,0,1
240542,-83.3333333333333,4,2,1,60,0,1
241591,-83.3333333333333,4,2,1,70,0,1
255018,-100,4,2,1,70,0,0
272850,-100,4,2,1,60,0,0
273269,-100,4,2,1,70,0,0
273689,-100,4,2,1,60,0,0
273899,-100,4,2,1,70,0,0
274109,-100,4,2,1,60,0,0
274318,-100,4,2,1,70,0,0
274423,-100,4,2,1,65,0,0
274528,-100,4,2,1,60,0,0
274738,-100,4,2,1,70,0,0
274843,-100,4,2,1,65,0,0
274948,-100,4,2,1,60,0,0
275158,-100,4,2,1,70,0,0
275262,-100,4,2,1,50,0,0
281661,-100,4,2,1,40,0,0

[Colours]
Combo1 : 0,242,242
Combo2 : 255,128,128
Combo3 : 0,255,128
Combo4 : 159,159,255

[HitObjects]
256,312,1593,5,6,0:0:0:0:
376,160,2012,1,2,0:0:0:0:
256,312,2432,1,2,0:0:0:0:
376,160,2641,1,2,0:0:0:0:
256,312,3061,1,2,0:0:0:0:
376,160,3690,1,2,0:0:0:0:
256,312,4110,1,2,0:0:0:0:
316,236,4320,1,2,0:0:0:0:
376,160,4530,1,2,0:0:0:0:
256,312,4949,5,2,0:0:0:0:
136,160,5369,1,2,0:0:0:0:
256,312,5788,1,2,0:0:0:0:
136,160,5998,1,2,0:0:0:0:
256,312,6418,1,2,0:0:0:0:
136,160,7047,1,2,0:0:0:0:
256,312,7467,1,2,0:0:0:0:
136,160,7676,1,2,0:0:0:0:
256,312,7886,1,2,0:0:0:0:
256,312,8306,6,0,P|312:332|368:312,1,120,6|0,0:0|0:0,0:0:0:0:
424,208,8725,2,0,P|368:188|312:208,1,120,10|0,0:0|0:0,0:0:0:0:
256,312,9145,1,2,0:0:0:0:
136,312,9355,2,0,P|116:256|136:200,1,120,2|8,0:0|0:0,0:0:0:0:
236,136,9774,2,0,P|136:80|36:136,1,240,2|0,0:0|0:0,0:0:0:0:
36,256,10404,2,0,P|136:312|236:256,1,240,10|2,0:0|0:0,0:0:0:0:
236,136,11033,1,10,0:0:0:0:
236,16,11243,1,10,0:0:0:0:
236,16,11662,6,0,P|292:-4|348:16,1,120,2|0,0:0|0:0,0:0:0:0:
404,120,12082,2,0,P|348:140|292:120,1,120,10|0,0:0|0:0,0:0:0:0:
236,16,12502,2,0,L|176:16,5,60,2|0|2|0|8|0,0:0|0:0|0:0|0:0|0:0|0:0,0:0:0:0:
100,16,13131,2,0,P|44:116|100:216,1,240,2|2,1:2|1:2,0:0:0:0:
268,156,13760,1,2,1:2:0:0:
236,332,13970,1,2,1:2:0:0:
101,216,14180,1,2,1:2:0:0:
64,184,14285,1,0,1:0:0:0:
47,139,14390,1,0,1:0:0:0:
47,90,14495,1,0,1:0:0:0:
70,47,14599,1,0,1:0:0:0:
108,17,14704,1,0,1:0:0:0:
155,5,14809,1,0,1:0:0:0:
203,14,14914,1,0,1:0:0:0:
240,44,15019,6,0,P|273:66|351:63,1,120,4|0,0:0|0:0,0:0:0:0:
392,176,15439,2,0,P|357:193|321:261,1,120,8|0,0:0|0:0,0:0:0:0:
202,240,15858,2,0,P|205:200|164:134,1,120,0|0,1:0|0:0,0:0:0:0:
84,224,16278,1,8,0:0:0:0:
128,336,16488,2,0,L|364:376,1,240,2|0,0:0|0:0,0:0:0:0:
388,256,17117,2,0,L|408:136,1,120,8|0,0:0|0:0,0:0:0:0:
291,116,17537,2,0,L|271:236,1,120,0|0,1:0|0:0,0:0:0:0:
151,216,17956,2,0,L|171:96,1,120,8|0,0:0|0:0,0:0:0:0:
276,36,18376,6,0,P|316:40|373:91,1,120,2|0,1:0|0:0,0:0:0:0:
372,212,18795,2,0,P|349:243|276:268,1,120,8|0,0:0|0:0,0:0:0:0:
171,209,19215,2,0,P|156:173|171:97,1,120,0|0,1:0|0:0,0:0:0:0:
272,152,19634,1,8,0:0:0:0:
372,212,19844,2,0,P|372:96|276:36,1,240,2|0,0:0|0:0,0:0:0:0:
172,96,20474,1,8,0:0:0:0:
104,192,20683,2,0,P|60:228|0:228,1,120,2|0,0:0|1:0,0:0:0:0:
20,108,21103,2,0,L|-16:72,2,40,2|0|0,0:0|0:0|0:0,0:0:0:0:
20,108,21313,2,0,L|140:108,1,120,10|0,1:0|1:0,0:0:0:0:
260,108,21732,6,0,B|260:168|260:168|301:212,1,120,4|0,1:0|0:0,0:0:0:0:
419,231,22152,2,0,B|472:201|472:201|490:143,1,120,8|0,0:0|0:0,0:0:0:0:
446,32,22572,2,0,B|395:1|395:1|336:14,1,120,0|0,1:0|0:0,0:0:0:0:
260,108,22991,1,8,0:0:0:0:
208,216,23201,2,0,L|0:336,1,240,2|0,0:0|0:0,0:0:0:0:
0,216,23830,2,0,L|104:156,1,120,8|0,0:0|0:0,0:0:0:0:
208,216,24250,2,0,L|268:320,1,120,0|0,1:0|0:0,0:0:0:0:
388,320,24669,2,0,L|492:260,1,120,10|0,0:0|0:0,0:0:0:0:
492,108,25089,6,0,P|416:20|300:20,1,240,6|10,1:0|0:0,0:0:0:0:
216,144,25718,2,0,P|172:180|112:180,1,120,2|0,0:0|1:0,0:0:0:0:
0,80,26138,1,0,1:0:0:0:
0,80,26243,1,0,1:0:0:0:
0,80,26348,1,0,1:0:0:0:
0,232,26558,2,0,P|76:320|192:320,1,240,4|2,1:0|1:0,0:0:0:0:
312,228,27187,1,2,1:0:0:0:
172,172,27397,1,2,1:0:0:0:
193,319,27606,1,2,1:0:0:0:
193,319,27711,1,0,1:0:0:0:
193,319,27816,1,2,1:0:0:0:
312,228,28026,1,2,1:0:0:0:
312,228,28131,1,0,1:0:0:0:
312,228,28236,1,0,1:0:0:0:
432,136,28446,6,0,P|332:76|220:108,1,240,4|8,1:0|0:0,0:0:0:0:
128,188,29075,1,0,0:0:0:0:
164,303,29285,2,0,P|244:220|220:108,1,240,0|8,1:0|0:0,0:0:0:0:
128,188,29914,1,0,0:0:0:0:
20,133,30124,2,0,P|113:65|220:107,1,240,2|8,1:0|0:0,0:0:0:0:
327,161,30753,2,0,P|234:229|127:187,1,240,2|0,0:0|0:0,0:0:0:0:
220,106,31383,2,0,P|173:71|111:64,1,120,8|0,0:0|2:0,0:0:0:0:
16,136,31802,6,0,P|28:252|128:308,1,240,2|8,1:0|0:0,0:0:0:0:
236,260,32432,2,0,P|276:216|332:197,1,120,2|0,0:0|1:0,0:0:0:0:
452,196,32851,1,0,0:0:0:0:
392,300,33061,1,8,0:0:0:0:
332,196,33271,1,0,0:0:0:0:
272,92,33481,2,0,L|156:124,1,120,2|0,1:0|0:0,0:0:0:0:
124,240,33900,2,0,L|240:208,1,120,8|2,0:0|0:0,0:0:0:0:
272,92,34320,1,0,1:0:0:0:
272,92,34425,1,0,1:0:0:0:
168,36,34634,1,0,1:0:0:0:
168,36,34739,1,8,1:0:0:0:
76,116,34949,1,0,1:0:0:0:
105,294,35159,6,0,P|210:342|304:280,1,240,4|8,1:0|0:0,0:0:0:0:
372,180,35788,1,0,0:0:0:0:
306,81,35998,2,0,P|248:179|305:279,1,240,0|8,1:0|0:0,0:0:0:0:
372,180,36627,1,0,0:0:0:0:
489,199,36837,2,0,P|420:290|305:279,1,240,2|8,1:0|0:0,0:0:0:0:
187,259,37467,2,0,P|256:168|371:179,1,240,2|0,0:0|0:0,0:0:0:0:
304,280,38096,2,0,P|360:300|424:288,1,120,8|0,0:0|2:0,0:0:0:0:
512,136,38516,6,0,P|432:56|312:68,1,240,4|8,1:0|0:0,0:0:0:0:
216,140,39145,2,0,P|180:192|128:208,1,120,2|0,0:0|1:0,0:0:0:0:
8,208,39565,2,0,L|36:260,1,60,0|0,1:0|1:0,0:0:0:0:
120,348,39774,2,0,L|184:348,1,60,8|0,1:0|1:0,0:0:0:0:
264,260,39984,2,0,L|292:208,1,60,0|0,1:0|1:0,0:0:0:0:
340,96,40194,5,6,1:0:0:0:
348,80,40509,1,2,1:0:0:0:
356,64,40823,2,0,L|236:64,1,120,2|0,1:0|1:0,0:0:0:0:
216,64,41138,1,0,1:0:0:0:
196,64,41243,1,2,1:0:0:0:
16,64,41453,1,2,1:0:0:0:
16,112,41558,1,0,1:0:0:0:
44,152,41662,1,0,1:0:0:0:
88,172,41767,1,0,1:0:0:0:
136,172,41872,6,0,P|172:156|248:172,1,120,4|0,1:0|0:0,0:0:0:0:
456,244,42292,2,0,P|420:260|344:244,1,120,8|0,0:0|0:0,0:0:0:0:
248,172,42711,1,0,1:0:0:0:
344,243,42921,2,0,P|360:279|344:355,1,120,0|8,0:0|0:0,0:0:0:0:
248,172,43341,2,0,P|232:136|248:60,2,120,0|2|0,0:0|1:0|0:0,0:0:0:0:
344,244,43970,1,8,0:0:0:0:
248,172,44180,2,0,P|212:156|136:172,1,120,2|0,0:0|1:0,0:0:0:0:
344,244,44599,2,0,P|380:260|456:244,1,120,0|8,0:0|0:0,0:0:0:0:
400,136,45019,1,0,0:0:0:0:
344,28,45229,6,0,P|380:12|456:28,1,120,2|0,1:0|0:0,0:0:0:0:
400,136,45648,1,8,0:0:0:0:
280,136,45858,2,0,L|160:136,1,120,2|0,0:0|1:0,0:0:0:0:
40,136,46278,2,0,P|24:172|40:248,1,120,0|8,0:0|0:0,0:0:0:0:
160,248,46697,2,0,P|176:212|160:136,1,120,0|0,0:0|1:0,0:0:0:0:
100,32,47117,1,2,0:0:0:0:
40,136,47327,1,10,0:0:0:0:
100,240,47537,1,2,1:0:0:0:
148,248,47641,1,0,1:0:0:0:
196,256,47746,1,0,1:0:0:0:
244,264,47851,1,0,1:0:0:0:
292,272,47956,1,0,1:0:0:0:
340,280,48061,1,0,1:0:0:0:
388,288,48166,1,8,1:2:0:0:
480,212,48376,1,0,1:0:0:0:
356,80,48586,6,0,P|256:24|156:80,1,240,4|8,1:0|0:0,0:0:0:0:
156,216,49215,2,0,P|256:272|356:216,1,240,2|0,0:0|0:0,0:0:0:0:
256,148,49844,1,8,0:0:0:0:
156,80,50054,2,0,P|256:24|356:80,1,240,2|0,0:0|0:0,0:0:0:0:
256,148,50683,1,8,0:0:0:0:
124,176,50893,2,0,P|150:229|196:267,1,120,2|0,0:0|1:0,0:0:0:0:
316,267,51313,2,0,P|360:231|388:175,2,120,2|8|2,0:0|0:0|0:0,0:0:0:0:
196,267,51942,6,0,P|228:15|316:267,1,720,4|8,1:0|0:0,0:0:0:0:
256,147,53411,1,0,0:0:0:0:
196,268,53620,2,0,P|180:304|196:380,1,120,4|0,1:0|0:0,0:0:0:0:
316,380,54040,1,0,1:0:0:0:
352,348,54145,1,0,1:0:0:0:
388,316,54250,1,0,1:0:0:0:
424,284,54355,1,0,1:0:0:0:
460,252,54460,1,0,1:0:0:0:
460,72,54669,1,0,1:0:0:0:
304,160,54879,1,0,1:0:0:0:
460,252,55089,1,0,1:0:0:0:
304,340,55299,5,6,0:0:0:0:
176,196,55718,1,2,0:0:0:0:
304,340,56138,1,2,0:0:0:0:
176,196,56348,1,2,0:0:0:0:
304,340,56767,1,2,0:0:0:0:
176,196,57397,1,2,0:0:0:0:
304,340,57816,1,2,0:0:0:0:
240,268,58026,1,2,0:0:0:0:
176,196,58236,1,2,0:0:0:0:
48,340,58655,5,2,0:0:0:0:
176,196,59075,1,2,0:0:0:0:
48,340,59495,1,2,0:0:0:0:
176,196,59704,1,2,0:0:0:0:
48,340,60124,1,2,0:0:0:0:
176,196,60753,1,2,0:0:0:0:
48,340,61173,1,2,0:0:0:0:
176,196,61383,1,2,0:0:0:0:
48,340,61593,2,0,L|112:268,1,96,2|0,1:2|0:0,0:0:0:0:
176,196,62012,6,0,P|160:160|176:84,1,120,6|0,1:2|0:0,0:0:0:0:
280,24,62432,2,0,P|296:60|280:136,1,120,2|0,1:2|0:0,0:0:0:0:
176,196,62851,1,2,1:2:0:0:
176,316,63061,2,0,P|212:300|288:316,1,120,2|0,0:0|1:2,0:0:0:0:
408,316,63481,2,0,P|464:216|408:116,1,240,2|0,0:0|0:0,0:0:0:0:
288,116,64110,2,0,P|232:216|288:316,1,240,2|2,1:2|1:2,0:0:0:0:
408,316,64739,1,2,0:0:0:0:
408,196,64949,2,0,L|408:56,1,120,2|0,1:2|0:0,0:0:0:0:
316,0,65369,5,6,1:2:0:0:
160,112,65579,1,0,1:0:0:0:
352,112,65788,1,2,1:2:0:0:
196,0,65998,1,0,1:0:0:0:
256,184,66208,1,2,1:2:0:0:
268,212,66313,1,0,1:0:0:0:
280,240,66418,1,2,1:2:0:0:
292,268,66523,1,0,1:0:0:0:
304,296,66627,1,0,1:0:0:0:
316,324,66732,1,0,1:0:0:0:
328,352,66837,2,0,P|464:352|492:212,1,300,4|0,1:0|0:0,0:0:0:0:
440,104,68096,5,0,1:0:0:0:
436,104,68166,1,0,1:0:0:0:
432,104,68236,1,0,1:0:0:0:
428,104,68306,2,0,L|292:104,1,135.000005149841,0|0,1:0|0:0,0:0:0:0:
220,104,68725,6,0,P|96:104|132:224,1,287.999991210938,6|8,1:0|0:0,0:0:0:0:
216,340,69355,2,0,B|248:296|304:296|336:340|336:340|424:224,1,287.999991210938,2|0,0:0|0:0,0:0:0:0:
508,104,69984,2,0,L|360:104,1,143.999995605469,8|0,0:0|0:0,0:0:0:0:
220,104,70404,2,0,P|96:104|132:224,1,287.999991210938,2|8,1:0|0:0,0:0:0:0:
216,340,71033,2,0,B|248:296|304:296|336:340|336:340|424:224,1,287.999991210938
508,104,71662,1,8,0:0:0:0:
388,24,71872,1,0,0:0:0:0:
304,140,72082,6,0,P|236:160|168:140,1,143.999995605469,2|0,1:0|0:0,0:0:0:0:
64,40,72502,1,8,0:0:0:0:
168,140,72711,2,0,P|188:208|168:276,1,143.999995605469,0|2,0:0|1:0,0:0:0:0:
40,344,73131,2,0,P|20:276|40:208,1,143.999995605469,0|8,0:0|0:0,0:0:0:0:
168,140,73551,2,0,P|236:160|304:140,1,143.999995605469,2|0,0:0|1:0,0:0:0:0:
424,56,73970,1,2,0:0:0:0:
472,192,74180,1,10,0:0:0:0:
396,312,74390,1,2,0:0:0:0:
256,276,74599,1,0,1:0:0:0:
256,276,74704,1,0,1:0:0:0:
116,312,74914,1,0,1:0:0:0:
116,312,75019,1,8,1:0:0:0:
40,192,75229,1,0,1:0:0:0:
116,72,75439,6,0,P|184:192|116:312,1,287.999991210938,6|10,1:0|0:0,0:0:0:0:
40,192,76068,2,0,L|332:192,1,287.999991210938,2|0,0:0|0:0,0:0:0:0:
472,192,76697,1,10,0:0:0:0:
396,312,76907,2,0,P|328:192|396:72,1,287.999991210938,2|0,0:0|0:0,0:0:0:0:
472,192,77537,1,10,0:0:0:0:
328,192,77746,2,0,L|36:192,1,287.999991210938,2|0,0:0|0:0,0:0:0:0:
116,72,78376,2,0,P|188:88|256:72,1,143.999995605469,10|0,0:0|0:0,0:0:0:0:
400,72,78795,6,0,P|468:192|400:312,1,287.999991210938,6|8,1:0|0:0,0:0:0:0:
256,312,79425,1,2,0:0:0:0:
112,312,79634,2,0,P|44:192|112:72,1,287.999991210938,2|8,1:0|0:0,0:0:0:0:
512,236,80264,6,0,B|519:280|509:307|509:307|480:308|440:288|440:288|448:331|438:358|438:358|409:360|368:340,1,287.999991210938,6|0,1:0|1:0,0:0:0:0:
208,192,80893,1,0,1:0:0:0:
416,132,81103,1,0,1:0:0:0:
368,340,81313,1,0,1:0:0:0:
324,316,81418,1,0,1:0:0:0:
280,292,81523,1,0,1:0:0:0:
236,268,81627,1,0,1:0:0:0:
192,244,81732,1,0,1:0:0:0:
148,220,81837,1,0,1:0:0:0:
104,196,81942,1,0,1:0:0:0:
60,172,82047,1,0,1:0:0:0:
16,148,82152,6,0,P|60:16|148:76,1,287.999991210938,6|8,1:0|0:0,0:0:0:0:
148,220,82781,2,0,B|148:364|148:364|200:364|236:336|256:284,1,287.999991210938,2|0,0:0|0:0,0:0:0:0:
304,148,83411,2,0,L|160:148,1,143.999995605469,8|0,0:0|0:0,0:0:0:0:
16,148,83830,2,0,P|60:16|148:76,1,287.999991210938,2|8,1:0|0:0,0:0:0:0:
148,220,84460,2,0,B|148:364|148:364|200:364|236:336|256:284,1,287.999991210938
304,148,85089,1,8,0:0:0:0:
448,148,85299,1,0,0:0:0:0:
400,284,85509,6,0,P|352:332|280:332,1,143.999995605469,2|0,1:0|0:0,0:0:0:0:
148,272,85928,1,8,0:0:0:0:
40,176,86138,2,0,P|88:128|160:128,1,143.999995605469,2|0,0:0|1:0,0:0:0:0:
268,224,86558,2,0,P|220:272|148:272,1,143.999995605469,2|8,0:0|0:0,0:0:0:0:
300,84,86977,2,0,P|436:72|496:192,1,287.999991210938,2|0,0:0|0:0,0:0:0:0:
436,324,87606,1,10,0:0:0:0:
292,324,87816,1,2,0:0:0:0:
232,192,88026,1,0,1:0:0:0:
232,192,88131,1,0,1:0:0:0:
88,192,88341,1,0,1:0:0:0:
88,192,88446,1,8,1:0:0:0:
160,68,88655,1,0,1:0:0:0:
232,192,88865,5,6,1:0:0:0:
252,336,89075,2,0,L|406:335,1,143.999995605469,0|8,0:0|0:0,0:0:0:0:
376,192,89495,2,0,L|231:192,1,143.999995605469,2|0,0:0|1:0,0:0:0:0:
252,48,89914,2,0,L|396:48,1,143.999995605469,0|8,0:0|0:0,0:0:0:0:
376,192,90334,2,0,L|88:192,1,287.999991210938,2|0,0:0|0:0,0:0:0:0:
216,120,90963,1,8,0:0:0:0:
216,264,91173,1,2,0:0:0:0:
72,268,91383,2,0,P|8:192|72:116,1,215.999993408203,2|0,1:0|1:0,0:0:0:0:
72,116,91802,1,10,1:0:0:0:
256,4,92012,6,0,L|328:128,1,143.999995605469,2|4,1:0|1:0,0:0:0:0:
328,344,92432,1,2,0:0:0:0:
512,236,92641,1,10,0:0:0:0:
328,128,92851,1,0,0:0:0:0:
328,344,93061,2,0,L|408:296,1,71.9999978027344,0|0,1:0|1:0,0:0:0:0:
512,236,93271,2,0,L|432:188,1,71.9999978027344,0|0,1:0|1:0,0:0:0:0:
328,128,93481,2,0,L|328:216,1,71.9999978027344,0|0,1:0|1:0,0:0:0:0:
328,344,93690,6,0,P|472:352|512:236,1,287.999991210938,4|2,1:0|1:0,0:0:0:0:
328,128,94320,1,2,1:0:0:0:
328,344,94530,1,2,1:0:0:0:
512,236,94739,1,0,1:0:0:0:
468,212,94844,1,0,1:0:0:0:
424,188,94949,1,0,1:0:0:0:
380,164,95054,1,0,1:0:0:0:
336,140,95159,1,0,1:0:0:0:
292,116,95264,1,0,1:0:0:0:
248,92,95369,1,0,1:0:0:0:
204,68,95474,1,0,1:0:0:0:
160,44,95579,6,0,P|83:55|54:83,1,120,4|0,1:0|0:0,0:0:0:0:
33,201,95998,2,0,P|69:256|118:273,1,120,8|0,0:0|0:0,0:0:0:0:
232,232,96418,2,0,P|261:162|251:122,1,120,0|0,1:0|0:0,0:0:0:0:
144,160,96837,1,8,0:0:0:0:
232,232,97047,2,0,L|472:232,1,240,2|0,0:0|0:0,0:0:0:0:
412,336,97676,2,0,L|292:336,1,120,8|0,0:0|0:0,0:0:0:0:
232,232,98096,2,0,L|352:232,1,120,0|0,1:0|0:0,0:0:0:0:
412,128,98516,2,0,L|288:128,1,120,8|0,0:0|0:0,0:0:0:0:
232,232,98935,6,0,P|188:196|176:136,1,120,2|0,1:0|0:0,0:0:0:0:
56,136,99355,2,0,P|45:194|0:232,1,120,8|0,0:0|0:0,0:0:0:0:
60,336,99774,2,0,P|115:317|171:336,1,120,0|0,1:0|0:0,0:0:0:0:
292,336,100194,1,8,0:0:0:0:
412,336,100404,2,0,P|468:236|412:136,1,240,2|0,0:0|0:0,0:0:0:0:
292,136,101033,1,8,0:0:0:0:
228,236,101243,2,0,P|172:256|116:237,1,120,2|0,0:0|1:0,0:0:0:0:
52,136,101662,2,0,L|12:136,2,40,2|0|0,0:0|0:0|0:0,0:0:0:0:
52,136,101872,2,0,L|140:48,1,120,10|0,1:0|1:0,0:0:0:0:
256,52,102292,6,0,B|312:73|312:73|368:52,1,120,4|0,1:0|0:0,0:0:0:0:
428,156,102711,2,0,B|380:192|380:192|372:252,1,120,8|0,0:0|0:0,0:0:0:0:
252,252,103131,2,0,B|244:192|244:192|196:156,1,120,0|0,1:0|0:0,0:0:0:0:
100,84,103551,1,8,0:0:0:0:
4,156,103760,2,0,L|148:348,1,240,2|0,0:0|0:0,0:0:0:0:
244,276,104390,2,0,L|339:204,1,120,8|0,0:0|0:0,0:0:0:0:
268,108,104809,2,0,L|172:181,1,120,0|0,1:0|0:0,0:0:0:0:
100,84,105229,2,0,L|195:12,1,120,10|0,0:0|0:0,0:0:0:0:
348,12,105648,6,0,P|368:116|480:180,1,240,6|10,1:0|0:0,0:0:0:0:
512,328,106278,2,0,P|472:364|408:368,1,120,2|0,0:0|1:0,0:0:0:0:
264,324,106697,1,0,1:0:0:0:
264,324,106802,1,0,1:0:0:0:
264,324,106907,1,0,1:0:0:0:
264,172,107117,2,0,P|208:80|84:68,1,240,4|2,1:0|1:0,0:0:0:0:
0,192,107746,1,2,1:0:0:0:
148,204,107956,1,2,1:0:0:0:
84,68,108166,1,2,1:0:0:0:
84,68,108271,1,0,1:0:0:0:
84,68,108376,1,2,1:0:0:0:
0,192,108586,1,2,1:0:0:0:
0,192,108690,1,0,1:0:0:0:
0,192,108795,1,0,1:0:0:0:
64,328,109005,6,0,P|176:352|276:284,1,240,4|8,1:0|0:0,0:0:0:0:
331,179,109634,1,0,0:0:0:0:
254,85,109844,2,0,P|209:191|275:286,1,240,0|8,1:0|0:0,0:0:0:0:
331,179,110474,1,0,0:0:0:0:
450,187,110683,2,0,P|389:285|275:286,1,240,2|8,1:0|0:0,0:0:0:0:
155,277,111313,2,0,P|216:179|330:178,1,240,2|0,0:0|0:0,0:0:0:0:
274,285,111942,2,0,P|336:300|391:284,1,120,8|0,0:0|2:0,0:0:0:0:
468,192,112362,6,0,P|436:88|324:36,1,240,2|8,1:0|0:0,0:0:0:0:
244,124,112991,2,0,P|224:164|156:188,1,120,2|0,0:0|1:0,0:0:0:0:
36,188,113411,1,0,0:0:0:0:
96,84,113620,1,8,0:0:0:0:
156,188,113830,1,0,0:0:0:0:
216,292,114040,2,0,L|332:260,1,120,2|0,1:0|0:0,0:0:0:0:
360,144,114460,2,0,L|244:176,1,120,8|2,0:0|0:0,0:0:0:0:
216,292,114879,1,0,1:0:0:0:
216,292,114984,1,0,1:0:0:0:
324,340,115194,1,0,1:0:0:0:
324,340,115299,1,8,1:0:0:0:
404,248,115509,1,0,1:0:0:0:
436,72,115718,6,0,P|332:20|236:80,1,240,4|8,1:0|0:0,0:0:0:0:
184,188,116348,1,0,0:0:0:0:
263,277,116558,2,0,P|306:170|236:80,1,240,0|8,1:0|0:0,0:0:0:0:
184,188,117187,1,0,0:0:0:0:
64,183,117397,2,0,P|121:84|236:80,1,240,2|8,1:0|0:0,0:0:0:0:
356,85,118026,2,0,P|299:184|184:188,1,240,2|0,0:0|0:0,0:0:0:0:
236,80,118655,2,0,P|180:68|120:84,1,120,8|0,0:0|2:0,0:0:0:0:
0,220,119075,6,0,P|60:320|172:320,1,240,4|8,1:0|0:0,0:0:0:0:
276,256,119704,2,0,P|329:231|387:242,1,120,2|0,0:0|1:0,0:0:0:0:
496,292,120124,2,0,L|495:232,1,60,0|0,1:0|1:0,0:0:0:0:
463,116,120334,2,0,L|408:88,1,60,8|0,1:0|1:0,0:0:0:0:
295,126,120544,2,0,L|244:160,1,60,0|0,1:0|1:0,0:0:0:0:
144,224,120753,5,6,1:0:0:0:
128,236,121068,1,2,1:0:0:0:
112,248,121383,2,0,L|37:145,1,120,2|0,1:0|1:0,0:0:0:0:
28,136,121697,1,0,1:0:0:0:
15,119,121802,1,2,1:0:0:0:
152,0,122012,1,2,1:0:0:0:
200,0,122117,1,0,1:0:0:0:
240,28,122222,1,0,1:0:0:0:
264,68,122327,1,0,1:0:0:0:
264,116,122432,6,0,P|284:180|324:212,1,120,4|0,1:0|0:0,0:0:0:0:
492,360,122851,2,0,P|472:296|432:264,1,120,8|0,0:0|0:0,0:0:0:0:
324,212,123271,1,0,1:0:0:0:
256,352,123481,2,0,P|320:332|352:292,1,120,0|8,0:0|0:0,0:0:0:0:
500,124,123900,2,0,P|436:144|404:184,2,120,0|2|0,0:0|1:0|0:0,0:0:0:0:
432,264,124530,1,8,0:0:0:0:
323,211,124739,2,0,P|279:173|264:116,1,120,2|0,0:0|1:0,0:0:0:0:
432,264,125159,2,0,P|476:302|491:359,1,120,0|8,0:0|0:0,0:0:0:0:
372,368,125579,1,0,0:0:0:0:
252,360,125788,6,0,P|267:302|311:264,1,120,2|0,1:0|0:0,0:0:0:0:
372,368,126208,1,8,0:0:0:0:
252,360,126418,2,0,L|132:352,1,120,0|0,0:0|1:0,0:0:0:0:
80,244,126837,2,0,L|200:251,1,120,0|8,0:0|0:0,0:0:0:0:
276,160,127257,2,0,L|156:152,1,120,0|0,0:0|1:0,0:0:0:0:
80,244,127676,1,2,0:0:0:0:
132,352,127886,1,10,0:0:0:0:
200,252,128096,1,2,1:0:0:0:
224,212,128201,1,0,1:0:0:0:
248,172,128306,1,2,1:0:0:0:
272,132,128411,1,0,1:0:0:0:
296,92,128516,1,2,1:0:0:0:
320,52,128620,1,0,1:0:0:0:
344,12,128725,1,8,1:0:0:0:
464,20,128935,1,0,1:0:0:0:
512,192,129145,6,0,P|436:248|316:192,1,240,4|8,1:0|0:0,0:0:0:0:
256,88,129774,2,0,P|180:32|60:88,1,240,2|0,0:0|0:0,0:0:0:0:
0,192,130404,1,8,0:0:0:0:
60,296,130613,2,0,P|136:352|256:296,1,240,2|0,0:0|0:0,0:0:0:0:
316,192,131243,1,8,0:0:0:0:
288,60,131453,2,0,P|234:86|196:131,1,120,2|0,0:0|1:0,0:0:0:0:
196,252,131872,2,0,P|232:296|288:324,2,120,2|8|2,0:0|0:0|0:0,0:0:0:0:
196,132,132502,6,0,P|448:164|196:252,1,720,4|8,1:0|0:0,0:0:0:0:
316,192,133970,1,0,0:0:0:0:
196,132,134180,2,0,P|164:116|84:132,1,120,4|0,1:0|0:0,0:0:0:0:
84,252,134599,1,0,1:0:0:0:
120,284,134704,1,0,1:0:0:0:
156,316,134809,1,0,1:0:0:0:
192,348,134914,1,0,1:0:0:0:
228,380,135019,1,0,1:0:0:0:
320,224,135229,1,0,1:0:0:0:
408,380,135439,1,0,1:0:0:0:
228,380,135648,1,0,1:0:0:0:
140,224,135858,5,6,0:0:0:0:
276,88,136278,1,2,0:0:0:0:
140,224,136697,1,2,0:0:0:0:
276,88,136907,1,2,0:0:0:0:
140,224,137327,1,2,0:0:0:0:
276,88,137956,1,2,0:0:0:0:
140,224,138376,1,2,0:0:0:0:
208,156,138586,1,2,0:0:0:0:
276,88,138795,1,2,0:0:0:0:
412,224,139215,5,2,0:0:0:0:
276,88,139634,1,2,0:0:0:0:
412,224,140054,1,2,0:0:0:0:
276,88,140264,1,2,0:0:0:0:
412,224,140683,1,2,0:0:0:0:
276,88,141313,1,2,0:0:0:0:
412,224,141732,1,2,0:0:0:0:
276,88,141942,1,2,0:0:0:0:
412,224,142152,2,0,L|344:156,1,96,2|0,1:2|0:0,0:0:0:0:
276,88,142572,6,0,P|220:68|164:88,1,120,6|0,1:2|0:0,0:0:0:0:
108,192,142991,2,0,P|164:212|220:192,1,120,2|0,1:2|0:0,0:0:0:0:
276,88,143411,1,2,1:2:0:0:
396,88,143620,2,0,P|416:144|396:200,1,120,2|0,0:0|1:2,0:0:0:0:
352,312,144040,2,0,B|288:312|256:252|256:252|224:192|160:192,1,240,2|0,0:0|0:0,0:0:0:0:
160,312,144669,2,0,B|224:312|256:252|256:252|288:192|352:192,1,240,2|2,1:2|1:2,0:0:0:0:
456,252,145299,1,2,0:0:0:0:
352,312,145509,2,0,L|352:192,1,120,2|0,1:2|0:0,0:0:0:0:
352,72,145928,5,6,1:2:0:0:
160,72,146138,1,0,1:0:0:0:
316,184,146348,1,2,1:2:0:0:
256,1,146558,1,0,1:0:0:0:
196,184,146767,1,2,1:2:0:0:
184,212,146872,1,0,1:0:0:0:
172,240,146977,1,2,1:2:0:0:
160,268,147082,1,0,1:0:0:0:
148,296,147187,1,0,1:0:0:0:
136,324,147292,1,0,1:0:0:0:
124,352,147397,2,0,P|56:352|56:172,1,300,4|0,1:0|0:0,0:0:0:0:
160,112,148655,5,0,1:0:0:0:
164,112,148725,1,0,1:0:0:0:
168,112,148795,1,0,1:0:0:0:
172,112,148865,2,0,L|316:112,1,135.000005149841,0|0,1:0|2:0,0:0:0:0:
380,112,149285,6,0,B|462:181|462:181|397:209|397:209|479:279,1,287.999991210938,6|8,1:0|0:0,0:0:0:0:
360,364,149914,2,0,B|216:364|216:364|124:252,1,287.999991210938,2|0,0:0|0:0,0:0:0:0:
92,112,150544,2,0,L|236:112,1,143.999995605469,8|0,0:0|0:0,0:0:0:0:
380,112,150963,2,0,B|462:181|462:181|397:209|397:209|479:279,1,287.999991210938,2|8,1:0|0:0,0:0:0:0:
360,364,151593,2,0,B|216:364|216:364|124:252,1,287.999991210938
92,112,152222,1,8,0:0:0:0:
232,76,152432,1,0,0:0:0:0:
268,216,152641,6,0,P|336:236|404:216,1,143.999995605469,2|0,1:0|0:0,0:0:0:0:
336,88,153061,1,8,0:0:0:0:
268,216,153271,2,0,P|248:284|268:352,1,143.999995605469,0|2,0:0|1:0,0:0:0:0:
396,284,153690,2,0,P|416:216|396:148,1,143.999995605469,0|8,0:0|0:0,0:0:0:0:
268,216,154110,2,0,P|200:236|132:216,1,143.999995605469,2|0,0:0|1:0,0:0:0:0:
200,88,154530,1,2,0:0:0:0:
344,96,154739,1,10,0:0:0:0:
452,192,154949,1,2,0:0:0:0:
452,336,155159,1,0,1:0:0:0:
452,336,155264,1,0,1:0:0:0:
328,264,155474,1,0,1:0:0:0:
328,264,155579,1,8,1:0:0:0:
452,192,155788,1,0,1:0:0:0:
452,48,155998,6,0,B|392:60|332:120|332:120|308:204|328:264,1,287.999991210938,6|10,1:0|0:0,0:0:0:0:
184,264,156627,2,0,B|204:204|180:120|180:120|120:60|60:48,1,287.999991210938,2|0,0:0|0:0,0:0:0:0:
60,192,157257,1,10,0:0:0:0:
132,316,157467,2,0,B|172:364|256:384|256:384|340:364|380:316,1,287.999991210938,2|0,0:0|0:0,0:0:0:0:
452,192,158096,1,10,0:0:0:0:
380,68,158306,2,0,B|340:20|256:0|256:0|172:20|132:68,1,287.999991210938,2|0,0:0|0:0,0:0:0:0:
60,192,158935,2,0,L|216:192,1,143.999995605469,10|0,0:0|0:0,0:0:0:0:
348,192,159355,6,0,P|284:316|148:324,1,287.999991210938,6|8,1:0|0:0,0:0:0:0:
204,192,159984,1,2,0:0:0:0:
259,59,160194,2,0,P|122:69|60:192,1,287.999991210938,2|8,1:0|0:0,0:0:0:0:
492,192,160823,6,0,B|513:232|511:261|511:261|484:271|440:264|440:264|461:303|460:332|460:332|433:342|388:336,1,287.999991210938,6|0,1:0|1:0,0:0:0:0:
176,300,161453,1,0,1:0:0:0:
312,132,161662,1,0,1:0:0:0:
388,336,161872,1,0,1:0:0:0:
348,304,161977,1,0,1:0:0:0:
308,272,162082,1,0,1:0:0:0:
268,240,162187,1,0,1:0:0:0:
228,208,162292,1,0,1:0:0:0:
188,176,162397,1,0,1:0:0:0:
148,144,162502,1,0,1:0:0:0:
108,112,162606,1,0,1:0:0:0:
68,80,162711,6,0,B|28:48|28:48|28:140|28:140|88:188|88:188|88:256,1,287.999991210938,6|8,1:0|0:0,0:0:0:0:
200,348,163341,2,0,B|266:309|248:223|248:223|324:267|381:216,1,287.999991210938,2|0,0:0|0:0,0:0:0:0:
336,80,163970,2,0,L|182:80,1,143.999995605469,8|0,0:0|0:0,0:0:0:0:
68,80,164390,2,0,B|28:48|28:48|28:140|28:140|88:188|88:188|88:256,1,287.999991210938,2|8,1:0|0:0,0:0:0:0:
200,348,165019,2,0,B|266:309|248:223|248:223|324:267|381:216,1,287.999991210938
336,80,165648,1,8,0:0:0:0:
464,16,165858,1,0,0:0:0:0:
512,152,166068,6,0,P|496:216|436:260,1,143.999995605469,2|0,1:0|0:0,0:0:0:0:
292,276,166488,1,8,0:0:0:0:
152,256,166697,2,0,P|168:192|228:148,1,143.999995605469,2|0,0:0|1:0,0:0:0:0:
292,276,167117,2,0,P|276:340|216:384,1,143.999995605469,2|8,0:0|0:0,0:0:0:0:
12,236,167537,2,0,P|48:104|172:28,1,287.999991210938,2|2,0:0|0:0,0:0:0:0:
320,16,168166,1,10,0:0:0:0:
444,88,168376,1,2,0:0:0:0:
320,160,168586,1,0,1:0:0:0:
320,160,168690,1,0,1:0:0:0:
196,232,168900,1,0,1:0:0:0:
196,232,169005,1,8,1:0:0:0:
320,304,169215,1,0,1:0:0:0:
444,232,169425,5,6,1:0:0:0:
496,96,169634,2,0,L|368:32,1,143.999995605469,0|8,0:0|0:0,0:0:0:0:
316,168,170054,2,0,L|444:232,1,143.999995605469,2|0,0:0|1:0,0:0:0:0:
393,369,170474,2,0,L|265:305,1,143.999995605469,0|8,0:0|0:0,0:0:0:0:
316,168,170893,2,0,L|52:36,1,287.999991210938,2|0,0:0|0:0,0:0:0:0:
136,160,171523,1,8,0:0:0:0:
204,32,171732,1,2,0:0:0:0:
332,92,171942,2,0,P|356:188|265:228,1,215.999993408203,2|0,1:0|1:0,0:0:0:0:
265,228,172362,1,10,1:0:0:0:
116,52,172572,6,0,L|0:136,1,143.999995605469,2|4,1:0|1:0,0:0:0:0:
0,352,172991,1,2,0:0:0:0:
184,244,173201,1,10,0:0:0:0:
0,136,173411,1,0,0:0:0:0:
0,352,173620,2,0,L|80:304,1,71.9999978027344,0|0,1:0|1:0,0:0:0:0:
184,244,173830,2,0,L|104:196,1,71.9999978027344,0|0,1:0|1:0,0:0:0:0:
0,136,174040,2,0,L|0:224,1,71.9999978027344,0|0,1:0|1:0,0:0:0:0:
0,352,174250,6,0,P|104:380|184:244,1,287.999991210938,4|2,1:0|1:0,0:0:0:0:
0,136,174879,1,2,1:0:0:0:
0,352,175089,1,2,1:0:0:0:
184,244,175299,1,0,1:0:0:0:
224,216,175404,1,0,1:0:0:0:
264,188,175509,1,0,1:0:0:0:
304,160,175613,1,0,1:0:0:0:
344,132,175718,1,0,1:0:0:0:
384,104,175823,1,0,1:0:0:0:
424,76,175928,1,0,1:0:0:0:
464,48,176033,1,0,1:0:0:0:
504,20,176138,5,4,1:0:0:0:
504,20,176348,1,0,1:0:0:0:
504,200,176558,1,0,1:0:0:0:
504,200,176767,1,0,1:0:0:0:
376,328,176977,1,0,1:0:0:0:
376,328,177082,1,0,1:0:0:0:
376,328,177187,1,0,1:0:0:0:
376,328,177292,1,0,1:0:0:0:
376,328,177397,1,0,1:0:0:0:
376,328,177502,1,0,1:0:0:0:
376,328,177606,1,0,1:0:0:0:
376,328,177711,1,0,1:0:0:0:
376,328,177816,6,0,P|256:252|136:328,1,300,4|0,1:0|1:0,0:0:0:0:
132,332,178935,1,0,1:0:0:0:
128,336,179005,1,0,1:0:0:0:
124,340,179075,2,0,P|48:340|0:204,1,240,0|6,1:0|1:0,0:0:0:0:
256,244,179914,6,0,L|256:124,1,120,8|0,0:0|0:0,0:0:0:0:
376,128,180334,2,0,P|396:184|376:240,1,120,0|0,1:0|0:0,0:0:0:0:
256,244,180753,1,8,0:0:0:0:
136,240,180963,2,0,P|116:184|136:128,1,120,0|2,0:0|1:0,0:0:0:0:
376,128,181383,2,0,P|396:184|376:240,1,120,0|8,0:0|0:0,0:0:0:0:
136,240,181802,2,0,P|116:184|136:128,1,120,0|0,0:0|1:0,0:0:0:0:
256,124,182117,1,0,1:0:0:0:
256,124,182222,2,0,L|256:248,1,120,2|8,1:0|0:0,0:0:0:0:
312,36,182641,2,0,P|256:16|200:36,1,120,0|0,0:0|1:0,0:0:0:0:
140,284,183271,6,0,B|152:340|192:372|192:372|228:360|256:332|256:332|284:360|320:372|320:372|360:340|372:284,2,360.000013732911,10|2|10,0:0|1:0|0:0,0:0:0:0:
256,224,184320,2,0,B|296:168|256:112|256:112|216:56|256:0,1,240,2|2,0:0|0:0,0:0:0:0:
360,80,184949,1,10,0:0:0:0:
360,212,185159,2,0,B|348:272|348:272|304:312,1,120,2|0,0:0|1:0,0:0:0:0:
208,312,185474,1,0,1:0:0:0:
208,312,185579,2,0,B|164:272|164:272|152:212,1,120,2|10,1:0|1:0,0:0:0:0:
152,80,185998,1,0,1:0:0:0:
152,80,186103,1,0,1:0:0:0:
152,80,186208,1,4,1:0:0:0:
152,80,186627,6,0,L|48:140,1,120,8|0,0:0|0:0,0:0:0:0:
48,260,187047,1,0,1:0:0:0:
152,320,187257,1,0,0:0:0:0:
256,260,187467,1,8,0:0:0:0:
256,140,187676,2,0,L|360:80,1,120,0|2,0:0|1:0,0:0:0:0:
464,140,188096,1,0,0:0:0:0:
464,260,188306,1,8,0:0:0:0:
360,320,188516,2,0,L|256:260,1,120,0|0,0:0|1:0,0:0:0:0:
256,168,188830,1,0,1:0:0:0:
256,168,188935,2,0,L|256:40,1,120,2|8,1:0|0:0,0:0:0:0:
16,68,189355,6,0,P|40:172|152:228,1,240,6|0,1:0|0:0,0:0:0:0:
256,168,189984,1,8,0:0:0:0:
360,228,190194,1,2,0:0:0:0:
256,288,190404,1,2,1:0:0:0:
256,168,190613,1,2,0:0:0:0:
256,48,190823,1,10,0:0:0:0:
496,68,191033,6,0,P|472:172|360:228,1,240,6|0,1:0|0:0,0:0:0:0:
256,168,191662,1,8,0:0:0:0:
152,228,191872,1,0,0:0:0:0:
256,288,192082,1,0,1:0:0:0:
256,248,192187,1,0,1:0:0:0:
256,208,192292,1,0,1:0:0:0:
256,168,192397,1,0,1:0:0:0:
256,128,192502,1,8,1:0:0:0:
256,372,192711,6,0,L|84:200,1,240,6|2,1:0|1:0,0:0:0:0:
78,194,193236,1,0,1:0:0:0:
70,186,193341,1,10,1:0:0:0:
256,372,193551,6,0,L|428:200,1,240,6|2,1:0|1:0,0:0:0:0:
434,194,194075,1,0,1:0:0:0:
442,186,194180,1,10,1:0:0:0:
256,372,194390,6,0,L|256:128,1,240,6|2,1:0|1:0,0:0:0:0:
180,0,195019,1,10,0:0:0:0:
332,0,195229,1,0,0:0:0:0:
180,0,195439,6,0,L|180:64,1,60,0|0,1:0|1:0,0:0:0:0:
332,60,195648,2,0,L|332:0,1,60,2|0,1:0|1:0,0:0:0:0:
256,132,195858,2,0,P|216:200|124:228,1,180,0|0,1:0|2:0,0:0:0:0:
56,192,196278,5,6,1:0:0:0:
56,376,196488,1,0,0:0:0:0:
216,284,196697,1,8,0:0:0:0:
56,192,196907,5,2,0:0:0:0:
56,376,197117,1,0,1:0:0:0:
216,284,197327,1,0,0:0:0:0:
56,192,197537,5,10,0:0:0:0:
56,376,197746,1,0,0:0:0:0:
216,284,197956,1,0,1:0:0:0:
56,192,198166,5,2,0:0:0:0:
216,284,198376,1,8,0:0:0:0:
56,192,198586,1,2,0:0:0:0:
216,100,198795,5,2,1:0:0:0:
56,8,199005,1,2,0:0:0:0:
216,100,199215,2,0,B|288:136|288:136|296:160|296:160|364:192,1,180,10|0,0:0|2:0,0:0:0:0:
456,192,199634,5,2,1:0:0:0:
456,376,199844,1,0,0:0:0:0:
296,284,200054,1,8,0:0:0:0:
456,192,200264,5,2,0:0:0:0:
456,376,200474,1,0,1:0:0:0:
296,284,200683,1,0,0:0:0:0:
456,192,200893,5,10,0:0:0:0:
456,376,201103,1,0,0:0:0:0:
296,284,201313,1,0,1:0:0:0:
456,192,201523,5,2,0:0:0:0:
296,284,201732,1,8,0:0:0:0:
456,192,201942,1,2,0:0:0:0:
296,100,202152,5,2,1:0:0:0:
456,8,202362,1,2,0:0:0:0:
296,100,202572,2,0,B|224:136|224:136|216:160|216:160|148:192,1,180,10|0,0:0|2:0,0:0:0:0:
148,100,202991,6,2,L|148:348,1,240,4|10,1:0|0:0,0:0:0:0:
256,340,203516,1,0,0:0:0:0:
256,340,203620,2,0,L|256:96,1,240,2|2,0:0|0:0,0:0:0:0:
364,100,204145,1,0,0:0:0:0:
364,100,204250,2,0,L|364:340,2,240,10|0|8,0:0|1:0|0:0,0:0:0:0:
256,12,205299,1,2,0:0:0:0:
148,100,205509,1,2,1:0:0:0:
186,235,205718,1,2,0:0:0:0:
326,235,205928,1,10,0:0:0:0:
364,100,206138,1,2,0:0:0:0:
256,12,206348,6,0,L|256:252,2,240,6|8|0,1:0|0:0|1:0,0:0:0:0:
364,100,207397,1,2,0:0:0:0:
312,232,207606,2,0,P|256:252|200:232,1,120,10|2,0:0|0:0,0:0:0:0:
148,100,208026,1,2,1:0:0:0:
256,12,208236,1,2,0:0:0:0:
364,100,208446,1,10,0:0:0:0:
256,188,208655,1,2,1:0:0:0:
236,144,208760,1,0,1:0:0:0:
216,100,208865,1,0,1:0:0:0:
196,56,208970,1,0,1:0:0:0:
176,12,209075,1,2,1:0:0:0:
336,12,209285,1,0,1:0:0:0:
316,56,209390,1,0,1:0:0:0:
296,100,209495,1,2,1:0:0:0:
276,144,209599,1,2,1:0:0:0:
256,188,209704,6,0,B|176:224|176:336|176:336|176:12|176:12|343:232|343:232|364:260|404:276|432:264|464:248|476:216,1,940.800011484375,6|2,1:0|0:0,0:0:0:0:
476,216,213061,1,4,0:0:0:0:
340,324,219774,5,4,1:0:0:0:
424,240,220193,1,0,1:0:0:0:
340,156,220613,1,0,1:0:0:0:
256,240,221033,1,0,1:0:0:0:
172,324,221452,5,0,1:0:0:0:
88,240,221872,1,0,1:0:0:0:
172,156,222291,1,0,1:0:0:0:
256,240,222711,1,0,1:0:0:0:
316,352,223130,5,4,1:0:0:0:
316,352,223340,1,0,1:0:0:0:
196,352,223550,1,0,1:0:0:0:
196,352,223760,1,0,1:0:0:0:
156,240,223970,1,0,1:0:0:0:
173,195,224074,1,0,1:0:0:0:
210,164,224179,1,0,1:0:0:0:
256,152,224284,1,0,1:0:0:0:
302,164,224389,1,0,1:0:0:0:
339,195,224494,1,0,1:0:0:0:
356,240,224599,6,0,B|404:316|352:384|352:384|304:356|256:356|256:356|224:356|192:328|196:276|224:244|288:244|316:276|320:328|288:356|256:356|256:356|208:356|160:384|160:384|108:316|156:240,1,780,4|0,1:0|0:0,0:0:0:0:
256,172,227536,5,0,1:0:0:0:
256,168,227606,1,0,1:0:0:0:
256,164,227676,1,0,1:0:0:0:
256,160,227746,2,0,L|256:20,1,135.000005149841,0|0,1:0|2:0,0:0:0:0:
184,0,228165,6,0,P|256:100|328:0,1,287.999991210938,6|8,1:0|0:0,0:0:0:0:
380,136,228794,2,0,P|228:196|132:136,1,287.999991210938,2|0,0:0|0:0,0:0:0:0:
256,56,229423,2,0,L|256:204,1,143.999995605469,8|0,0:0|0:0,0:0:0:0:
184,328,229843,2,0,P|256:228|328:328,1,287.999991210938,2|8,1:0|0:0,0:0:0:0:
380,192,230472,2,0,P|228:132|132:192,1,287.999991210938
184,328,231102,1,8,0:0:0:0:
328,328,231311,1,0,0:0:0:0:
380,192,231521,6,0,P|424:140|496:132,1,143.999995605469,2|0,1:0|0:0,0:0:0:0:
496,276,231941,1,8,0:0:0:0:
364,332,232151,2,0,P|292:320|256:264,1,143.999995605469,0|2,0:0|1:0,0:0:0:0:
192,136,232570,2,0,P|256:108|320:136,1,143.999995605469,0|8,0:0|0:0,0:0:0:0:
256,264,232990,2,0,P|220:320|148:332,1,143.999995605469,2|0,0:0|1:0,0:0:0:0:
16,276,233409,1,2,0:0:0:0:
132,192,233619,1,10,0:0:0:0:
148,332,233829,1,2,0:0:0:0:
16,276,234039,1,0,1:0:0:0:
16,276,234144,1,0,1:0:0:0:
64,140,234353,1,0,1:0:0:0:
64,140,234458,1,8,1:0:0:0:
184,60,234668,1,0,1:0:0:0:
328,60,234878,6,0,B|368:80|384:132|384:132|360:180|384:228|384:228|368:280|328:300,1,287.999991210938,6|10,1:0|0:0,0:0:0:0:
184,300,235507,2,0,B|144:280|128:228|128:228|152:180|128:132|128:132|144:80|184:60,1,287.999991210938,2|0,0:0|0:0,0:0:0:0:
328,60,236137,1,10,0:0:0:0:
400,180,236346,2,0,L|96:180,1,287.999991210938,2|0,0:0|0:0,0:0:0:0:
0,272,236976,1,10,0:0:0:0:
112,364,237185,2,0,L|400:364,1,287.999991210938,2|0,0:0|0:0,0:0:0:0:
512,272,237815,2,0,L|364:272,1,143.999995605469,10|0,0:0|0:0,0:0:0:0:
220,276,238234,6,0,P|116:180|140:48,1,287.999991210938,6|8,1:0|0:0,0:0:0:0:
256,136,238864,1,2,0:0:0:0:
292,276,239074,2,0,P|396:180|372:48,1,287.999991210938,2|8,1:0|0:0,0:0:0:0:
0,268,239703,6,0,B|0:312|15:337|15:337|44:333|79:306|79:306|79:350|94:375|94:375|122:372|160:344,1,287.999991210938,6|0,1:0|1:0,0:0:0:0:
328,208,240332,1,0,1:0:0:0:
124,132,240542,1,0,1:0:0:0:
160,344,240752,1,0,1:0:0:0:
196,308,240857,1,0,1:0:0:0:
232,272,240962,1,0,1:0:0:0:
268,236,241067,1,0,1:0:0:0:
304,200,241171,1,0,1:0:0:0:
340,164,241276,1,0,1:0:0:0:
376,128,241381,1,0,1:0:0:0:
412,92,241486,1,0,1:0:0:0:
448,56,241591,6,0,B|508:76|508:136|508:136|508:208|508:208|508:268|448:288,1,287.999991210938,4|8,1:0|0:0,0:0:0:0:
316,344,242220,2,0,B|256:324|256:264|256:264|256:192|256:192|256:132|316:112,1,287.999991210938,2|0,0:0|0:0,0:0:0:0:
324,256,242850,2,0,B|308:272|272:272|272:272|240:272|240:272|204:272|188:256,1,143.999995605469,8|0,0:0|0:0,0:0:0:0:
196,112,243269,2,0,B|256:132|256:192|256:192|256:264|256:264|256:324|196:344,1,287.999991210938,2|8,1:0|0:0,0:0:0:0:
64,288,243899,2,0,B|4:268|4:208|4:208|4:136|4:136|4:76|64:56,1,287.999991210938
184,136,244528,1,8,0:0:0:0:
328,136,244738,1,0,0:0:0:0:
324,280,244948,6,0,P|256:300|188:280,1,143.999995605469,2|0,1:0|0:0,0:0:0:0:
256,152,245367,1,8,0:0:0:0:
324,24,245577,2,0,P|256:4|188:24,1,143.999995605469,2|0,0:0|1:0,0:0:0:0:
256,152,245997,2,0,L|256:296,1,143.999995605469,2|8,0:0|0:0,0:0:0:0:
376,72,246416,2,0,P|256:4|136:72,1,287.999991210938,2|0,0:0|0:0,0:0:0:0:
184,208,247046,1,10,0:0:0:0:
328,208,247255,1,2,0:0:0:0:
256,80,247465,1,0,1:0:0:0:
256,80,247570,1,0,1:0:0:0:
256,224,247780,1,0,1:0:0:0:
256,224,247885,1,8,1:0:0:0:
132,152,248095,1,0,1:0:0:0:
256,80,248304,5,6,1:0:0:0:
352,188,248514,2,0,L|448:296,1,143.999995605469,0|8,0:0|0:0,0:0:0:0:
256,224,248934,2,0,L|256:368,1,143.999995605469,2|0,0:0|1:0,0:0:0:0:
160,188,249353,2,0,L|64:296,1,143.999995605469,0|8,0:0|0:0,0:0:0:0:
120,96,249773,2,0,B|256:48|256:48|392:96,1,287.999991210938,2|0,0:0|0:0,0:0:0:0:
356,236,250402,1,8,0:0:0:0:
256,340,250612,1,2,0:0:0:0:
156,236,250822,2,0,B|256:196|256:196|356:236,1,215.999993408203,2|0,1:0|1:0,0:0:0:0:
356,236,251241,1,10,1:0:0:0:
168,340,251451,6,0,L|44:268,1,143.999995605469,2|4,1:0|1:0,0:0:0:0:
44,52,251871,1,2,0:0:0:0:
228,160,252081,1,10,0:0:0:0:
44,268,252290,1,0,0:0:0:0:
44,52,252500,2,0,L|124:100,1,71.9999978027344,0|0,1:0|1:0,0:0:0:0:
228,160,252710,2,0,L|148:208,1,71.9999978027344,0|0,1:0|1:0,0:0:0:0:
44,268,252920,2,0,L|44:180,1,71.9999978027344,0|0,1:0|1:0,0:0:0:0:
44,52,253130,6,0,P|148:24|228:160,1,287.999991210938,4|2,1:0|1:0,0:0:0:0:
44,268,253759,1,2,1:0:0:0:
44,52,253969,1,2,1:0:0:0:
228,160,254178,1,0,1:0:0:0:
264,195,254283,1,0,1:0:0:0:
311,211,254388,1,0,1:0:0:0:
361,206,254493,1,0,1:0:0:0:
403,179,254598,1,0,1:0:0:0:
430,136,254703,1,0,1:0:0:0:
437,86,254808,1,0,1:0:0:0:
420,38,254913,1,0,1:0:0:0:
388,0,255018,6,0,L|268:0,1,120,4|0,1:0|0:0,0:0:0:0:
268,120,255437,2,0,L|148:120,1,120,8|0,0:0|0:0,0:0:0:0:
148,240,255857,2,0,L|28:240,1,120,0|0,1:0|0:0,0:0:0:0:
28,360,256276,1,8,0:0:0:0:
28,240,256486,2,0,P|80:136|192:128,1,240,2|0,0:0|0:0,0:0:0:0:
259,228,257116,2,0,P|205:252|148:240,1,120,8|0,0:0|0:0,0:0:0:0:
76,136,257535,2,0,P|82:77|121:33,1,120,0|0,1:0|0:0,0:0:0:0:
244,20,257955,2,0,P|291:54|310:110,1,120,8|0,0:0|0:0,0:0:0:0:
260,228,258374,6,0,L|216:340,1,120,2|0,1:0|0:0,0:0:0:0:
336,340,258794,2,0,L|380:228,1,120,8|0,0:0|0:0,0:0:0:0:
500,228,259213,2,0,L|456:340,1,120,0|0,1:0|0:0,0:0:0:0:
336,340,259633,1,8,0:0:0:0:
216,340,259843,2,0,L|304:116,1,240,2|0,0:0|0:0,0:0:0:0:
424,116,260472,1,8,0:0:0:0:
380,228,260682,2,0,L|248:228,1,120,0|0,0:0|1:0,0:0:0:0:
100,12,261206,1,0,1:0:0:0:
100,12,261311,2,0,L|224:12,1,120,8|0,1:0|1:0,0:0:0:0:
288,112,261731,6,0,P|329:69|340:11,1,120,4|0,1:0|0:0,0:0:0:0:
200,112,262151,2,0,P|142:96|87:116,1,120,8|0,0:0|0:0,0:0:0:0:
244,184,262570,2,0,P|260:240|305:279,1,120,0|0,1:0|0:0,0:0:0:0:
364,176,262990,1,8,0:0:0:0:
244,184,263199,2,0,L|4:200,1,240,2|0,0:0|0:0,0:0:0:0:
12,320,263829,2,0,L|131:312,1,120,8|0,0:0|0:0,0:0:0:0:
124,192,264248,2,0,L|244:184,1,120,0|0,1:0|0:0,0:0:0:0:
236,64,264668,2,0,L|355:56,1,120,8|0,0:0|0:0,0:0:0:0:
476,48,265088,6,0,P|468:108|428:152,1,120,2|0,1:0|0:0,0:0:0:0:
496,252,265507,2,0,P|440:275|381:262,1,120,8|0,0:0|0:0,0:0:0:0:
332,372,265927,2,0,P|284:335|265:278,1,120,0|0,1:0|0:0,0:0:0:0:
312,168,266346,1,8,0:0:0:0:
384,264,266556,2,0,B|144:296,1,240,2|0,0:0|0:0,0:0:0:0:
28,312,267185,1,8,0:0:0:0:
12,192,267395,2,0,L|132:176,1,120,0|0,0:0|1:0,0:0:0:0:
360,32,267920,1,0,1:0:0:0:
360,32,268025,2,0,L|240:48,1,120,8|0,1:0|1:0,0:0:0:0:
120,64,268444,6,0,P|144:124|188:156,1,120,4|0,1:0|0:0,0:0:0:0:
384,140,268864,2,0,P|320:130|270:152,1,120,8|0,0:0|0:0,0:0:0:0:
184,332,269283,2,0,P|223:281|229:227,1,120,0|0,1:0|0:0,0:0:0:0:
108,236,269703,1,8,0:0:0:0:
184,332,269913,2,0,L|424:332,1,240,2|0,0:0|0:0,0:0:0:0:
424,212,270542,2,0,L|424:92,1,120,8|0,0:0|0:0,0:0:0:0:
304,92,270962,2,0,L|184:92,1,120,0|0,1:0|0:0,0:0:0:0:
184,212,271381,2,0,L|184:336,1,120,10|0,0:0|0:0,0:0:0:0:
364,332,271801,6,0,P|392:232|512:232,1,240,6|10,1:0|0:0,0:0:0:0:
364,332,272430,2,0,P|312:332|256:296,1,120,2|0,0:0|1:0,0:0:0:0:
108,192,272850,1,0,1:0:0:0:
108,192,272955,1,0,1:0:0:0:
108,192,273060,1,0,1:0:0:0:
44,23,273269,2,0,P|156:16|256:88,1,240,4|2,1:0|1:0,0:0:0:0:
348,244,273899,1,2,1:0:0:0:
164,244,274109,1,2,1:0:0:0:
348,140,274318,1,2,1:0:0:0:
348,140,274423,1,0,1:0:0:0:
348,140,274528,1,2,1:0:0:0:
164,140,274738,1,2,1:0:0:0:
164,140,274843,1,0,1:0:0:0:
164,140,274948,1,0,1:0:0:0:
256,296,275158,5,6,1:0:0:0:
256,192,275262,12,0,281661,0:0:0:0:
