osu file format v14

[General]
AudioFilename: audio.mp3
AudioLeadIn: 0
PreviewTime: 82147
Countdown: 0
SampleSet: Soft
StackLeniency: 0.7
Mode: 3
LetterboxInBreaks: 0
SpecialStyle: 0
WidescreenStoryboard: 0

[Editor]
DistanceSpacing: 1.3
BeatDivisor: 4
GridSize: 16
TimelineZoom: 1

[Metadata]
Title:Happy Party Train
TitleUnicode:Happy Party Train
Artist:Aqours
ArtistUnicode:Aqours
Creator:indyinyou
Version:Drum Track
Source:
Tags:
BeatmapID:1421339
BeatmapSetID:672367

[Difficulty]
HPDrainRate:9
CircleSize:7
OverallDifficulty:9
ApproachRate:5
SliderMultiplier:1.4
SliderTickRate:1

[Events]
//Background and Video events
0,0,"Aqours.full.2149760.jpg",0,0
Video,0,"mv.mp4"
//Break Periods
2,46165,264880
//Storyboard Layer 0 (Background)
//Storyboard Layer 1 (Fail)
//Storyboard Layer 2 (Pass)
//Storyboard Layer 3 (Foreground)
//Storyboard Sound Samples

[TimingPoints]
1495,352.941176470588,4,2,0,100,1,0

[HitObjects]
256,192,8553,5,0,0:0:0:70:kick.wav
36,192,8553,1,0,0:0:0:45:cymbol01.wav
402,192,8906,5,0,0:0:0:70:kick.wav
36,192,8906,1,0,0:0:0:55:hihat.wav
36,192,9083,1,0,0:0:0:55:hihat.wav
402,192,9259,5,0,0:0:0:70:kick.wav
36,192,9259,1,0,0:0:0:55:hihat.wav
36,192,9436,1,0,0:0:0:55:hihat.wav
402,192,9612,5,0,0:0:0:70:kick.wav
36,192,9612,1,0,0:0:0:55:hihat.wav
36,192,9789,1,0,0:0:0:55:hihat.wav
402,192,9965,5,0,0:0:0:70:kick.wav
36,192,9965,1,0,0:0:0:55:hihat.wav
36,192,10142,1,0,0:0:0:55:hihat.wav
402,192,10318,5,0,0:0:0:70:kick.wav
36,192,10318,1,0,0:0:0:55:hihat.wav
36,192,10494,1,0,0:0:0:55:hihat.wav
402,192,10671,5,0,0:0:0:70:kick.wav
36,192,10671,1,0,0:0:0:55:hihat.wav
36,192,10847,1,0,0:0:0:55:hihat.wav
402,192,11024,5,0,0:0:0:70:kick.wav
36,192,11024,1,0,0:0:0:55:hihat.wav
36,192,11200,1,0,0:0:0:55:hihat.wav
402,192,11377,5,0,0:0:0:70:kick.wav
329,192,11377,1,0,0:0:0:30:snare01.wav
109,192,11377,1,0,0:0:0:70:tom02.wav
402,192,11730,5,0,0:0:0:70:kick.wav
329,192,11730,1,0,0:0:0:33:snare01.wav
329,192,11906,1,0,0:0:0:33:snare01.wav
109,192,11906,1,0,0:0:0:70:tom02.wav
402,192,12083,5,0,0:0:0:70:kick.wav
329,192,12083,1,0,0:0:0:36:snare01.wav
329,192,12259,1,0,0:0:0:36:snare01.wav
109,192,12259,1,0,0:0:0:70:tom02.wav
402,192,12436,5,0,0:0:0:70:kick.wav
329,192,12436,1,0,0:0:0:39:snare01.wav
329,192,12612,1,0,0:0:0:39:snare01.wav
109,192,12612,1,0,0:0:0:70:tom02.wav
402,192,12789,5,0,0:0:0:70:kick.wav
329,192,12789,1,0,0:0:0:39:snare01.wav
329,192,13494,1,0,0:0:0:45:snare01.wav
329,192,13583,1,0,0:0:0:45:snare01.wav
109,192,13671,1,0,0:0:0:70:tom01.wav
182,192,13759,1,0,0:0:0:70:tom02.wav
329,192,13847,1,0,0:0:0:45:snare01.wav
402,192,13847,1,0,0:0:0:70:kick.wav
256,192,14200,5,0,0:0:0:70:kick.wav
36,192,14200,1,0,0:0:0:35:cymbol01.wav
329,192,14553,1,0,0:0:0:35:snare01.wav
36,192,14553,1,0,0:0:0:55:hihat.wav
402,192,14906,1,0,0:0:0:70:kick.wav
36,192,14906,1,0,0:0:0:55:hihat.wav
402,192,15083,1,0,0:0:0:70:kick.wav
329,192,15259,1,0,0:0:0:35:snare01.wav
36,192,15259,1,0,0:0:0:55:hihat.wav
402,192,15612,1,0,0:0:0:70:kick.wav
36,192,15612,1,0,0:0:0:55:hihat.wav
329,192,15965,1,0,0:0:0:35:snare01.wav
36,192,15965,1,0,0:0:0:55:hihat.wav
402,192,16142,1,0,0:0:0:70:kick.wav
36,192,16318,1,0,0:0:0:55:hihat.wav
402,192,16494,1,0,0:0:0:70:kick.wav
329,192,16671,1,0,0:0:0:35:snare01.wav
36,192,16671,1,0,0:0:0:55:hihat.wav
256,192,17024,1,0,0:0:0:70:kick.wav
475,192,17024,1,0,0:0:0:30:cymbol02.wav
329,192,17377,1,0,0:0:0:35:snare01.wav
36,192,17377,1,0,0:0:0:55:hihat.wav
402,192,17730,1,0,0:0:0:70:kick.wav
475,192,17730,1,0,0:0:0:30:cymbol02.wav
402,192,17906,1,0,0:0:0:70:kick.wav
329,192,18083,1,0,0:0:0:35:snare01.wav
36,192,18083,1,0,0:0:0:55:hihat.wav
256,192,18436,1,0,0:0:0:70:kick.wav
475,192,18436,1,0,0:0:0:30:cymbol02.wav
329,192,18789,1,0,0:0:0:35:snare01.wav
36,192,18789,1,0,0:0:0:55:hihat.wav
402,192,18965,1,0,0:0:0:70:kick.wav
402,192,19142,1,0,0:0:0:70:kick.wav
36,192,19142,1,0,0:0:0:55:hihat.wav
329,192,19318,1,0,0:0:0:35:snare01.wav
329,192,19406,1,0,0:0:0:35:snare01.wav
329,192,19494,1,0,0:0:0:35:snare01.wav
109,192,19671,1,0,0:0:0:45:tom02.wav
402,192,19671,1,0,0:0:0:70:kick.wav
256,192,19847,1,0,0:0:0:70:kick.wav
36,192,19847,1,0,0:0:0:35:cymbol01.wav
329,192,20200,1,0,0:0:0:40:snare01.wav
36,192,20200,1,0,0:0:0:55:hihat.wav
402,192,20553,1,0,0:0:0:70:kick.wav
36,192,20553,1,0,0:0:0:55:hihat.wav
402,192,20730,1,0,0:0:0:70:kick.wav
329,192,20906,1,0,0:0:0:40:snare01.wav
36,192,20906,1,0,0:0:0:55:hihat.wav
402,192,21259,1,0,0:0:0:70:kick.wav
36,192,21259,1,0,0:0:0:55:hihat.wav
329,192,21612,1,0,0:0:0:40:snare01.wav
36,192,21612,1,0,0:0:0:55:hihat.wav
402,192,21789,1,0,0:0:0:70:kick.wav
109,192,21877,1,0,0:0:0:70:tom01.wav
182,192,21965,1,0,0:0:0:70:tom02.wav
256,192,22053,1,0,0:0:0:70:tom03.wav
402,192,22142,1,0,0:0:0:70:kick.wav
109,192,22142,1,0,0:0:0:70:tom01.wav
182,192,22318,1,0,0:0:0:55:hihat.wav
329,192,22318,1,0,0:0:0:40:snare01.wav
475,192,22671,1,0,0:0:0:30:cymbol02.wav
256,192,22671,1,0,0:0:0:70:kick.wav
402,192,22847,1,0,0:0:0:70:kick.wav
329,192,23024,1,0,0:0:0:40:snare01.wav
36,192,23024,1,0,0:0:0:55:hihat.wav
402,192,23200,1,0,0:0:0:70:kick.wav
182,192,23200,1,0,0:0:0:35:hihat2.wav
402,192,23553,1,0,0:0:0:70:kick.wav
182,192,23553,1,0,0:0:0:35:hihat2.wav
402,192,23906,1,0,0:0:0:70:kick.wav
475,192,23906,1,0,0:0:0:30:cymbol02.wav
329,192,24259,1,0,0:0:0:40:snare01.wav
329,192,24347,1,0,0:0:0:40:snare01.wav
329,192,24436,1,0,0:0:0:40:snare01.wav
402,192,24612,1,0,0:0:0:70:kick.wav
329,192,24789,1,0,0:0:0:40:snare01.wav
182,192,24789,1,0,0:0:0:70:tom02.wav
109,192,24965,1,0,0:0:0:70:tom01.wav
182,192,25053,1,0,0:0:0:70:tom03.wav
256,192,25142,1,0,0:0:0:70:tom02.wav
402,192,25142,1,0,0:0:0:70:kick.wav
256,192,25494,1,0,0:0:0:70:kick.wav
36,192,25494,1,0,0:0:0:15:cymbol01.wav
36,192,25847,1,0,0:0:0:35:hihat.wav
402,192,26024,1,0,0:0:0:70:kick.wav
36,192,26024,1,0,0:0:0:35:hihat.wav
36,192,26200,1,0,0:0:0:35:hihat.wav
36,192,26377,1,0,0:0:0:35:hihat.wav
329,192,26553,1,0,0:0:0:35:snare02.wav
36,192,26553,1,0,0:0:0:35:hihat.wav
36,192,26730,1,0,0:0:0:35:hihat.wav
402,192,26906,1,0,0:0:0:70:kick.wav
36,192,26906,1,0,0:0:0:35:hihat.wav
36,192,27083,1,0,0:0:0:35:hihat.wav
36,192,27259,1,0,0:0:0:35:hihat.wav
402,192,27436,1,0,0:0:0:70:kick.wav
36,192,27436,1,0,0:0:0:35:hihat.wav
36,192,27612,1,0,0:0:0:35:hihat.wav
36,192,27789,1,0,0:0:0:35:hihat.wav
329,192,27965,1,0,0:0:0:35:snare02.wav
36,192,27965,1,0,0:0:0:35:hihat.wav
36,192,28142,1,0,0:0:0:35:hihat.wav
402,192,28318,1,0,0:0:0:70:kick.wav
36,192,28318,1,0,0:0:0:35:hihat.wav
36,192,28494,1,0,0:0:0:35:hihat.wav
36,192,28671,1,0,0:0:0:35:hihat.wav
402,192,28847,1,0,0:0:0:70:kick.wav
36,192,28847,1,0,0:0:0:35:hihat.wav
36,192,29024,1,0,0:0:0:35:hihat.wav
36,192,29200,1,0,0:0:0:35:hihat.wav
329,192,29377,1,0,0:0:0:35:snare02.wav
36,192,29377,1,0,0:0:0:35:hihat.wav
36,192,29553,1,0,0:0:0:35:hihat.wav
402,192,29730,1,0,0:0:0:70:kick.wav
36,192,29730,1,0,0:0:0:35:hihat.wav
36,192,29906,1,0,0:0:0:35:hihat.wav
36,192,30083,1,0,0:0:0:35:hihat.wav
402,192,30259,1,0,0:0:0:70:kick.wav
36,192,30259,1,0,0:0:0:35:hihat.wav
36,192,30436,1,0,0:0:0:35:hihat.wav
182,192,30612,1,0,0:0:0:35:hihat2.wav
329,192,30789,1,0,0:0:0:35:snare02.wav
402,192,30965,1,0,0:0:0:70:kick.wav
475,192,31142,1,0,0:0:0:70:ride.wav
256,192,31142,1,0,0:0:0:70:kick.wav
36,192,31318,1,0,0:0:0:35:hihat.wav
36,192,31494,1,0,0:0:0:35:hihat.wav
402,192,31671,1,0,0:0:0:70:kick.wav
36,192,31671,1,0,0:0:0:35:hihat.wav
36,192,31847,1,0,0:0:0:35:hihat.wav
36,192,32024,1,0,0:0:0:35:hihat.wav
329,192,32200,1,0,0:0:0:35:snare02.wav
36,192,32200,1,0,0:0:0:35:hihat.wav
36,192,32377,1,0,0:0:0:35:hihat.wav
402,192,32553,1,0,0:0:0:70:kick.wav
36,192,32553,1,0,0:0:0:35:hihat.wav
36,192,32730,1,0,0:0:0:35:hihat.wav
36,192,32906,1,0,0:0:0:35:hihat.wav
402,192,33083,1,0,0:0:0:70:kick.wav
36,192,33083,1,0,0:0:0:35:hihat.wav
36,192,33259,1,0,0:0:0:35:hihat.wav
36,192,33436,1,0,0:0:0:35:hihat.wav
329,192,33612,1,0,0:0:0:35:snare02.wav
36,192,33612,1,0,0:0:0:35:hihat.wav
36,192,33789,1,0,0:0:0:35:hihat.wav
402,192,33965,1,0,0:0:0:70:kick.wav
36,192,33965,1,0,0:0:0:35:hihat.wav
36,192,34142,1,0,0:0:0:35:hihat.wav
36,192,34318,1,0,0:0:0:35:hihat.wav
402,192,34494,1,0,0:0:0:70:kick.wav
36,192,34494,1,0,0:0:0:35:hihat.wav
36,192,34671,1,0,0:0:0:35:hihat.wav
36,192,34847,1,0,0:0:0:35:hihat.wav
329,192,35024,1,0,0:0:0:35:snare02.wav
36,192,35024,1,0,0:0:0:35:hihat.wav
36,192,35200,1,0,0:0:0:35:hihat.wav
402,192,35377,1,0,0:0:0:70:kick.wav
36,192,35377,1,0,0:0:0:35:hihat.wav
36,192,35553,1,0,0:0:0:35:hihat.wav
36,192,35730,1,0,0:0:0:35:hihat.wav
402,192,35906,1,0,0:0:0:70:kick.wav
36,192,35906,1,0,0:0:0:35:hihat.wav
36,192,36083,1,0,0:0:0:35:hihat.wav
109,192,36259,1,0,0:0:0:70:tom01.wav
182,192,36436,1,0,0:0:0:70:tom02.wav
402,192,36436,1,0,0:0:0:70:kick.wav
256,192,36612,1,0,0:0:0:70:tom03.wav
402,192,36789,1,0,0:0:0:70:kick.wav
36,192,36789,1,0,0:0:0:35:hihat.wav
36,192,36965,1,0,0:0:0:35:hihat.wav
36,192,37142,1,0,0:0:0:35:hihat.wav
402,192,37318,1,0,0:0:0:70:kick.wav
36,192,37318,1,0,0:0:0:35:hihat.wav
36,192,37494,1,0,0:0:0:35:hihat.wav
36,192,37671,1,0,0:0:0:35:hihat.wav
329,192,37847,1,0,0:0:0:35:snare02.wav
36,192,37847,1,0,0:0:0:35:hihat.wav
36,192,38024,1,0,0:0:0:35:hihat.wav
402,192,38200,1,0,0:0:0:70:kick.wav
36,192,38200,1,0,0:0:0:35:hihat.wav
36,192,38377,1,0,0:0:0:35:hihat.wav
36,192,38553,1,0,0:0:0:35:hihat.wav
402,192,38730,1,0,0:0:0:70:kick.wav
36,192,38730,1,0,0:0:0:35:hihat.wav
36,192,38906,1,0,0:0:0:35:hihat.wav
36,192,39083,1,0,0:0:0:35:hihat.wav
329,192,39259,1,0,0:0:0:35:snare02.wav
36,192,39259,1,0,0:0:0:35:hihat.wav
36,192,39436,1,0,0:0:0:35:hihat.wav
402,192,39612,1,0,0:0:0:70:kick.wav
36,192,39612,1,0,0:0:0:35:hihat.wav
36,192,39789,1,0,0:0:0:35:hihat.wav
36,192,39965,1,0,0:0:0:35:hihat.wav
402,192,40142,1,0,0:0:0:70:kick.wav
36,192,40142,1,0,0:0:0:35:hihat.wav
36,192,40318,1,0,0:0:0:35:hihat.wav
36,192,40494,1,0,0:0:0:35:hihat.wav
329,192,40671,1,0,0:0:0:35:snare02.wav
36,192,40671,1,0,0:0:0:35:hihat.wav
36,192,40847,1,0,0:0:0:35:hihat.wav
402,192,41024,1,0,0:0:0:70:kick.wav
36,192,41024,1,0,0:0:0:35:hihat.wav
36,192,41200,1,0,0:0:0:35:hihat.wav
36,192,41377,1,0,0:0:0:35:hihat.wav
402,192,41553,1,0,0:0:0:70:kick.wav
36,192,41553,1,0,0:0:0:35:hihat.wav
36,192,41730,1,0,0:0:0:35:hihat.wav
182,192,41906,1,0,0:0:0:35:hihat2.wav
329,192,42083,1,0,0:0:0:35:snare02.wav
36,192,42083,1,0,0:0:0:35:hihat.wav
36,192,42259,1,0,0:0:0:35:hihat.wav
475,192,42436,1,0,0:0:0:45:ride.wav
256,192,42436,1,0,0:0:0:70:kick.wav
36,192,42612,1,0,0:0:0:35:hihat.wav
36,192,42789,1,0,0:0:0:35:hihat.wav
402,192,42965,1,0,0:0:0:70:kick.wav
36,192,42965,1,0,0:0:0:35:hihat.wav
36,192,43142,1,0,0:0:0:35:hihat.wav
36,192,43318,1,0,0:0:0:35:hihat.wav
329,192,43494,1,0,0:0:0:35:snare02.wav
36,192,43494,1,0,0:0:0:35:hihat.wav
36,192,43671,1,0,0:0:0:35:hihat.wav
402,192,43847,1,0,0:0:0:70:kick.wav
36,192,43847,1,0,0:0:0:35:hihat.wav
36,192,44024,1,0,0:0:0:35:hihat.wav
36,192,44200,1,0,0:0:0:35:hihat.wav
402,192,44377,1,0,0:0:0:70:kick.wav
36,192,44377,1,0,0:0:0:35:hihat.wav
36,192,44553,1,0,0:0:0:35:hihat.wav
36,192,44730,1,0,0:0:0:35:hihat.wav
329,192,44906,1,0,0:0:0:35:snare02.wav
36,192,44906,1,0,0:0:0:35:hihat.wav
36,192,45083,1,0,0:0:0:35:hihat.wav
36,192,45259,1,0,0:0:0:35:cymbol01.wav
256,192,45259,1,0,0:0:0:70:kick.wav
36,192,45612,1,0,0:0:0:40:hihat3.wav
402,192,45612,1,0,0:0:0:70:kick.wav
36,192,45965,1,0,0:0:0:40:hihat3.wav
402,192,45965,1,0,0:0:0:70:kick.wav
36,192,46318,1,0,0:0:0:40:hihat3.wav
402,192,46318,1,0,0:0:0:70:kick.wav
475,192,266171,5,0,0:0:0:0:
182,192,266465,1,0,0:0:0:0:
