osu file format v14

[General]
AudioFilename: audio.mp3
AudioLeadIn: 0
PreviewTime: 25827
Countdown: 0
SampleSet: Normal
StackLeniency: 0.7
Mode: 1
LetterboxInBreaks: 0
WidescreenStoryboard: 1

[Editor]
DistanceSpacing: 1.8
BeatDivisor: 4
GridSize: 16
TimelineZoom: 1

[Metadata]
Title:Happy Party Train!
TitleUnicode:Happy Party Train!
Artist:Aqours
ArtistUnicode:Aqours
Creator:SevenFrenzy
Version:Muzukashi
Source:Lovelive! Sunshine!!
Tags:
BeatmapID:1315128
BeatmapSetID:623963

[Difficulty]
HPDrainRate:8
CircleSize:5
OverallDifficulty:5
ApproachRate:7
SliderMultiplier:1.4
SliderTickRate:1

[Events]
//Background and Video events
0,0,"HPT.jpg",0,0
//Break Periods
//Storyboard Layer 0 (Background)
//Storyboard Layer 1 (Fail)
//Storyboard Layer 2 (Pass)
//Storyboard Layer 3 (Foreground)
//Storyboard Sound Samples

[TimingPoints]
3680,352.941176470588,4,1,0,60,1,0
84150,-100,4,1,0,70,0,1
106738,-100,4,1,0,60,0,0

[HitObjects]
256,192,3680,5,0,0:0:0:0:
256,192,4209,1,0,0:0:0:0:
256,192,5091,1,0,0:0:0:0:
256,192,5621,1,0,0:0:0:0:
256,192,6503,1,0,0:0:0:0:
256,192,7032,1,0,0:0:0:0:
256,192,7915,1,0,0:0:0:0:
256,192,8444,1,0,0:0:0:0:
224,48,9327,1,4,0:0:0:0:
224,48,9679,1,0,0:0:0:0:
224,48,9856,1,0,0:0:0:0:
224,48,10032,1,0,0:0:0:0:
224,48,10209,1,0,0:0:0:0:
224,48,10385,1,0,0:0:0:0:
224,48,10738,1,4,0:0:0:0:
224,48,11091,1,0,0:0:0:0:
224,48,11268,1,0,0:0:0:0:
224,48,11444,1,0,0:0:0:0:
224,48,11621,1,0,0:0:0:0:
224,48,11797,1,0,0:0:0:0:
224,48,12150,1,8,0:0:0:0:
224,48,12327,1,0,0:0:0:0:
224,48,12503,1,8,0:0:0:0:
224,48,12679,1,0,0:0:0:0:
224,48,12856,1,8,0:0:0:0:
224,48,13032,1,0,0:0:0:0:
224,48,13209,1,8,0:0:0:0:
224,48,13385,1,0,0:0:0:0:
224,48,13562,1,8,0:0:0:0:
176,112,14268,1,0,0:0:0:0:
176,112,14356,1,0,0:0:0:0:
176,112,14444,1,0,0:0:0:0:
176,112,14621,1,0,0:0:0:0:
176,112,14974,1,0,0:0:0:0:
176,112,15327,1,8,0:0:0:0:
176,112,15679,1,0,0:0:0:0:
176,112,16032,1,8,0:0:0:0:
176,112,16385,1,0,0:0:0:0:
176,112,16738,1,8,0:0:0:0:
176,112,17091,1,0,0:0:0:0:
176,112,17444,1,8,0:0:0:0:
176,112,17797,1,0,0:0:0:0:
176,112,17885,1,0,0:0:0:0:
176,112,17974,1,0,0:0:0:0:
176,112,18150,1,8,0:0:0:0:
176,112,18238,1,0,0:0:0:0:
176,112,18327,1,0,0:0:0:0:
176,112,18503,1,0,0:0:0:0:
176,112,18591,1,0,0:0:0:0:
176,112,18679,1,0,0:0:0:0:
176,112,18856,1,8,0:0:0:0:
176,112,18944,1,0,0:0:0:0:
176,112,19032,1,0,0:0:0:0:
176,112,19209,1,0,0:0:0:0:
176,112,19562,1,8,0:0:0:0:
176,112,19915,1,0,0:0:0:0:
176,112,20003,1,0,0:0:0:0:
176,112,20091,1,0,0:0:0:0:
176,112,20268,1,0,0:0:0:0:
176,112,20356,1,0,0:0:0:0:
176,112,20444,1,0,0:0:0:0:
176,112,20621,1,0,0:0:0:0:
176,112,20974,1,8,0:0:0:0:
176,112,21327,1,0,0:0:0:0:
176,112,21679,1,8,0:0:0:0:
176,112,22032,1,0,0:0:0:0:
176,112,22121,1,0,0:0:0:0:
176,112,22209,1,0,0:0:0:0:
176,112,22385,1,8,0:0:0:0:
176,112,22474,1,0,0:0:0:0:
176,112,22562,1,0,0:0:0:0:
176,112,22738,1,0,0:0:0:0:
176,112,23091,1,8,0:0:0:0:
176,112,23444,1,4,0:0:0:0:
176,112,23974,1,4,0:0:0:0:
176,112,24327,1,4,0:0:0:0:
176,112,24679,1,4,0:0:0:0:
176,112,25032,1,0,0:0:0:0:
176,112,25120,1,0,0:0:0:0:
176,112,25209,1,0,0:0:0:0:
384,256,25385,1,8,0:0:0:0:
384,256,25562,1,8,0:0:0:0:
384,256,25738,1,0,0:0:0:0:
384,256,25915,1,0,0:0:0:0:
112,160,26268,1,2,0:0:0:0:
112,160,26797,1,8,0:0:0:0:
112,160,26974,1,0,0:0:0:0:
112,160,27327,1,8,0:0:0:0:
112,160,27503,1,0,0:0:0:0:
112,160,27679,1,8,0:0:0:0:
112,160,28032,1,8,0:0:0:0:
112,160,28385,1,0,0:0:0:0:
112,160,28738,1,8,0:0:0:0:
112,160,29091,1,0,0:0:0:0:
112,160,29444,1,0,0:0:0:0:
112,160,29621,1,0,0:0:0:0:
112,160,29797,1,8,0:0:0:0:
112,160,30150,1,0,0:0:0:0:
112,160,30503,1,0,0:0:0:0:
112,160,30856,1,0,0:0:0:0:
112,160,31032,1,0,0:0:0:0:
112,160,31209,1,8,0:0:0:0:
112,160,31562,1,0,0:0:0:0:
112,160,31738,1,0,0:0:0:0:
112,160,31915,1,0,0:0:0:0:
112,160,32268,1,8,0:0:0:0:
112,160,32444,1,8,0:0:0:0:
112,160,32974,1,0,0:0:0:0:
112,160,33150,1,0,0:0:0:0:
112,160,33327,1,0,0:0:0:0:
112,160,33679,1,8,0:0:0:0:
112,160,33856,1,8,0:0:0:0:
176,256,34385,1,0,0:0:0:0:
176,256,34738,1,0,0:0:0:0:
176,256,35091,1,0,0:0:0:0:
176,256,35268,1,0,0:0:0:0:
176,256,35444,1,8,0:0:0:0:
176,256,35797,1,0,0:0:0:0:
176,256,36150,1,8,0:0:0:0:
176,256,36503,1,0,0:0:0:0:
176,256,36679,1,8,0:0:0:0:
176,256,37209,1,0,0:0:0:0:
176,256,37562,1,8,0:0:0:0:
176,256,37915,1,0,0:0:0:0:
176,256,38091,1,8,0:0:0:0:
176,256,38621,1,0,0:0:0:0:
176,256,38974,1,8,0:0:0:0:
176,256,39327,1,0,0:0:0:0:
176,256,39503,1,8,0:0:0:0:
176,256,40032,1,0,0:0:0:0:
176,256,40385,1,8,0:0:0:0:
176,256,40739,1,0,0:0:0:0:
176,256,40915,1,8,0:0:0:0:
176,256,41444,1,0,0:0:0:0:
176,256,41797,1,8,0:0:0:0:
176,256,42150,1,0,0:0:0:0:
176,256,42327,1,8,0:0:0:0:
144,96,42856,1,0,0:0:0:0:
144,96,43033,1,0,0:0:0:0:
144,96,43209,1,0,0:0:0:0:
144,96,43562,1,4,0:0:0:0:
144,96,43739,1,4,0:0:0:0:
144,96,44268,1,8,0:0:0:0:
144,96,44444,1,0,0:0:0:0:
144,96,44621,1,8,0:0:0:0:
144,96,44974,1,4,0:0:0:0:
144,96,45150,1,12,0:0:0:0:
144,96,45502,1,0,0:0:0:0:
144,96,45679,1,0,0:0:0:0:
144,96,45856,1,0,0:0:0:0:
144,96,46032,1,8,0:0:0:0:
144,96,46385,1,8,0:0:0:0:
144,96,46738,1,8,0:0:0:0:
144,96,47091,1,8,0:0:0:0:
144,96,47444,1,0,0:0:0:0:
144,96,47797,1,8,0:0:0:0:
144,96,47974,1,0,0:0:0:0:
144,96,48327,1,8,0:0:0:0:
144,96,48679,1,0,0:0:0:0:
144,96,48768,1,0,0:0:0:0:
144,96,48856,1,0,0:0:0:0:
256,128,49209,1,8,0:0:0:0:
256,128,49562,1,0,0:0:0:0:
256,128,49915,1,8,0:0:0:0:
256,128,50268,1,0,0:0:0:0:
256,128,50621,1,8,0:0:0:0:
256,128,50974,1,0,0:0:0:0:
256,128,51327,1,8,0:0:0:0:
256,128,51679,1,0,0:0:0:0:
256,128,52032,1,0,0:0:0:0:
256,128,52209,1,8,0:0:0:0:
256,128,52385,1,0,0:0:0:0:
256,128,52738,1,8,0:0:0:0:
256,128,53091,1,0,0:0:0:0:
256,128,53444,1,8,0:0:0:0:
256,128,53797,1,0,0:0:0:0:
256,128,54150,1,8,0:0:0:0:
256,128,54503,1,0,0:0:0:0:
256,128,54856,1,0,0:0:0:0:
256,128,55032,1,8,0:0:0:0:
256,128,55209,1,0,0:0:0:0:
256,128,55562,1,0,0:0:0:0:
256,128,55915,1,8,0:0:0:0:
256,128,56268,1,0,0:0:0:0:
256,128,56444,1,8,0:0:0:0:
256,128,56621,1,0,0:0:0:0:
256,128,56974,1,8,0:0:0:0:
256,128,57327,1,0,0:0:0:0:
256,128,57679,1,8,0:0:0:0:
256,128,57856,1,0,0:0:0:0:
256,128,58032,1,8,0:0:0:0:
256,128,58209,1,0,0:0:0:0:
256,128,58385,1,8,0:0:0:0:
256,128,58562,1,0,0:0:0:0:
256,128,58738,1,8,0:0:0:0:
256,224,58915,1,0,0:0:0:0:
256,224,59091,1,8,0:0:0:0:
256,224,59268,1,0,0:0:0:0:
256,224,59444,1,8,0:0:0:0:
256,224,59621,1,0,0:0:0:0:
256,224,59797,1,8,0:0:0:0:
256,224,59974,1,0,0:0:0:0:
256,224,60150,1,8,0:0:0:0:
256,224,60503,1,0,0:0:0:0:
256,224,60679,1,8,0:0:0:0:
256,224,60856,1,0,0:0:0:0:
256,224,61209,1,8,0:0:0:0:
256,224,61562,1,0,0:0:0:0:
256,224,61915,1,8,0:0:0:0:
256,224,62268,1,0,0:0:0:0:
256,224,62621,1,8,0:0:0:0:
256,224,62974,1,0,0:0:0:0:
256,224,63327,1,8,0:0:0:0:
256,224,63503,1,0,0:0:0:0:
256,224,63679,1,8,0:0:0:0:
256,224,64032,1,8,0:0:0:0:
256,224,64385,1,0,0:0:0:0:
256,224,64738,1,8,0:0:0:0:
256,224,64915,1,0,0:0:0:0:
256,224,65091,1,8,0:0:0:0:
256,224,65444,1,8,0:0:0:0:
256,224,65797,1,0,0:0:0:0:
256,224,66150,1,8,0:0:0:0:
256,224,66327,1,0,0:0:0:0:
256,224,66503,1,8,0:0:0:0:
256,224,66856,1,8,0:0:0:0:
256,224,67209,1,0,0:0:0:0:
256,224,67562,1,8,0:0:0:0:
256,224,67915,1,0,0:0:0:0:
256,224,68268,1,8,0:0:0:0:
256,224,68621,1,8,0:0:0:0:
256,224,68797,1,0,0:0:0:0:
256,224,68974,1,8,0:0:0:0:
256,224,69150,1,0,0:0:0:0:
256,224,69327,1,8,0:0:0:0:
256,224,69503,1,0,0:0:0:0:
256,224,69679,1,8,0:0:0:0:
256,224,69856,1,0,0:0:0:0:
256,224,70032,1,8,0:0:0:0:
256,224,70385,1,0,0:0:0:0:
256,224,70738,1,8,0:0:0:0:
256,224,71091,1,0,0:0:0:0:
192,144,71444,1,8,0:0:0:0:
192,144,71797,1,8,0:0:0:0:
192,144,72150,1,8,0:0:0:0:
192,144,72503,1,0,0:0:0:0:
192,144,72856,1,8,0:0:0:0:
192,144,73209,1,0,0:0:0:0:
192,144,73562,1,8,0:0:0:0:
192,144,73915,1,0,0:0:0:0:
192,144,74268,1,8,0:0:0:0:
192,144,74621,1,0,0:0:0:0:
192,144,74974,1,8,0:0:0:0:
192,144,75327,1,0,0:0:0:0:
192,144,75679,1,8,0:0:0:0:
192,144,76032,1,0,0:0:0:0:
192,144,76385,1,8,0:0:0:0:
192,144,76738,1,0,0:0:0:0:
192,144,77091,1,8,0:0:0:0:
192,144,77444,1,0,0:0:0:0:
192,144,77621,1,0,0:0:0:0:
192,144,78150,1,8,0:0:0:0:
192,144,78503,1,0,0:0:0:0:
192,144,78856,1,8,0:0:0:0:
192,144,79032,1,8,0:0:0:0:
192,144,79915,1,0,0:0:0:0:
192,144,80268,1,8,0:0:0:0:
192,144,80621,1,0,0:0:0:0:
192,144,80797,1,8,0:0:0:0:
192,144,80974,1,0,0:0:0:0:
192,144,81150,1,8,0:0:0:0:
192,144,81327,1,0,0:0:0:0:
192,144,81503,1,8,0:0:0:0:
192,144,81679,1,8,0:0:0:0:
192,144,81856,1,8,0:0:0:0:
192,144,82032,1,8,0:0:0:0:
192,144,82209,1,8,0:0:0:0:
192,144,82385,1,8,0:0:0:0:
192,144,82562,1,8,0:0:0:0:
192,144,82738,1,4,0:0:0:0:
192,144,83091,1,4,0:0:0:0:
288,272,83444,1,0,0:0:0:0:
288,272,83797,1,0,0:0:0:0:
288,256,84150,1,0,0:0:0:0:
288,256,84503,1,8,0:0:0:0:
288,256,84856,1,0,0:0:0:0:
288,256,85209,1,8,0:0:0:0:
288,256,85562,1,0,0:0:0:0:
288,256,85915,1,8,0:0:0:0:
288,256,86268,1,0,0:0:0:0:
288,256,86621,1,8,0:0:0:0:
288,256,86974,1,0,0:0:0:0:
288,256,87327,1,8,0:0:0:0:
288,256,87679,1,0,0:0:0:0:
288,256,88032,1,8,0:0:0:0:
288,256,88385,1,0,0:0:0:0:
288,256,88738,1,0,0:0:0:0:
288,256,88827,1,0,0:0:0:0:
288,256,88915,1,0,0:0:0:0:
288,256,89091,1,0,0:0:0:0:
288,256,89179,1,0,0:0:0:0:
288,256,89268,1,0,0:0:0:0:
288,256,89444,1,0,0:0:0:0:
160,160,89621,1,0,0:0:0:0:
160,160,89797,1,0,0:0:0:0:
160,160,90150,1,8,0:0:0:0:
160,160,90503,1,0,0:0:0:0:
160,160,90856,1,8,0:0:0:0:
160,160,91209,1,0,0:0:0:0:
160,160,91562,1,8,0:0:0:0:
160,160,91915,1,0,0:0:0:0:
160,160,92268,1,8,0:0:0:0:
160,160,92621,1,0,0:0:0:0:
160,160,93150,1,0,0:0:0:0:
160,160,93327,1,0,0:0:0:0:
160,160,93679,1,8,0:0:0:0:
160,160,94032,1,0,0:0:0:0:
160,160,94385,1,8,0:0:0:0:
160,160,94738,1,0,0:0:0:0:
160,160,95091,1,8,0:0:0:0:
160,160,95444,1,0,0:0:0:0:
160,160,95532,1,0,0:0:0:0:
160,160,95621,1,0,0:0:0:0:
160,160,95797,1,8,0:0:0:0:
160,160,96150,1,8,0:0:0:0:
160,160,96503,1,8,0:0:0:0:
160,160,96856,1,8,0:0:0:0:
160,160,97209,1,8,0:0:0:0:
160,160,97562,1,8,0:0:0:0:
160,160,97915,1,8,0:0:0:0:
160,160,98268,1,8,0:0:0:0:
160,160,98621,1,8,0:0:0:0:
160,160,98974,1,8,0:0:0:0:
160,160,99327,1,8,0:0:0:0:
160,160,99679,1,0,0:0:0:0:
160,160,100032,1,0,0:0:0:0:
160,160,100209,1,0,0:0:0:0:
160,160,100562,1,0,0:0:0:0:
160,160,101091,1,0,0:0:0:0:
240,96,101444,1,8,0:0:0:0:
240,96,101797,1,0,0:0:0:0:
240,96,102150,1,8,0:0:0:0:
240,96,102503,1,0,0:0:0:0:
240,96,102856,1,8,0:0:0:0:
272,224,103209,1,0,0:0:0:0:
272,224,103562,1,8,0:0:0:0:
272,224,103915,1,0,0:0:0:0:
272,224,104091,1,0,0:0:0:0:
272,224,104268,1,0,0:0:0:0:
272,224,104444,1,8,0:0:0:0:
272,224,104621,1,8,0:0:0:0:
272,224,104797,1,0,0:0:0:0:
272,224,104974,1,8,0:0:0:0:
272,224,105150,1,8,0:0:0:0:
272,224,105327,1,0,0:0:0:0:
272,224,105503,1,8,0:0:0:0:
272,224,105679,1,8,0:0:0:0:
272,224,105856,1,0,0:0:0:0:
272,224,106032,1,0,0:0:0:0:
272,224,106209,1,0,0:0:0:0:
272,224,106385,1,8,0:0:0:0:
272,224,106738,1,0,0:0:0:0:
272,224,107091,1,8,0:0:0:0:
272,224,107444,1,0,0:0:0:0:
272,224,107797,1,8,0:0:0:0:
272,224,108150,1,0,0:0:0:0:
272,224,108503,1,8,0:0:0:0:
272,224,108856,1,0,0:0:0:0:
272,224,109209,1,8,0:0:0:0:
272,224,109562,1,0,0:0:0:0:
272,224,109915,1,8,0:0:0:0:
272,224,110268,1,0,0:0:0:0:
272,224,110621,1,8,0:0:0:0:
272,224,110974,1,0,0:0:0:0:
272,224,111327,1,8,0:0:0:0:
272,224,111679,1,0,0:0:0:0:
272,224,111768,1,0,0:0:0:0:
272,224,111856,1,0,0:0:0:0:
272,224,112032,1,0,0:0:0:0:
272,224,112121,1,0,0:0:0:0:
272,224,112209,1,0,0:0:0:0:
272,224,112385,1,0,0:0:0:0:
272,224,112738,1,8,0:0:0:0:
272,224,113091,1,0,0:0:0:0:
272,224,113444,1,8,0:0:0:0:
272,224,113797,1,0,0:0:0:0:
272,224,114150,1,8,0:0:0:0:
272,224,114503,1,0,0:0:0:0:
272,224,114856,1,8,0:0:0:0:
272,224,115209,1,0,0:0:0:0:
272,224,115297,1,0,0:0:0:0:
272,224,115385,1,0,0:0:0:0:
272,224,115738,1,0,0:0:0:0:
272,224,116091,1,8,0:0:0:0:
272,224,116444,1,0,0:0:0:0:
