osu file format v14

[General]
AudioFilename: audio.mp3
AudioLeadIn: 0
PreviewTime: 25827
Countdown: 0
SampleSet: Normal
StackLeniency: 0.7
Mode: 1
LetterboxInBreaks: 0
WidescreenStoryboard: 1

[Editor]
DistanceSpacing: 1.8
BeatDivisor: 4
GridSize: 16
TimelineZoom: 1

[Metadata]
Title:Happy Party Train!
TitleUnicode:Happy Party Train!
Artist:Aqours
ArtistUnicode:Aqours
Creator:SevenFrenzy
Version:Inner Oni
Source:Lovelive! Sunshine!!
Tags:
BeatmapID:1315129
BeatmapSetID:623963

[Difficulty]
HPDrainRate:8
CircleSize:5
OverallDifficulty:6
ApproachRate:8.5
SliderMultiplier:1.4
SliderTickRate:1

[Events]
//Background and Video events
0,0,"HPT.jpg",0,0
//Break Periods
//Storyboard Layer 0 (Background)
//Storyboard Layer 1 (Fail)
//Storyboard Layer 2 (Pass)
//Storyboard Layer 3 (Foreground)
//Storyboard Sound Samples

[TimingPoints]
3680,352.941176470588,4,1,0,60,1,0
84150,-100,4,1,0,70,0,1
106738,-100,4,1,0,60,0,0

[HitObjects]
112,64,3680,5,0,0:0:0:0:
112,64,4209,1,8,0:0:0:0:
112,64,4385,1,0,0:0:0:0:
112,64,5091,1,0,0:0:0:0:
112,64,5621,1,8,0:0:0:0:
112,64,5797,1,0,0:0:0:0:
112,64,6503,1,0,0:0:0:0:
112,64,7032,1,8,0:0:0:0:
112,64,7209,1,0,0:0:0:0:
112,64,7915,1,0,0:0:0:0:
112,64,8444,1,8,0:0:0:0:
112,64,8621,1,0,0:0:0:0:
112,64,8797,1,0,0:0:0:0:
112,64,8974,1,8,0:0:0:0:
112,64,9150,1,0,0:0:0:0:
112,64,9327,1,0,0:0:0:0:
112,64,9503,1,0,0:0:0:0:
112,64,9679,1,0,0:0:0:0:
112,64,9856,1,0,0:0:0:0:
112,64,10032,1,0,0:0:0:0:
112,64,10209,1,0,0:0:0:0:
112,64,10385,1,0,0:0:0:0:
112,64,10562,1,0,0:0:0:0:
112,64,10738,1,0,0:0:0:0:
112,64,10915,1,0,0:0:0:0:
112,64,11091,1,0,0:0:0:0:
112,64,11268,1,0,0:0:0:0:
112,64,11444,1,0,0:0:0:0:
112,64,11621,1,0,0:0:0:0:
112,64,11797,1,0,0:0:0:0:
112,64,11974,1,0,0:0:0:0:
112,64,12150,1,8,0:0:0:0:
112,64,12327,1,0,0:0:0:0:
112,64,12503,1,8,0:0:0:0:
112,64,12679,1,0,0:0:0:0:
112,64,12856,1,8,0:0:0:0:
112,64,13032,1,0,0:0:0:0:
112,64,13209,1,8,0:0:0:0:
112,64,13385,1,0,0:0:0:0:
112,64,13562,1,10,0:0:0:0:
256,64,14268,1,0,0:0:0:0:
256,64,14356,1,8,0:0:0:0:
256,64,14444,1,0,0:0:0:0:
256,64,14621,1,8,0:0:0:0:
256,64,14797,1,0,0:0:0:0:
256,64,14885,1,0,0:0:0:0:
256,64,14974,1,8,0:0:0:0:
256,64,15150,1,8,0:0:0:0:
256,64,15327,1,0,0:0:0:0:
256,64,15503,1,0,0:0:0:0:
256,64,15591,1,0,0:0:0:0:
256,64,15679,1,8,0:0:0:0:
256,64,15856,1,0,0:0:0:0:
256,64,15944,1,0,0:0:0:0:
256,64,16032,1,8,0:0:0:0:
256,64,16209,1,0,0:0:0:0:
256,64,16297,1,0,0:0:0:0:
256,64,16385,1,8,0:0:0:0:
256,64,16562,1,0,0:0:0:0:
256,64,16738,1,8,0:0:0:0:
256,64,16915,1,0,0:0:0:0:
256,64,17003,1,0,0:0:0:0:
256,64,17091,1,8,0:0:0:0:
256,64,17268,1,0,0:0:0:0:
256,64,17444,1,8,0:0:0:0:
208,176,17621,1,0,0:0:0:0:
208,176,17709,1,0,0:0:0:0:
256,64,17797,1,8,0:0:0:0:
208,176,17974,1,0,0:0:0:0:
208,176,18062,1,0,0:0:0:0:
208,176,18150,1,8,0:0:0:0:
208,176,18327,1,0,0:0:0:0:
208,176,18415,1,0,0:0:0:0:
208,176,18503,1,8,0:0:0:0:
208,176,18679,1,0,0:0:0:0:
208,176,18856,1,8,0:0:0:0:
208,176,19032,1,0,0:0:0:0:
208,176,19209,1,8,0:0:0:0:
288,160,19385,1,0,0:0:0:0:
288,160,19562,1,8,0:0:0:0:
288,160,19650,1,0,0:0:0:0:
288,160,19738,1,0,0:0:0:0:
288,160,19915,1,8,0:0:0:0:
288,160,20003,1,0,0:0:0:0:
288,160,20091,1,0,0:0:0:0:
288,160,20268,1,8,0:0:0:0:
288,160,20356,1,0,0:0:0:0:
288,160,20444,1,0,0:0:0:0:
368,224,20621,1,0,0:0:0:0:
368,224,20709,1,0,0:0:0:0:
368,224,20797,1,0,0:0:0:0:
368,224,20974,1,8,0:0:0:0:
368,224,21150,1,0,0:0:0:0:
368,224,21238,1,0,0:0:0:0:
368,224,21327,1,0,0:0:0:0:
368,224,21503,1,0,0:0:0:0:
368,224,21679,1,8,0:0:0:0:
368,224,21856,1,0,0:0:0:0:
368,224,22032,1,8,0:0:0:0:
368,224,22209,1,0,0:0:0:0:
368,224,22385,1,8,0:0:0:0:
368,224,22562,1,0,0:0:0:0:
368,224,22738,1,8,0:0:0:0:
368,224,22915,1,0,0:0:0:0:
368,224,23091,1,8,0:0:0:0:
368,224,23268,1,0,0:0:0:0:
368,224,23444,1,8,0:0:0:0:
368,224,23532,1,0,0:0:0:0:
368,224,23621,1,0,0:0:0:0:
368,224,23797,1,8,0:0:0:0:
368,224,23974,1,0,0:0:0:0:
368,224,24150,1,0,0:0:0:0:
368,224,24327,1,8,0:0:0:0:
368,224,24503,1,0,0:0:0:0:
368,224,24679,1,8,0:0:0:0:
368,224,24856,1,0,0:0:0:0:
368,224,25032,1,0,0:0:0:0:
368,224,25121,1,0,0:0:0:0:
368,224,25209,1,8,0:0:0:0:
368,224,25385,1,0,0:0:0:0:
368,224,25474,1,0,0:0:0:0:
368,224,25562,1,8,0:0:0:0:
368,224,25738,1,0,0:0:0:0:
368,224,25915,1,8,0:0:0:0:
368,224,26091,1,0,0:0:0:0:
368,224,26268,1,12,0:0:0:0:
256,64,26621,1,4,0:0:0:0:
256,64,26974,1,12,0:0:0:0:
256,64,27327,1,8,0:0:0:0:
256,64,27503,1,0,0:0:0:0:
256,64,27679,1,8,0:0:0:0:
256,64,28032,1,0,0:0:0:0:
256,64,28209,1,8,0:0:0:0:
256,64,28385,1,0,0:0:0:0:
256,64,28738,1,8,0:0:0:0:
256,64,29091,1,0,0:0:0:0:
256,64,29444,1,8,0:0:0:0:
256,64,29621,1,0,0:0:0:0:
256,64,29797,1,8,0:0:0:0:
256,64,30150,1,0,0:0:0:0:
256,64,30503,1,8,0:0:0:0:
256,64,30856,1,0,0:0:0:0:
256,64,31032,1,8,0:0:0:0:
256,64,31209,1,0,0:0:0:0:
256,64,31562,1,8,0:0:0:0:
256,64,31915,1,0,0:0:0:0:
256,64,32268,1,8,0:0:0:0:
256,64,32444,1,0,0:0:0:0:
256,64,32621,1,8,0:0:0:0:
256,64,32974,1,8,0:0:0:0:
256,64,33327,1,0,0:0:0:0:
256,64,33679,1,8,0:0:0:0:
256,64,33856,1,0,0:0:0:0:
256,64,34032,1,8,0:0:0:0:
256,64,34385,1,0,0:0:0:0:
256,64,34738,1,8,0:0:0:0:
256,64,35091,1,0,0:0:0:0:
256,64,35268,1,8,0:0:0:0:
256,64,35444,1,0,0:0:0:0:
256,64,35621,1,8,0:0:0:0:
256,64,35797,1,0,0:0:0:0:
256,64,35974,1,8,0:0:0:0:
256,64,36150,1,0,0:0:0:0:
256,64,36503,1,0,0:0:0:0:
256,64,36856,1,12,0:0:0:0:
256,64,37209,1,0,0:0:0:0:
256,64,37562,1,8,0:0:0:0:
256,64,37738,1,0,0:0:0:0:
256,64,37915,1,8,0:0:0:0:
256,64,38091,1,0,0:0:0:0:
256,64,38268,1,8,0:0:0:0:
256,64,38444,1,0,0:0:0:0:
256,64,38621,1,8,0:0:0:0:
256,64,38797,1,0,0:0:0:0:
256,64,38885,1,0,0:0:0:0:
256,64,38974,1,8,0:0:0:0:
256,64,39150,1,0,0:0:0:0:
256,64,39327,1,8,0:0:0:0:
256,64,39503,1,0,0:0:0:0:
256,64,39679,1,8,0:0:0:0:
256,64,39856,1,0,0:0:0:0:
256,64,40032,1,8,0:0:0:0:
256,64,40209,1,0,0:0:0:0:
256,64,40385,1,8,0:0:0:0:
208,160,40562,1,0,0:0:0:0:
208,160,40738,1,8,0:0:0:0:
208,160,40915,1,0,0:0:0:0:
208,160,41091,1,8,0:0:0:0:
208,160,41268,1,0,0:0:0:0:
208,160,41444,1,8,0:0:0:0:
208,160,41621,1,0,0:0:0:0:
208,160,41709,1,0,0:0:0:0:
208,160,41797,1,8,0:0:0:0:
176,176,41974,1,0,0:0:0:0:
176,176,42150,1,8,0:0:0:0:
176,176,42327,1,0,0:0:0:0:
176,176,42503,1,8,0:0:0:0:
176,176,42679,1,0,0:0:0:0:
176,176,42856,1,8,0:0:0:0:
176,176,43032,1,0,0:0:0:0:
128,96,43209,1,8,0:0:0:0:
128,96,43385,1,0,0:0:0:0:
128,96,43562,1,8,0:0:0:0:
128,96,43738,1,0,0:0:0:0:
128,96,43915,1,8,0:0:0:0:
128,96,44091,1,0,0:0:0:0:
128,96,44179,1,0,0:0:0:0:
128,96,44267,1,8,0:0:0:0:
128,96,44444,1,0,0:0:0:0:
128,96,44620,1,8,0:0:0:0:
128,96,44797,1,0,0:0:0:0:
128,96,44973,1,8,0:0:0:0:
128,96,45150,1,0,0:0:0:0:
128,96,45326,1,8,0:0:0:0:
128,96,45503,1,0,0:0:0:0:
128,96,45679,1,8,0:0:0:0:
128,96,45856,1,0,0:0:0:0:
128,96,46032,1,8,0:0:0:0:
128,96,46209,1,0,0:0:0:0:
128,96,46385,1,0,0:0:0:0:
128,96,46561,1,0,0:0:0:0:
128,96,46738,1,0,0:0:0:0:
128,96,46915,1,0,0:0:0:0:
128,96,47091,1,0,0:0:0:0:
128,96,47268,1,0,0:0:0:0:
128,96,47356,1,0,0:0:0:0:
128,96,47444,1,8,0:0:0:0:
128,96,47974,1,10,0:0:0:0:
128,96,48327,1,10,0:0:0:0:
272,128,48679,1,0,0:0:0:0:
272,128,48768,1,0,0:0:0:0:
272,128,48856,1,8,0:0:0:0:
176,160,49032,1,0,0:0:0:0:
176,160,49209,1,0,0:0:0:0:
176,160,49385,1,8,0:0:0:0:
176,160,49562,1,8,0:0:0:0:
176,160,49738,1,0,0:0:0:0:
176,160,49915,1,0,0:0:0:0:
176,160,50091,1,8,0:0:0:0:
176,160,50268,1,8,0:0:0:0:
176,160,50444,1,0,0:0:0:0:
176,160,50621,1,8,0:0:0:0:
224,32,50797,1,0,0:0:0:0:
224,32,50974,1,8,0:0:0:0:
224,32,51150,1,0,0:0:0:0:
224,32,51327,1,8,0:0:0:0:
256,112,51503,1,0,0:0:0:0:
256,112,51679,1,8,0:0:0:0:
256,112,51856,1,0,0:0:0:0:
256,112,52032,1,8,0:0:0:0:
256,112,52209,1,0,0:0:0:0:
256,112,52385,1,8,0:0:0:0:
256,112,52562,1,0,0:0:0:0:
256,112,52738,1,8,0:0:0:0:
256,112,52915,1,0,0:0:0:0:
256,112,53091,1,8,0:0:0:0:
256,112,53268,1,0,0:0:0:0:
256,112,53444,1,8,0:0:0:0:
256,112,53620,1,0,0:0:0:0:
256,112,53797,1,8,0:0:0:0:
256,112,53973,1,0,0:0:0:0:
256,112,54062,1,0,0:0:0:0:
256,112,54150,1,8,0:0:0:0:
256,112,54326,1,0,0:0:0:0:
256,112,54503,1,8,0:0:0:0:
192,112,54679,1,0,0:0:0:0:
192,112,54856,1,8,0:0:0:0:
192,112,55032,1,0,0:0:0:0:
192,112,55209,1,8,0:0:0:0:
192,112,55386,1,0,0:0:0:0:
192,112,55563,1,8,0:0:0:0:
192,112,55739,1,0,0:0:0:0:
192,112,55916,1,8,0:0:0:0:
192,112,56092,1,0,0:0:0:0:
192,112,56268,1,8,0:0:0:0:
192,112,56445,1,0,0:0:0:0:
192,112,56621,1,8,0:0:0:0:
192,112,56798,1,0,0:0:0:0:
192,112,56974,1,8,0:0:0:0:
192,112,57151,1,0,0:0:0:0:
192,112,57327,1,8,0:0:0:0:
192,112,57503,1,0,0:0:0:0:
192,112,57679,1,8,0:0:0:0:
192,112,57855,1,0,0:0:0:0:
192,112,57944,1,0,0:0:0:0:
192,112,58032,1,8,0:0:0:0:
320,176,58209,1,0,0:0:0:0:
320,176,58386,1,0,0:0:0:0:
320,176,58562,1,0,0:0:0:0:
320,176,58739,1,0,0:0:0:0:
192,96,58915,1,0,0:0:0:0:
192,96,59091,1,0,0:0:0:0:
192,96,59267,1,0,0:0:0:0:
192,96,59356,1,0,0:0:0:0:
192,96,59444,1,8,0:0:0:0:
192,96,59532,1,0,0:0:0:0:
192,96,59620,1,0,0:0:0:0:
192,96,59709,1,0,0:0:0:0:
192,96,59797,1,8,0:0:0:0:
192,96,59885,1,0,0:0:0:0:
192,96,59974,1,0,0:0:0:0:
192,96,60150,1,8,0:0:0:0:
192,96,60327,1,0,0:0:0:0:
192,96,60503,1,8,0:0:0:0:
192,96,60679,1,0,0:0:0:0:
192,96,60856,1,8,0:0:0:0:
192,96,61032,1,0,0:0:0:0:
192,96,61209,1,8,0:0:0:0:
192,96,61385,1,0,0:0:0:0:
192,96,61474,1,0,0:0:0:0:
192,96,61562,1,8,0:0:0:0:
192,96,61738,1,0,0:0:0:0:
192,96,61915,1,8,0:0:0:0:
288,192,62091,1,0,0:0:0:0:
288,192,62268,1,8,0:0:0:0:
288,192,62444,1,0,0:0:0:0:
288,192,62621,1,8,0:0:0:0:
288,192,62797,1,0,0:0:0:0:
288,192,62974,1,8,0:0:0:0:
288,192,63150,1,0,0:0:0:0:
288,192,63327,1,8,0:0:0:0:
288,192,63503,1,0,0:0:0:0:
288,192,63679,1,8,0:0:0:0:
288,192,63856,1,0,0:0:0:0:
288,192,64032,1,8,0:0:0:0:
288,192,64209,1,0,0:0:0:0:
288,192,64297,1,0,0:0:0:0:
288,192,64385,1,8,0:0:0:0:
288,192,64562,1,0,0:0:0:0:
288,192,64738,1,8,0:0:0:0:
288,192,64915,1,0,0:0:0:0:
288,192,65092,1,8,0:0:0:0:
288,192,65268,1,0,0:0:0:0:
288,192,65445,1,8,0:0:0:0:
288,192,65621,1,0,0:0:0:0:
288,192,65797,1,8,0:0:0:0:
288,192,65974,1,0,0:0:0:0:
288,192,66150,1,0,0:0:0:0:
288,192,66327,1,0,0:0:0:0:
288,192,66503,1,0,0:0:0:0:
288,192,66679,1,0,0:0:0:0:
288,192,66856,1,0,0:0:0:0:
288,192,67032,1,0,0:0:0:0:
288,192,67209,1,8,0:0:0:0:
288,192,67385,1,0,0:0:0:0:
288,192,67562,1,8,0:0:0:0:
288,192,67738,1,0,0:0:0:0:
288,192,67915,1,8,0:0:0:0:
288,192,68091,1,0,0:0:0:0:
288,192,68268,1,8,0:0:0:0:
288,192,68444,1,0,0:0:0:0:
288,192,68621,1,8,0:0:0:0:
288,192,68797,1,0,0:0:0:0:
288,192,68885,1,0,0:0:0:0:
288,192,68973,1,0,0:0:0:0:
288,192,69150,1,0,0:0:0:0:
288,192,69326,1,0,0:0:0:0:
288,192,69503,1,0,0:0:0:0:
288,192,69679,1,0,0:0:0:0:
288,192,69855,1,0,0:0:0:0:
288,192,69943,1,0,0:0:0:0:
288,192,70032,1,8,0:0:0:0:
288,192,70208,1,0,0:0:0:0:
288,192,70296,1,0,0:0:0:0:
288,192,70385,1,8,0:0:0:0:
288,192,70561,1,0,0:0:0:0:
288,192,70649,1,0,0:0:0:0:
288,192,70738,1,8,0:0:0:0:
288,192,71091,1,0,0:0:0:0:
288,192,71444,1,8,0:0:0:0:
288,192,71797,1,0,0:0:0:0:
288,192,72150,1,8,0:0:0:0:
288,192,72503,1,0,0:0:0:0:
288,192,72856,1,8,0:0:0:0:
288,192,73032,1,0,0:0:0:0:
288,192,73209,1,8,0:0:0:0:
288,192,73385,1,0,0:0:0:0:
288,192,73562,1,8,0:0:0:0:
288,192,73738,1,0,0:0:0:0:
288,192,73915,1,8,0:0:0:0:
288,192,74091,1,0,0:0:0:0:
288,192,74268,1,8,0:0:0:0:
288,192,74444,1,0,0:0:0:0:
288,192,74621,1,8,0:0:0:0:
288,192,74797,1,0,0:0:0:0:
288,192,74974,1,0,0:0:0:0:
288,192,75150,1,0,0:0:0:0:
288,192,75327,1,8,0:0:0:0:
288,192,75503,1,0,0:0:0:0:
288,192,75679,1,8,0:0:0:0:
288,192,75856,1,0,0:0:0:0:
288,192,76032,1,8,0:0:0:0:
288,192,76209,1,0,0:0:0:0:
288,192,76297,1,0,0:0:0:0:
288,192,76385,1,8,0:0:0:0:
96,80,76562,1,0,0:0:0:0:
96,80,76739,1,0,0:0:0:0:
96,80,76915,1,0,0:0:0:0:
96,80,77091,1,0,0:0:0:0:
96,80,77268,1,8,0:0:0:0:
96,80,77445,1,0,0:0:0:0:
96,80,77621,1,0,0:0:0:0:
96,80,77797,1,0,0:0:0:0:
96,80,77885,1,0,0:0:0:0:
96,80,77974,1,0,0:0:0:0:
96,80,78150,1,8,0:0:0:0:
96,80,78327,1,0,0:0:0:0:
96,80,78503,1,8,0:0:0:0:
96,80,78679,1,0,0:0:0:0:
96,80,78856,1,8,0:0:0:0:
96,80,79032,1,8,0:0:0:0:
96,80,79209,1,0,0:0:0:0:
96,80,79297,1,0,0:0:0:0:
96,80,79385,1,8,0:0:0:0:
96,80,79562,1,0,0:0:0:0:
96,80,79738,1,8,0:0:0:0:
96,80,79915,1,0,0:0:0:0:
96,80,80091,1,8,0:0:0:0:
96,80,80268,1,0,0:0:0:0:
96,80,80444,1,8,0:0:0:0:
96,80,80621,1,0,0:0:0:0:
96,80,80797,1,8,0:0:0:0:
96,80,80974,1,0,0:0:0:0:
96,80,81150,1,8,0:0:0:0:
96,80,81327,1,0,0:0:0:0:
96,80,81415,1,0,0:0:0:0:
96,80,81503,1,0,0:0:0:0:
96,80,81591,1,0,0:0:0:0:
96,80,81679,1,0,0:0:0:0:
96,80,81768,1,0,0:0:0:0:
96,80,81856,1,0,0:0:0:0:
96,80,81944,1,0,0:0:0:0:
96,80,82032,1,0,0:0:0:0:
96,80,82121,1,0,0:0:0:0:
96,80,82209,1,0,0:0:0:0:
96,80,82297,1,0,0:0:0:0:
96,80,82385,1,0,0:0:0:0:
96,80,82474,1,0,0:0:0:0:
96,80,82562,1,0,0:0:0:0:
96,80,82738,1,8,0:0:0:0:
96,80,82915,1,8,0:0:0:0:
96,80,83091,1,8,0:0:0:0:
224,144,83444,1,0,0:0:0:0:
224,144,83797,1,8,0:0:0:0:
224,144,84150,1,0,0:0:0:0:
224,144,84327,1,8,0:0:0:0:
224,144,84415,1,0,0:0:0:0:
224,144,84503,1,8,0:0:0:0:
224,144,84679,1,0,0:0:0:0:
224,144,84856,1,8,0:0:0:0:
224,144,85032,1,0,0:0:0:0:
224,144,85121,1,8,0:0:0:0:
224,144,85209,1,0,0:0:0:0:
224,144,85385,1,8,0:0:0:0:
224,144,85562,1,0,0:0:0:0:
224,144,85738,1,8,0:0:0:0:
224,144,85827,1,0,0:0:0:0:
224,144,85915,1,8,0:0:0:0:
224,144,86091,1,0,0:0:0:0:
224,144,86268,1,8,0:0:0:0:
224,144,86444,1,0,0:0:0:0:
224,144,86532,1,0,0:0:0:0:
224,144,86621,1,8,0:0:0:0:
224,144,86797,1,0,0:0:0:0:
224,144,86974,1,8,0:0:0:0:
224,144,87150,1,0,0:0:0:0:
224,144,87239,1,8,0:0:0:0:
224,144,87327,1,0,0:0:0:0:
304,176,87503,1,0,0:0:0:0:
304,176,87679,1,8,0:0:0:0:
304,176,87856,1,0,0:0:0:0:
304,176,88032,1,8,0:0:0:0:
304,176,88209,1,0,0:0:0:0:
304,176,88385,1,8,0:0:0:0:
304,176,88474,1,0,0:0:0:0:
304,176,88562,1,8,0:0:0:0:
304,176,88738,1,0,0:0:0:0:
304,176,88827,1,0,0:0:0:0:
304,176,88915,1,0,0:0:0:0:
304,176,89003,1,0,0:0:0:0:
304,176,89091,1,0,0:0:0:0:
304,176,89179,1,0,0:0:0:0:
304,176,89268,1,0,0:0:0:0:
304,176,89356,1,0,0:0:0:0:
304,176,89444,1,0,0:0:0:0:
304,176,89532,1,0,0:0:0:0:
304,176,89621,1,8,0:0:0:0:
304,176,89797,1,0,0:0:0:0:
304,176,89974,1,0,0:0:0:0:
304,176,90062,1,8,0:0:0:0:
304,176,90150,1,0,0:0:0:0:
304,176,90327,1,8,0:0:0:0:
304,176,90503,1,0,0:0:0:0:
304,176,90679,1,8,0:0:0:0:
304,176,90768,1,0,0:0:0:0:
304,176,90856,1,8,0:0:0:0:
304,176,91032,1,0,0:0:0:0:
304,176,91209,1,8,0:0:0:0:
304,176,91385,1,0,0:0:0:0:
304,176,91562,1,8,0:0:0:0:
304,176,91650,1,0,0:0:0:0:
304,176,91738,1,0,0:0:0:0:
304,176,91915,1,0,0:0:0:0:
304,176,92091,1,8,0:0:0:0:
304,176,92268,1,0,0:0:0:0:
304,176,92444,1,0,0:0:0:0:
304,176,92621,1,0,0:0:0:0:
304,176,92797,1,8,0:0:0:0:
304,176,92974,1,8,0:0:0:0:
304,176,93150,1,8,0:0:0:0:
304,176,93327,1,0,0:0:0:0:
208,272,93503,1,8,0:0:0:0:
208,272,93679,1,0,0:0:0:0:
208,272,93855,1,0,0:0:0:0:
208,272,94032,1,0,0:0:0:0:
208,272,94208,1,8,0:0:0:0:
208,272,94385,1,0,0:0:0:0:
208,272,94562,1,0,0:0:0:0:
208,272,94738,1,0,0:0:0:0:
208,272,94915,1,8,0:0:0:0:
208,272,95091,1,0,0:0:0:0:
208,272,95268,1,8,0:0:0:0:
208,272,95444,1,0,0:0:0:0:
208,272,95621,1,8,0:0:0:0:
208,272,95709,1,0,0:0:0:0:
208,272,95797,1,8,0:0:0:0:
208,272,95974,1,0,0:0:0:0:
208,272,96150,1,8,0:0:0:0:
208,272,96327,1,0,0:0:0:0:
208,272,96503,1,8,0:0:0:0:
208,272,96680,1,0,0:0:0:0:
208,272,96856,1,8,0:0:0:0:
208,272,97033,1,0,0:0:0:0:
208,272,97209,1,8,0:0:0:0:
208,272,97297,1,0,0:0:0:0:
208,272,97385,1,8,0:0:0:0:
208,272,97562,1,0,0:0:0:0:
208,272,97739,1,8,0:0:0:0:
208,272,97915,1,0,0:0:0:0:
208,272,98092,1,8,0:0:0:0:
208,272,98268,1,0,0:0:0:0:
208,272,98445,1,8,0:0:0:0:
208,272,98621,1,0,0:0:0:0:
208,272,98798,1,8,0:0:0:0:
208,272,98886,1,0,0:0:0:0:
208,272,98974,1,0,0:0:0:0:
208,272,99151,1,0,0:0:0:0:
208,272,99239,1,0,0:0:0:0:
208,272,99327,1,8,0:0:0:0:
208,272,99503,1,0,0:0:0:0:
208,272,99679,1,0,0:0:0:0:
208,272,99856,1,0,0:0:0:0:
208,272,100032,1,0,0:0:0:0:
208,272,100209,1,8,0:0:0:0:
208,272,100385,1,0,0:0:0:0:
208,272,100562,1,8,0:0:0:0:
208,272,100738,1,0,0:0:0:0:
208,272,100915,1,8,0:0:0:0:
208,272,101091,1,0,0:0:0:0:
208,272,101268,1,0,0:0:0:0:
208,272,101356,1,0,0:0:0:0:
208,272,101444,1,0,0:0:0:0:
208,272,101621,1,0,0:0:0:0:
208,272,101709,1,0,0:0:0:0:
208,272,101797,1,0,0:0:0:0:
208,272,101974,1,0,0:0:0:0:
208,272,102150,1,8,0:0:0:0:
208,272,102327,1,0,0:0:0:0:
208,272,102503,1,8,0:0:0:0:
208,272,102680,1,0,0:0:0:0:
208,272,102856,1,8,0:0:0:0:
208,272,103032,1,0,0:0:0:0:
208,272,103121,1,0,0:0:0:0:
208,272,103209,1,8,0:0:0:0:
208,272,103386,1,0,0:0:0:0:
208,272,103474,1,0,0:0:0:0:
208,272,103562,1,8,0:0:0:0:
208,272,103739,1,0,0:0:0:0:
208,272,103827,1,0,0:0:0:0:
208,272,103915,1,8,0:0:0:0:
208,272,104091,1,0,0:0:0:0:
208,272,104180,1,0,0:0:0:0:
208,272,104268,1,8,0:0:0:0:
208,272,104444,1,0,0:0:0:0:
240,96,104621,1,8,0:0:0:0:
240,96,104797,1,0,0:0:0:0:
240,96,104974,1,8,0:0:0:0:
240,96,105150,1,0,0:0:0:0:
240,96,105327,1,8,0:0:0:0:
240,96,105503,1,0,0:0:0:0:
240,96,105679,1,8,0:0:0:0:
240,96,105768,1,0,0:0:0:0:
240,96,105856,1,0,0:0:0:0:
240,96,105944,1,0,0:0:0:0:
240,96,106032,1,0,0:0:0:0:
240,96,106121,1,0,0:0:0:0:
240,96,106209,1,0,0:0:0:0:
240,96,106297,1,0,0:0:0:0:
240,96,106385,1,0,0:0:0:0:
240,96,106474,1,0,0:0:0:0:
240,96,106562,1,0,0:0:0:0:
240,96,106650,1,0,0:0:0:0:
240,96,106738,1,8,0:0:0:0:
128,96,106914,1,0,0:0:0:0:
128,96,107090,1,8,0:0:0:0:
128,96,107267,1,0,0:0:0:0:
128,96,107444,1,8,0:0:0:0:
128,96,107621,1,0,0:0:0:0:
128,96,107797,1,8,0:0:0:0:
128,96,107974,1,0,0:0:0:0:
128,96,108150,1,8,0:0:0:0:
128,96,108326,1,0,0:0:0:0:
128,96,108502,1,8,0:0:0:0:
128,96,108679,1,0,0:0:0:0:
128,96,108855,1,8,0:0:0:0:
128,96,109032,1,0,0:0:0:0:
128,96,109209,1,8,0:0:0:0:
128,96,109386,1,0,0:0:0:0:
128,96,109562,1,8,0:0:0:0:
128,96,109650,1,0,0:0:0:0:
128,96,109739,1,0,0:0:0:0:
128,96,109915,1,8,0:0:0:0:
128,96,110003,1,0,0:0:0:0:
128,96,110091,1,0,0:0:0:0:
128,96,110268,1,8,0:0:0:0:
128,96,110444,1,0,0:0:0:0:
128,96,110621,1,8,0:0:0:0:
128,96,110797,1,0,0:0:0:0:
128,96,110974,1,8,0:0:0:0:
128,96,111150,1,0,0:0:0:0:
128,96,111327,1,8,0:0:0:0:
128,96,111503,1,0,0:0:0:0:
128,96,111679,1,8,0:0:0:0:
128,96,111768,1,0,0:0:0:0:
128,96,111856,1,0,0:0:0:0:
128,96,112032,1,0,0:0:0:0:
128,96,112121,1,0,0:0:0:0:
128,96,112209,1,8,0:0:0:0:
128,96,112385,1,8,0:0:0:0:
128,96,112562,1,0,0:0:0:0:
128,96,112738,1,8,0:0:0:0:
128,96,112915,1,0,0:0:0:0:
128,96,113091,1,8,0:0:0:0:
128,96,113268,1,0,0:0:0:0:
128,96,113444,1,8,0:0:0:0:
128,96,113621,1,0,0:0:0:0:
128,96,113797,1,8,0:0:0:0:
128,96,113974,1,0,0:0:0:0:
128,96,114150,1,8,0:0:0:0:
128,96,114326,1,0,0:0:0:0:
128,96,114503,1,8,0:0:0:0:
128,96,114679,1,0,0:0:0:0:
128,96,114856,1,8,0:0:0:0:
128,96,115032,1,0,0:0:0:0:
128,96,115209,1,0,0:0:0:0:
128,96,115297,1,0,0:0:0:0:
128,96,115385,1,8,0:0:0:0:
128,96,115562,1,0,0:0:0:0:
128,96,115738,1,0,0:0:0:0:
128,96,115915,1,0,0:0:0:0:
128,96,116090,1,0,0:0:0:0:
128,96,116179,1,0,0:0:0:0:
128,96,116267,1,0,0:0:0:0:
128,96,116444,1,0,0:0:0:0:
