osu file format v14

[General]
AudioFilename: audio.mp3
AudioLeadIn: 0
PreviewTime: 25827
Countdown: 0
SampleSet: None
StackLeniency: 0.7
Mode: 1
LetterboxInBreaks: 0
WidescreenStoryboard: 1

[Editor]
DistanceSpacing: 1.8
BeatDivisor: 4
GridSize: 16
TimelineZoom: 1

[Metadata]
Title:Happy Party Train!
TitleUnicode:Happy Party Train!
Artist:Aqours
ArtistUnicode:Aqours
Creator:SevenFrenzy
Version:Futsuu
Source:Lovelive! Sunshine!!
Tags:
BeatmapID:1315126
BeatmapSetID:623963

[Difficulty]
HPDrainRate:8
CircleSize:5
OverallDifficulty:3
ApproachRate:5
SliderMultiplier:1.4
SliderTickRate:1

[Events]
//Background and Video events
0,0,"HPT.jpg",0,0
//Break Periods
//Storyboard Layer 0 (Background)
//Storyboard Layer 1 (Fail)
//Storyboard Layer 2 (Pass)
//Storyboard Layer 3 (Foreground)
//Storyboard Sound Samples

[TimingPoints]
3680,352.941176470588,4,1,0,60,1,0
84150,-100,4,1,0,70,0,1
106738,-100,4,1,0,60,0,0

[HitObjects]
144,112,3680,5,0,0:0:0:0:
144,112,5091,1,0,0:0:0:0:
144,112,6503,1,0,0:0:0:0:
144,112,7915,1,0,0:0:0:0:
144,112,9327,1,0,0:0:0:0:
144,112,9679,1,0,0:0:0:0:
144,112,10032,1,0,0:0:0:0:
144,112,10385,1,0,0:0:0:0:
144,112,10738,1,0,0:0:0:0:
144,112,11091,1,0,0:0:0:0:
144,112,11444,1,0,0:0:0:0:
144,112,11797,1,0,0:0:0:0:
144,112,12150,1,8,0:0:0:0:
144,112,12503,1,0,0:0:0:0:
144,112,12856,1,8,0:0:0:0:
144,112,13209,1,0,0:0:0:0:
144,112,13562,1,8,0:0:0:0:
144,112,14268,1,8,0:0:0:0:
144,112,14621,1,8,0:0:0:0:
144,112,14974,1,4,0:0:0:0:
144,112,15679,1,0,0:0:0:0:
144,112,16385,1,0,0:0:0:0:
144,112,16738,1,0,0:0:0:0:
144,112,17091,1,0,0:0:0:0:
144,112,17444,1,0,0:0:0:0:
144,112,17797,1,0,0:0:0:0:
144,112,18150,1,8,0:0:0:0:
144,112,18503,1,0,0:0:0:0:
144,112,18856,1,8,0:0:0:0:
144,112,19209,1,0,0:0:0:0:
144,112,19915,1,0,0:0:0:0:
144,112,20268,1,0,0:0:0:0:
144,112,20621,1,10,0:0:0:0:
144,112,21327,1,0,0:0:0:0:
144,112,22032,1,0,0:0:0:0:
144,112,22385,1,0,0:0:0:0:
144,112,22738,1,0,0:0:0:0:
144,112,23091,1,0,0:0:0:0:
144,112,23444,1,8,0:0:0:0:
144,112,23974,1,0,0:0:0:0:
144,112,24327,1,8,0:0:0:0:
144,112,24679,1,8,0:0:0:0:
240,192,25915,1,4,0:0:0:0:
240,192,26268,1,8,0:0:0:0:
240,192,26797,1,8,0:0:0:0:
176,112,27327,1,0,0:0:0:0:
144,144,27679,1,8,0:0:0:0:
240,192,28209,1,8,0:0:0:0:
240,192,28738,1,0,0:0:0:0:
240,192,29091,1,8,0:0:0:0:
240,192,29621,1,0,0:0:0:0:
240,192,30150,1,8,0:0:0:0:
240,192,30503,1,0,0:0:0:0:
240,192,31032,1,0,0:0:0:0:
240,192,31562,1,8,0:0:0:0:
240,192,31915,1,0,0:0:0:0:
240,192,32444,1,0,0:0:0:0:
240,192,32974,1,8,0:0:0:0:
240,192,33327,1,0,0:0:0:0:
240,192,33856,1,0,0:0:0:0:
240,192,34385,1,8,0:0:0:0:
240,192,34738,1,0,0:0:0:0:
240,192,35268,1,0,0:0:0:0:
240,192,35797,1,8,0:0:0:0:
240,192,36150,1,0,0:0:0:0:
240,192,36679,1,0,0:0:0:0:
144,224,37209,1,8,0:0:0:0:
144,224,37562,1,0,0:0:0:0:
144,224,38091,1,0,0:0:0:0:
144,224,38621,1,8,0:0:0:0:
144,224,38974,1,0,0:0:0:0:
144,224,39503,1,0,0:0:0:0:
144,224,40032,1,8,0:0:0:0:
144,224,40385,1,0,0:0:0:0:
144,224,40915,1,0,0:0:0:0:
144,224,41444,1,8,0:0:0:0:
144,224,41797,1,0,0:0:0:0:
144,224,42327,1,0,0:0:0:0:
144,224,42856,1,8,0:0:0:0:
144,224,43209,1,0,0:0:0:0:
144,224,43738,1,0,0:0:0:0:
144,224,44268,1,8,0:0:0:0:
144,224,44621,1,0,0:0:0:0:
144,224,45150,1,0,0:0:0:0:
144,224,45679,1,8,0:0:0:0:
144,224,46032,1,0,0:0:0:0:
144,224,46562,1,0,0:0:0:0:
144,224,47091,1,8,0:0:0:0:
144,224,47444,1,0,0:0:0:0:
144,224,47974,1,8,0:0:0:0:
144,224,48327,1,0,0:0:0:0:
144,224,48856,1,8,0:0:0:0:
192,224,49209,1,0,0:0:0:0:
192,224,49562,1,8,0:0:0:0:
192,224,49915,1,0,0:0:0:0:
192,224,50268,1,8,0:0:0:0:
192,224,50621,1,0,0:0:0:0:
192,224,50974,1,8,0:0:0:0:
192,224,51327,1,0,0:0:0:0:
192,224,51679,1,8,0:0:0:0:
192,224,52032,1,0,0:0:0:0:
192,224,52385,1,8,0:0:0:0:
192,224,52738,1,0,0:0:0:0:
192,224,53091,1,0,0:0:0:0:
192,224,53444,1,0,0:0:0:0:
192,224,53797,1,0,0:0:0:0:
192,224,54150,1,0,0:0:0:0:
192,224,54503,1,8,0:0:0:0:
192,224,54856,1,0,0:0:0:0:
192,224,55209,1,8,0:0:0:0:
192,224,55562,1,0,0:0:0:0:
192,224,55915,1,8,0:0:0:0:
192,224,56268,1,0,0:0:0:0:
192,224,56621,1,8,0:0:0:0:
192,224,56974,1,0,0:0:0:0:
192,224,57327,1,0,0:0:0:0:
192,224,57679,1,0,0:0:0:0:
192,224,58032,1,0,0:0:0:0:
192,224,58385,1,0,0:0:0:0:
192,224,58738,1,0,0:0:0:0:
192,224,59091,1,0,0:0:0:0:
192,224,59444,1,0,0:0:0:0:
192,224,59797,1,0,0:0:0:0:
192,224,60150,1,8,0:0:0:0:
192,224,60503,1,0,0:0:0:0:
192,224,60856,1,8,0:0:0:0:
192,224,61209,1,0,0:0:0:0:
192,224,61562,1,8,0:0:0:0:
192,224,61915,1,0,0:0:0:0:
192,224,62268,1,8,0:0:0:0:
192,224,62621,1,0,0:0:0:0:
192,224,62974,1,0,0:0:0:0:
192,224,63327,1,0,0:0:0:0:
192,224,63679,1,0,0:0:0:0:
192,224,64032,1,0,0:0:0:0:
192,224,64385,1,0,0:0:0:0:
192,224,64738,1,0,0:0:0:0:
192,224,65091,1,0,0:0:0:0:
192,224,65444,1,0,0:0:0:0:
192,224,65797,1,8,0:0:0:0:
192,112,66150,1,0,0:0:0:0:
192,224,66503,1,8,0:0:0:0:
192,224,66856,1,0,0:0:0:0:
192,224,67209,1,0,0:0:0:0:
192,224,67562,1,0,0:0:0:0:
192,224,67915,1,0,0:0:0:0:
192,224,68268,1,0,0:0:0:0:
192,224,68621,1,8,0:0:0:0:
192,224,68974,1,0,0:0:0:0:
192,224,69327,1,8,0:0:0:0:
192,224,69679,1,0,0:0:0:0:
192,224,70032,1,8,0:0:0:0:
192,224,70385,1,0,0:0:0:0:
192,224,70738,1,8,0:0:0:0:
192,224,71091,1,0,0:0:0:0:
192,224,71444,1,0,0:0:0:0:
192,224,71797,1,0,0:0:0:0:
192,224,72150,1,0,0:0:0:0:
192,224,72503,1,8,0:0:0:0:
192,224,72856,1,0,0:0:0:0:
192,224,73209,1,0,0:0:0:0:
192,224,73562,1,0,0:0:0:0:
192,224,73915,1,8,0:0:0:0:
192,224,74268,1,0,0:0:0:0:
192,224,74621,1,0,0:0:0:0:
192,224,74974,1,0,0:0:0:0:
192,224,75327,1,8,0:0:0:0:
192,224,75679,1,0,0:0:0:0:
192,224,76032,1,0,0:0:0:0:
192,224,76385,1,0,0:0:0:0:
192,224,76738,1,8,0:0:0:0:
192,224,77091,1,0,0:0:0:0:
192,224,77621,1,0,0:0:0:0:
192,224,78150,1,8,0:0:0:0:
192,224,78503,1,0,0:0:0:0:
192,224,79032,1,0,0:0:0:0:
192,224,79562,1,8,0:0:0:0:
192,224,79915,1,0,0:0:0:0:
192,224,80268,1,8,0:0:0:0:
192,224,80621,1,0,0:0:0:0:
192,224,80974,1,8,0:0:0:0:
192,224,81327,1,0,0:0:0:0:
192,224,81679,1,8,0:0:0:0:
192,224,82032,1,0,0:0:0:0:
192,224,82385,1,8,0:0:0:0:
192,224,82738,1,0,0:0:0:0:
192,224,82915,1,8,0:0:0:0:
192,224,83091,1,0,0:0:0:0:
304,176,83444,1,0,0:0:0:0:
304,176,83797,1,0,0:0:0:0:
176,128,84150,1,0,0:0:0:0:
176,128,84503,1,8,0:0:0:0:
176,128,84856,1,0,0:0:0:0:
176,128,85209,1,8,0:0:0:0:
176,128,85562,1,0,0:0:0:0:
176,128,85915,1,8,0:0:0:0:
176,128,86268,1,0,0:0:0:0:
176,128,86621,1,8,0:0:0:0:
176,128,86974,1,0,0:0:0:0:
176,128,87327,1,8,0:0:0:0:
176,128,87679,1,0,0:0:0:0:
176,128,88032,1,8,0:0:0:0:
176,128,88385,1,0,0:0:0:0:
176,128,88738,1,8,0:0:0:0:
176,128,89091,1,0,0:0:0:0:
176,128,89444,1,8,0:0:0:0:
176,128,89797,1,0,0:0:0:0:
176,128,90150,1,8,0:0:0:0:
176,128,90503,1,0,0:0:0:0:
176,128,90856,1,8,0:0:0:0:
176,128,91209,1,0,0:0:0:0:
176,128,91562,1,8,0:0:0:0:
176,128,91915,1,0,0:0:0:0:
176,128,92268,1,8,0:0:0:0:
176,128,92621,1,0,0:0:0:0:
176,128,92974,1,8,0:0:0:0:
176,128,93327,1,0,0:0:0:0:
176,128,93679,1,8,0:0:0:0:
176,128,94032,1,0,0:0:0:0:
176,128,94385,1,8,0:0:0:0:
176,128,94738,1,8,0:0:0:0:
176,128,95091,1,8,0:0:0:0:
176,128,96150,1,0,0:0:0:0:
176,128,96503,1,8,0:0:0:0:
176,128,96856,1,0,0:0:0:0:
176,128,97209,1,8,0:0:0:0:
176,128,97562,1,0,0:0:0:0:
176,128,97915,1,8,0:0:0:0:
176,128,98268,1,0,0:0:0:0:
176,128,98621,1,8,0:0:0:0:
176,128,98974,1,0,0:0:0:0:
176,128,99327,1,8,0:0:0:0:
176,128,99679,1,0,0:0:0:0:
176,128,100209,1,4,0:0:0:0:
176,128,100562,1,4,0:0:0:0:
176,128,101091,1,0,0:0:0:0:
176,128,101444,1,8,0:0:0:0:
176,128,101797,1,0,0:0:0:0:
176,128,102150,1,8,0:0:0:0:
176,128,102503,1,0,0:0:0:0:
176,128,102856,1,8,0:0:0:0:
176,128,103209,1,0,0:0:0:0:
176,128,103562,1,8,0:0:0:0:
176,128,103915,1,0,0:0:0:0:
176,128,104444,1,0,0:0:0:0:
176,128,104797,1,0,0:0:0:0:
176,128,105150,1,8,0:0:0:0:
176,128,106032,1,0,0:0:0:0:
176,128,106385,1,8,0:0:0:0:
176,128,106738,1,0,0:0:0:0:
176,128,107091,1,8,0:0:0:0:
176,128,107444,1,0,0:0:0:0:
176,128,107797,1,8,0:0:0:0:
176,128,108150,1,0,0:0:0:0:
176,128,108503,1,8,0:0:0:0:
176,128,108856,1,0,0:0:0:0:
176,128,109209,1,8,0:0:0:0:
176,128,109562,1,0,0:0:0:0:
176,128,109915,1,8,0:0:0:0:
176,128,110268,1,0,0:0:0:0:
176,128,110621,1,8,0:0:0:0:
176,128,110974,1,0,0:0:0:0:
176,128,111679,1,8,0:0:0:0:
176,128,112032,1,8,0:0:0:0:
256,128,112385,1,0,0:0:0:0:
256,128,112738,1,8,0:0:0:0:
256,128,113091,1,0,0:0:0:0:
256,128,113444,1,8,0:0:0:0:
256,128,113797,1,0,0:0:0:0:
256,128,114150,1,8,0:0:0:0:
256,128,114503,1,0,0:0:0:0:
256,128,114856,1,8,0:0:0:0:
256,128,115209,1,0,0:0:0:0:
256,128,115738,1,12,0:0:0:0:
256,128,116091,1,12,0:0:0:0:
256,128,116444,1,12,0:0:0:0:
