osu file format v14

[General]
AudioFilename: audio.mp3
AudioLeadIn: 0
PreviewTime: 80218
Countdown: 0
SampleSet: Normal
StackLeniency: 0.7
Mode: 0
LetterboxInBreaks: 0
WidescreenStoryboard: 0

[Editor]
Bookmarks: 115738
DistanceSpacing: 0.5
BeatDivisor: 4
GridSize: 16
TimelineZoom: 3.299999

[Metadata]
Title:Happy Party Train! (Full Ver.)
TitleUnicode:Happy Party Train! (Full Ver.)
Artist:Aqours
ArtistUnicode:Aqours
Creator:_Meep_
Version:Meep
Source:
Tags:
BeatmapID:1230142
BeatmapSetID:581104

[Difficulty]
HPDrainRate:7
CircleSize:4
OverallDifficulty:7
ApproachRate:8.8
SliderMultiplier:1.7
SliderTickRate:1

[Events]
//Background and Video events
0,0,"778022.png",0,0
//Break Periods
2,186080,190854
//Storyboard Layer 0 (Background)
//Storyboard Layer 1 (Fail)
//Storyboard Layer 2 (Pass)
//Storyboard Layer 3 (Foreground)
//Storyboard Sound Samples

[TimingPoints]
895,352.941176470588,4,1,0,38,1,0
895,-166.666666666667,4,1,0,38,0,0
6189,-200,4,1,0,38,0,0
6542,-125,4,1,0,58,0,0
11836,-71.4285714285714,4,1,0,58,0,0
12100,-71.4285714285714,4,1,0,5,0,0
12189,-100,4,1,0,58,0,0
20306,-125,4,1,0,58,0,0
20659,-100,4,1,0,58,0,0
23483,-125,4,1,0,58,0,0
46071,-111.111111111111,4,1,0,38,0,0
74306,-100,4,1,0,38,0,0
81365,-83.3333333333333,4,1,0,78,0,1
103953,-100,4,1,0,58,0,0
115247,-125,4,1,0,58,0,0
137483,-111.111111111111,4,1,0,58,0,0
153365,-99.9999999999999,4,1,0,58,0,0
161836,-83.3333333333333,4,1,0,78,0,1
182924,-83.3333333333333,4,1,0,38,0,0
191483,-125,4,1,0,58,0,0
194306,-100,4,1,0,58,0,0
211600,-166.666666666667,4,1,0,58,0,0
212659,-83.3333333333333,4,1,0,58,0,0
222542,-83.3333333333333,4,1,0,78,0,1
243630,-83.3333333333333,4,1,0,58,0,0
247953,-83.3333333333333,4,1,0,78,0,1
250777,-100,4,1,0,58,0,0
262071,-71.4285714285714,4,1,0,58,0,0
272042,-71.4285714285714,4,1,0,5,0,0

[Colours]
Combo1 : 255,232,119
Combo2 : 0,149,221
Combo3 : 74,156,255

[HitObjects]
117,230,895,6,0,L|233:222,1,101.999996887207
297,253,1424,2,0,L|413:245,1,101.999996887207
459,183,1953,2,0,P|469:134|456:88,1,76.4999976654054
450,83,2306,6,0,P|397:87|332:57,1,101.999996887207
265,54,2836,2,0,P|216:70|166:65,1,101.999996887207
82,43,3365,1,0,0:0:0:0:
57,173,3542,1,0,0:0:0:0:
59,192,3630,1,0,0:0:0:0:
64,210,3718,6,0,L|84:267,2,50.9999984436036
140,164,4247,2,0,P|182:153|252:179,1,101.999996887207
289,238,4777,2,0,L|361:249,1,50.9999984436036
364,253,5042,1,0,0:0:0:0:
390,262,5130,6,0,P|376:212|387:147,1,101.999996887207
431,91,5659,1,0,0:0:0:0:
362,38,5836,1,0,0:0:0:0:
279,63,6012,1,0,0:0:0:0:
249,144,6189,6,0,L|245:217,1,63.75
245,207,6542,6,0,P|201:225|152:221,1,68
32,181,6894,1,0,0:0:0:0:
50,270,7071,1,0,0:0:0:0:
184,124,7247,1,0,0:0:0:0:
178,233,7424,1,0,0:0:0:0:
106,81,7600,1,0,0:0:0:0:
61,287,7777,1,0,3:0:0:0:
86,318,7865,1,0,3:0:0:0:
117,333,7953,6,0,P|156:349|185:350,1,68,0|0,3:0|3:0,3:0:0:0:
295,189,8306,1,0,0:0:0:0:
174,252,8483,1,0,0:0:0:0:
280,347,8659,1,0,0:0:0:0:
184,239,8836,1,0,0:0:0:0:
327,267,9012,1,0,0:0:0:0:
262,353,9189,2,0,L|261:302,1,34
327,267,9365,6,0,P|313:216|331:148,1,102
336,145,9718,1,0,0:0:0:0:
485,153,9894,1,0,0:0:0:0:
423,291,10071,5,0,0:0:0:0:
426,72,10247,1,0,0:0:0:0:
509,261,10424,5,0,0:0:0:0:
323,58,10600,1,0,0:0:0:0:
159,315,10777,5,0,0:0:0:0:
336,256,11483,6,0,L|324:217,1,34
279,311,11659,1,0,0:0:0:0:
137,162,11836,6,0,P|97:118|73:197,1,178.499994552612
137,162,12189,6,0,P|204:136|310:189,1,170
351,321,12718,1,0,0:0:0:0:
351,321,12806,1,0,0:0:0:0:
351,321,12894,1,0,0:0:0:0:
481,233,13071,1,0,0:0:0:0:
273,253,13247,1,0,0:0:0:0:
483,148,13424,1,0,0:0:0:0:
249,153,13600,6,0,P|243:111|258:72,1,85
172,269,13953,2,0,P|187:229|181:188,1,85
337,259,14306,2,0,P|295:253|262:227,1,85
317,92,14659,2,0,P|311:133|326:172,1,85
484,287,15012,6,0,L|491:168,1,85
492,161,15277,1,0,0:0:0:0:
494,120,15365,2,0,L|500:-2,1,85
336,36,15718,2,0,L|342:158,1,85
340,162,15983,1,0,0:0:0:0:
342,202,16071,2,0,L|348:324,1,85
211,302,16424,6,0,P|155:312|214:370,1,170
285,244,16953,1,0,0:0:0:0:
234,74,17130,5,0,0:0:0:0:
370,150,17306,1,0,0:0:0:0:
400,151,17394,1,0,0:0:0:0:
427,149,17483,2,0,L|477:140,2,42.5
366,257,17836,6,0,P|308:288|194:264,1,170
121,168,18365,1,0,0:0:0:0:
121,168,18453,1,0,0:0:0:0:
121,168,18542,1,0,0:0:0:0:
278,162,18718,1,0,0:0:0:0:
170,18,18894,1,0,0:0:0:0:
327,12,19070,1,0,0:0:0:0:
182,153,19247,6,0,P|137:159|86:136,1,85
250,244,19600,2,0,P|295:250|346:227,1,85
224,245,19865,1,0,0:0:0:0:
195,255,19953,1,0,0:0:0:0:
412,336,20130,2,0,L|411:294,1,42.5
419,206,20306,6,0,L|418:102,1,102
389,90,20659,6,0,L|390:197,1,85
389,316,21012,1,0,0:0:0:0:
250,286,21189,2,0,L|250:371,1,85
399,163,21542,2,0,L|398:78,1,85
161,73,21894,5,0,0:0:0:0:
256,192,21983,12,0,23130,0:0:0:0:
155,54,23483,6,0,P|102:47|25:109,1,136
59,167,24012,2,0,P|112:174|189:112,1,136
233,69,24542,1,0,0:0:0:0:
241,74,24894,6,0,L|235:230,1,136
158,237,25424,2,0,L|164:81,1,136
84,122,25953,1,0,0:0:0:0:
79,130,26306,6,0,B|61:199|61:199|90:266,1,136
160,295,26836,2,0,P|200:275|307:281,1,136
366,303,27365,2,0,P|402:308|447:299,1,68
493,248,27718,6,0,L|504:100,1,136
425,137,28247,2,0,L|436:-11,1,136
357,29,28777,2,0,P|315:36|269:26,1,68
403,101,29130,6,0,P|339:116|247:106,1,136
205,163,29659,2,0,P|137:158|71:173,1,136
25,242,30189,1,0,0:0:0:0:
63,313,30365,1,0,0:0:0:0:
63,313,30542,6,0,L|200:315,1,136
269,356,31071,2,0,L|406:358,1,136
470,308,31600,2,0,L|469:228,1,68
495,162,31953,6,0,P|459:130|475:35,1,136
388,14,32483,1,0,0:0:0:0:
328,69,32659,2,0,L|320:150,1,68
281,208,33012,1,0,0:0:0:0:
202,231,33189,1,0,0:0:0:0:
128,197,33365,5,0,0:0:0:0:
127,198,33894,1,0,0:0:0:0:
203,170,34071,2,0,P|244:166|289:175,1,68
384,239,34424,1,0,0:0:0:0:
376,328,34600,1,0,0:0:0:0:
459,288,34777,6,0,L|472:130,1,136
416,90,35306,2,0,P|368:106|293:73,1,136
223,117,35836,2,0,P|240:166|232:201,1,68
187,245,36189,6,0,L|42:235,1,136
63,316,36718,2,0,L|208:326,1,136
261,272,37247,1,0,0:0:0:0:
275,264,37600,6,0,P|342:251|411:271,1,136
481,234,38130,2,0,B|490:195|476:162|476:162|460:125|479:80,1,136
391,88,38659,2,0,P|384:137|375:161,1,68
346,229,39012,6,0,L|307:78,1,136
238,59,39542,2,0,L|106:95,1,136
69,168,40071,2,0,P|58:216|70:257,1,68
119,290,40424,6,0,B|151:269|151:269|272:278,1,136
329,284,40953,2,0,P|371:275|392:187,1,136
357,121,41483,1,0,0:0:0:0:
357,121,41836,6,0,B|332:161|332:161|332:272,1,136
397,299,42365,2,0,P|432:265|526:269,1,136
474,336,42894,1,0,0:0:0:0:
397,299,43071,1,0,0:0:0:0:
318,323,43247,6,0,P|268:328|220:319,1,68
162,90,43600,2,0,P|195:94|227:104,1,68
194,264,43953,2,0,P|145:251|103:226,1,68
305,81,44306,2,0,P|335:96|361:117,1,68
409,261,44659,5,0,0:0:0:0:
409,261,44836,1,0,0:0:0:0:
270,340,45012,1,0,0:0:0:0:
179,298,45189,2,0,P|162:247|164:220,1,68
266,106,45542,2,0,L|254:268,1,136
254,275,45983,1,0,0:0:0:0:
259,308,46071,6,0,P|289:337|394:342,1,152.999995330811
462,249,46601,1,0,0:0:0:0:
497,121,46777,2,0,P|459:152|470:259,1,152.999995330811
393,300,47306,1,0,0:0:0:0:
284,214,47483,2,0,P|250:234|152:223,1,114.749996498108
176,234,47836,2,0,P|133:231|95:247,1,76.4999976654053
221,310,48189,1,0,0:0:0:0:
146,314,48365,1,0,0:0:0:0:
253,228,48542,2,0,P|209:224|171:240,1,76.4999976654053
308,292,48894,6,0,L|279:119,1,152.999995330811
389,218,49424,2,0,P|422:242|488:243,1,76.4999976654053
499,152,49777,2,0,P|466:128|400:127,1,76.4999976654053
332,130,50130,1,0,0:0:0:0:
332,130,50306,6,0,B|289:123|289:123|227:132|227:132|176:123,1,152.999995330811
332,219,50836,2,0,B|289:212|289:212|227:221|227:221|181:213,1,152.999995330811
332,219,51365,2,0,L|411:208,1,76.4999976654053
491,235,51718,5,0,0:0:0:0:
321,213,51894,1,0,0:0:0:0:
484,162,52071,2,0,P|495:198|491:235,1,76.4999976654053
385,363,52424,1,0,0:0:0:0:
407,208,52600,1,0,0:0:0:0:
462,339,52777,1,0,0:0:0:0:
328,200,52953,1,0,0:0:0:0:
285,263,53130,6,0,P|238:271|149:213,1,152.999995330811
63,188,53659,2,0,P|110:196|199:138,1,152.999995330811
214,48,54189,1,0,0:0:0:0:
128,80,54365,1,0,0:0:0:0:
195,143,54542,6,0,B|242:157|242:157|343:120,1,152.999995330811
437,158,55071,1,0,0:0:0:0:
501,245,55247,2,0,P|510:293|499:330,1,76.4999976654053
360,247,55600,1,0,0:0:0:0:
362,321,55777,1,0,0:0:0:0:
433,211,55953,5,2,0:0:0:0:
437,359,56130,1,0,0:0:0:0:
358,173,56306,1,2,0:0:0:0:
362,321,56483,1,0,0:0:0:0:
236,240,56659,1,0,0:0:0:0:
371,170,56836,1,0,0:0:0:0:
383,172,56924,1,0,0:0:0:0:
395,174,57012,1,0,0:0:0:0:
180,282,57189,1,0,0:0:0:0:
263,168,57365,6,0,P|281:107|221:22,1,152.999995330811
151,45,57894,1,0,0:0:0:0:
106,119,58071,2,0,L|104:205,2,76.4999976654053
222,184,58600,1,0,0:0:0:0:
222,184,58777,6,0,L|218:361,1,152.999995330811
335,276,59306,1,0,0:0:0:0:
335,276,59483,2,0,P|345:226|337:187,1,76.4999976654053
295,104,59836,2,0,P|285:54|293:15,1,76.4999976654053
185,98,60189,6,0,P|140:123|29:105,1,152.999995330811
0,190,60718,2,0,B|-11:228|14:266|14:266|33:304|25:350,1,152.999995330811
138,352,61247,1,0,0:0:0:0:
163,254,61424,1,0,0:0:0:0:
296,269,61600,6,0,L|298:96,1,152.999995330811
429,56,62130,2,0,L|481:80,2,38.2499988327027
391,139,62483,1,0,0:0:0:0:
297,116,62659,1,0,0:0:0:0:
207,153,62836,1,0,0:0:0:0:
309,268,63012,6,0,L|295:91,1,152.999995330811
207,153,63542,2,0,P|145:123|51:154,1,152.999995330811
21,244,64071,1,0,0:0:0:0:
125,341,64247,1,0,0:0:0:0:
129,231,64424,6,0,B|128:145|196:120|196:120|194:163,1,152.999995330811
208,259,64953,2,0,P|230:194|167:104,1,152.999995330811
314,188,65483,2,0,P|354:196|408:178,1,76.4999976654053
481,140,65836,5,0,0:0:0:0:
351,101,66012,1,0,0:0:0:0:
314,188,66189,1,0,0:0:0:0:
444,227,66365,1,0,0:0:0:0:
255,264,66542,1,0,0:0:0:0:
232,244,66630,1,0,0:0:0:0:
218,217,66718,1,0,0:0:0:0:
215,187,66806,1,0,0:0:0:0:
220,157,66894,1,0,0:0:0:0:
386,295,67071,1,0,0:0:0:0:
173,351,67247,5,0,0:0:0:0:
302,208,67600,1,0,0:0:0:0:
425,59,67953,1,0,0:0:0:0:
255,45,68306,6,0,L|255:204,2,152.999995330811
161,119,69189,1,0,0:0:0:0:
161,119,69365,2,0,P|121:122|77:93,1,76.4999976654053
236,76,69718,2,0,P|244:121|209:194,1,114.749996498108
219,183,70071,6,0,P|269:149|358:177,1,152.999995330811
394,243,70600,2,0,L|374:54,1,152.999995330811
484,29,71130,1,0,0:0:0:0:
473,123,71306,1,0,0:0:0:0:
275,96,71483,6,0,P|217:113|136:93,1,114.749996498108
138,96,71836,1,0,0:0:0:0:
212,4,72012,1,0,0:0:0:0:
274,95,72189,2,0,P|331:89|386:106,1,114.749996498108
412,125,72542,1,0,0:0:0:0:
138,96,72718,1,0,0:0:0:0:
77,205,72894,5,0,0:0:0:0:
86,234,73071,1,0,0:0:0:0:
203,190,73247,5,0,0:0:0:0:
199,250,73424,1,0,0:0:0:0:
341,203,73600,5,0,0:0:0:0:
304,285,73777,1,0,0:0:0:0:
304,285,73865,1,0,0:0:0:0:
304,285,73953,1,0,0:0:0:0:
455,215,74130,1,0,0:0:0:0:
424,58,74306,6,0,P|462:128|450:228,1,170
321,129,74836,2,0,P|409:155|455:216,1,170
394,321,75365,2,0,L|251:326,1,127.5
267,326,75718,6,0,B|152:309|152:309|85:324,1,170
186,177,76247,2,0,B|116:267|116:267|96:332,1,170
40,159,76777,1,0,0:0:0:0:
151,54,76953,1,0,0:0:0:0:
151,54,77042,1,0,0:0:0:0:
151,54,77130,6,0,P|217:51|261:72,1,85
387,95,77483,2,0,P|321:98|278:76,1,85
175,190,77836,1,0,0:0:0:0:
226,52,78012,1,0,0:0:0:0:
297,229,78189,1,0,0:0:0:0:
133,96,78365,1,0,0:0:0:0:
335,134,78542,5,0,0:0:0:0:
312,152,78718,1,0,0:0:0:0:
352,20,78894,1,0,0:0:0:0:
485,55,79071,1,0,0:0:0:0:
448,187,79247,1,0,0:0:0:0:
337,1,79424,1,0,0:0:0:0:
225,202,79600,1,0,0:0:0:0:
463,195,79777,1,0,0:0:0:0:
215,77,79953,5,0,0:0:0:0:
228,297,80130,1,0,0:0:0:0:
215,77,80306,1,0,0:0:0:0:
384,240,80777,6,0,L|384:336,2,56.6666666666667
188,249,81365,6,0,P|115:226|13:303,1,203.999993774414
188,249,81894,1,0,0:0:0:0:
257,148,82071,2,0,P|264:99|240:38,1,101.999996887207
346,162,82424,2,0,P|339:211|363:274,1,101.999996887207
459,331,82777,6,0,L|480:125,1,203.999993774414
274,72,83306,1,0,0:0:0:0:
274,72,83483,2,0,P|219:70|173:102,1,101.999996887207
367,50,83836,2,0,P|312:48|266:80,1,101.999996887207
245,160,84189,6,0,L|255:371,1,203.999993774414
154,252,84718,1,0,0:0:0:0:
342,238,84894,2,0,L|348:83,1,152.999995330811
329,60,85247,1,0,0:0:0:0:
176,138,85424,1,0,0:0:0:0:
342,238,85600,5,0,0:0:0:0:
268,133,85777,1,0,0:0:0:0:
419,180,85953,2,0,P|474:180|520:148,1,101.999996887207
236,122,86306,2,0,P|181:122|135:154,1,101.999996887207
123,167,86571,1,0,0:0:0:0:
123,167,86659,1,0,0:0:0:0:
212,229,86836,1,0,0:0:0:0:
236,122,87012,6,0,P|251:69|388:50,1,203.999993774414
438,196,87542,1,0,0:0:0:0:
335,336,87718,2,0,P|352:265|345:217,1,101.999996887207
329,123,88070,1,0,0:0:0:0:
159,152,88247,1,0,0:0:0:0:
136,162,88336,1,0,0:0:0:0:
113,178,88424,6,0,P|96:237|101:289,1,101.999996887207
244,360,88777,1,0,0:0:0:0:
130,363,88953,1,0,0:0:0:0:
260,175,89130,2,0,P|275:223|274:274,1,101.999996887207
274,75,89483,2,0,P|258:123|259:174,1,101.999996887207
376,38,89836,6,0,B|302:32|302:32|228:40|228:40|154:36,1,203.999993774414
62,131,90365,1,0,0:0:0:0:
0,262,90542,2,0,P|54:276|112:270,1,101.999996887207
124,262,90806,1,0,0:0:0:0:
138,245,90894,2,0,L|133:128,1,101.999996887207
332,48,91247,6,0,P|339:98|326:146,1,101.999996887207
148,34,91600,2,0,P|195:52|231:88,1,101.999996887207
44,186,91953,2,0,P|83:155|132:143,1,101.999996887207
123,352,92306,6,0,P|115:302|222:318,1,203.999993774414
221,315,92836,1,0,0:0:0:0:
344,270,93012,6,0,P|325:332|326:379,1,101.999996887207
359,170,93365,2,0,P|355:234|338:278,1,101.999996887207,0|0,3:0|3:0,3:0:0:0:
378,71,93718,2,0,P|359:133|360:180,1,101.999996887207
371,192,93983,1,0,0:0:0:0:
392,206,94071,6,0,L|496:189,1,101.999996887207
291,222,94424,2,0,L|395:205,1,101.999996887207
190,238,94777,2,0,L|294:221,1,101.999996887207
309,206,95042,1,0,0:0:0:0:
324,184,95130,2,0,L|304:67,1,101.999996887207
130,176,95483,6,0,P|77:187|28:168,1,101.999996887207
227,180,95836,2,0,P|179:164|129:175,1,101.999996887207
324,184,96189,2,0,P|274:195|226:179,1,101.999996887207
347,171,96453,1,0,0:0:0:0:
379,168,96542,1,0,0:0:0:0:
362,285,96718,1,0,0:0:0:0:
491,117,96894,6,0,L|495:9,1,101.999996887207
486,210,97247,1,0,0:0:0:0:
329,135,97424,2,0,P|271:118|204:118,1,101.999996887207
10,229,97777,2,0,P|68:212|135:212,1,101.999996887207
190,291,98130,1,0,0:0:0:0:
190,291,98306,6,0,P|297:295|403:276,1,203.999993774414
455,186,98836,1,0,0:0:0:0:
386,100,99012,2,0,P|331:94|276:106,1,101.999996887207
228,222,99365,2,0,P|283:228|338:216,1,101.999996887207
467,142,99718,6,0,L|460:356,1,203.999993774414
317,357,100247,2,0,B|283:351|256:324|256:324|183:349|96:305,1,203.999993774414
259,191,100777,2,0,P|289:256|251:326,1,152.999995330811
226,332,101130,6,0,L|101:311,1,101.999996887207
259,191,101483,1,0,0:0:0:0:
412,265,101659,2,0,L|537:244,1,101.999996887207
399,103,102012,1,0,0:0:0:0:
305,282,102189,1,0,0:0:0:0:
202,134,102365,2,0,P|136:103|41:205,1,203.999993774414
42,207,102806,1,0,0:0:0:0:
42,207,102894,5,0,0:0:0:0:
244,240,103071,1,0,0:0:0:0:
0,284,103247,1,0,0:0:0:0:
262,324,103424,1,0,0:0:0:0:
133,198,103600,2,0,P|126:134|177:56,1,152.999995330811
198,47,103953,6,0,L|407:50,1,170
435,109,104483,1,0,0:0:0:0:
435,109,104571,1,0,0:0:0:0:
435,109,104659,1,0,0:0:0:0:
310,271,104836,1,0,0:0:0:0:
323,160,105012,1,0,0:0:0:0:
416,221,105189,1,0,0:0:0:0:
225,249,105365,6,0,P|163:254|113:235,1,85
115,237,105630,1,0,0:0:0:0:
100,213,105718,2,0,L|90:106,1,85
257,52,106071,1,0,0:0:0:0:
250,137,106247,1,0,0:0:0:0:
416,221,106424,2,0,L|406:114,1,85
281,242,106777,6,0,P|215:259|179:246,1,85
177,220,107042,1,0,0:0:0:0:
186,182,107130,2,0,P|252:165|288:178,1,85
340,294,107483,6,0,P|406:311|442:298,1,85
444,272,107748,1,0,0:0:0:0:
435,234,107836,2,0,P|369:217|333:230,1,85
267,317,108189,2,0,P|201:337|100:280,1,170
71,215,108718,1,0,0:0:0:0:
196,242,108894,1,0,0:0:0:0:
135,114,109071,1,0,0:0:0:0:
103,101,109159,1,0,0:0:0:0:
70,97,109247,1,0,0:0:0:0:
36,102,109335,1,0,0:0:0:0:
5,114,109423,1,0,0:0:0:0:
155,133,109600,6,0,P|225:146|326:100,1,170
446,37,110130,1,0,0:0:0:0:
378,172,110306,2,0,P|355:229|355:278,1,85
475,352,110659,2,0,P|498:295|498:246,1,85
509,139,111012,6,0,L|408:105,1,85
199,141,111365,2,0,L|300:175,1,85
311,181,111630,1,0,0:0:0:0:
335,204,111718,1,0,0:0:0:0:
175,262,111894,1,0,0:0:0:0:
273,358,112071,2,0,L|265:258,1,85
199,141,112424,6,0,P|186:99|192:54,1,85
175,262,112777,1,0,0:0:0:0:
299,171,112953,2,0,L|405:166,1,85
109,204,113306,2,0,L|3:199,1,85
202,246,113659,1,0,0:0:0:0:
256,192,113747,12,0,114542,0:0:0:0:
420,173,114894,6,0,L|526:177,1,85
392,276,115247,6,0,P|314:247|245:269,1,136
177,291,115777,1,0,0:0:0:0:
177,291,115953,2,0,P|170:250|181:215,1,68
228,102,116306,1,0,0:0:0:0:
125,142,116483,1,0,0:0:0:0:
256,257,116659,2,0,P|316:263|374:228,1,102
374,229,117012,2,0,L|362:302,1,68
465,191,117365,1,0,0:0:0:0:
451,283,117542,1,0,0:0:0:0:
385,161,117718,2,0,L|373:234,1,68
322,91,118071,6,0,P|288:69|182:96,1,136
131,175,118600,2,0,B|151:220|128:266|128:266|145:329,2,136
40,218,119483,5,0,0:0:0:0:
245,335,119836,1,0,0:0:0:0:
304,277,120012,2,0,L|410:267,1,102
437,275,120365,1,0,0:0:0:0:
401,150,120542,2,0,P|396:105|405:68,1,68
317,186,120894,6,0,L|172:168,1,136
61,223,121424,1,0,0:0:0:0:
122,105,121600,1,0,0:0:0:0:
146,251,121777,1,0,0:0:0:0:
129,86,121953,1,0,0:0:0:0:
72,251,122130,1,0,0:0:0:0:
247,47,122306,6,0,L|392:41,1,136
491,145,122836,2,0,L|346:139,1,136
263,137,123365,1,0,0:0:0:0:
303,221,123542,1,0,0:0:0:0:
179,329,123718,6,0,P|172:263|212:210,1,136
179,329,124247,1,0,0:0:0:0:
179,329,124336,1,0,0:0:0:0:
179,329,124424,2,0,P|134:335|88:323,1,68
257,361,124777,2,0,P|290:368|324:364,1,68
212,209,125130,5,0,0:0:0:0:
294,272,125306,1,0,0:0:0:0:
142,258,125483,1,0,0:0:0:0:
289,177,125659,1,0,0:0:0:0:
315,172,125747,1,0,0:0:0:0:
342,169,125836,1,0,0:0:0:0:
111,264,126012,1,0,0:0:0:0:
83,258,126100,1,0,0:0:0:0:
59,244,126189,1,0,0:0:0:0:
294,272,126365,1,0,0:0:0:0:
141,176,126542,6,0,L|138:109,1,68
89,319,126894,1,0,0:0:0:0:
203,241,127071,2,0,P|245:231|297:237,2,68
55,223,127600,1,0,0:0:0:0:
167,323,127777,1,0,0:0:0:0:
55,223,127953,6,0,P|46:148|48:87,1,136
175,119,128483,2,0,L|218:115,2,34
129,39,128836,1,0,0:0:0:0:
140,212,129012,1,0,0:0:0:0:
175,119,129189,1,0,0:0:0:0:
201,285,129365,6,0,P|266:322|343:297,1,136
381,245,129894,2,0,L|369:92,1,136
287,83,130424,2,0,P|283:126|297:158,1,68
353,22,130777,6,0,P|300:-5|211:35,1,136
370,109,131306,1,0,0:0:0:0:
291,148,131483,1,0,0:0:0:0:
393,95,131659,1,0,0:0:0:0:
257,228,131836,2,0,L|267:161,1,68
150,334,132189,6,0,P|99:301|8:306,1,136
134,223,132718,2,0,L|121:69,1,136
35,29,133247,2,0,L|40:96,1,68
133,222,133600,6,0,P|76:257|10:253,1,136
133,222,134130,2,0,L|293:214,1,136
325,284,134659,1,0,0:0:0:0:
341,164,134836,1,0,0:0:0:0:
254,329,135012,5,0,0:0:0:0:
152,290,135189,1,0,0:0:0:0:
275,352,135365,1,0,0:0:0:0:
270,179,135542,1,0,0:0:0:0:
134,308,135718,1,0,0:0:0:0:
101,303,135806,1,0,0:0:0:0:
67,299,135894,1,0,0:0:0:0:
33,295,135982,1,0,0:0:0:0:
0,290,136070,1,0,0:0:0:0:
103,223,136247,1,0,0:0:0:0:
29,139,136424,5,0,0:0:0:0:
197,345,136777,1,0,0:0:0:0:
312,94,137130,1,0,0:0:0:0:
323,62,137483,6,0,L|314:214,2,152.999995330811
221,181,138365,1,0,0:0:0:0:
221,181,138542,2,0,P|177:188|131:167,1,76.4999976654053
137,41,138894,2,0,L|123:177,1,114.749996498108
147,178,139247,6,0,L|135:289,1,76.4999976654053
267,352,139600,1,0,0:0:0:0:
396,260,139777,2,0,B|349:263|349:263|301:246|301:246|247:250,1,152.999995330811
165,358,140306,2,0,L|88:363,1,76.4999976654053
138,271,140659,6,0,P|212:281|254:343,1,152.999995330811
138,271,141189,1,0,0:0:0:0:
172,135,141365,1,0,0:0:0:0:
72,216,141542,1,0,0:0:0:0:
195,161,141718,2,0,L|271:155,1,76.4999976654053
425,226,142071,6,0,P|444:265|449:309,1,76.4999976654053
389,369,142424,2,0,P|350:368|315:355,1,76.4999976654053
435,220,142777,2,0,P|454:259|459:303,1,76.4999976654053
257,287,143130,6,0,L|272:117,1,152.999995330811
139,89,143659,1,0,0:0:0:0:
185,175,143836,1,0,0:0:0:0:
248,42,144012,1,0,0:0:0:0:
179,190,144189,2,0,P|171:244|184:298,1,76.4999976654053
262,362,144542,2,0,P|264:323|256:286,1,76.4999976654053
351,346,144894,6,0,P|426:345|471:271,1,152.999995330811
390,194,145424,2,0,P|380:236|387:276,2,76.4999976654053
301,273,145953,2,0,P|261:278|226:267,1,76.4999976654053
126,205,146306,6,0,B|189:229|189:229|268:193,1,152.999995330811
118,126,146836,1,0,0:0:0:0:
118,126,147012,2,0,P|81:138|50:179,1,76.4999976654053
115,52,147365,2,0,P|106:90|126:137,1,76.4999976654053
267,70,147718,6,0,L|183:86,1,76.4999976654053
244,173,148071,2,0,L|320:186,1,76.4999976654053
361,26,148424,2,0,L|277:42,1,76.4999976654053
135,180,148777,6,0,L|131:333,1,152.999995330811
268,266,149306,1,0,0:0:0:0:
268,266,149483,2,0,P|324:254|352:262,1,76.4999976654053
239,342,149836,1,0,0:0:0:0:
313,333,150012,1,0,0:0:0:0:
194,273,150189,2,0,P|230:261|267:265,1,76.4999976654053
239,342,150542,6,0,L|225:162,1,152.999995330811
286,113,151071,2,0,P|265:145|133:141,1,152.999995330811
94,218,151600,2,0,P|85:257|93:295,1,76.4999976654053
168,359,151953,6,0,B|220:353|220:353|234:340|234:340|286:336,1,114.749996498108
304,349,152306,1,0,0:0:0:0:
239,265,152483,1,0,0:0:0:0:
130,287,152659,6,0,B|182:281|182:281|196:268|196:268|248:264,1,114.749996498108
266,277,153012,1,0,0:0:0:0:
212,134,153189,1,0,0:0:0:0:
212,134,153277,1,0,0:0:0:0:
212,134,153365,5,0,0:0:0:0:
242,121,153542,1,0,0:0:0:0:
204,219,153718,5,0,0:0:0:0:
288,219,153895,1,0,0:0:0:0:
196,304,154071,5,0,0:0:0:0:
323,326,154248,1,0,0:0:0:0:
323,326,154336,1,0,0:0:0:0:
323,326,154424,1,0,0:0:0:0:
170,326,154600,1,0,0:0:0:0:
288,219,154777,6,0,L|474:213,1,170
251,140,155306,2,0,L|437:134,1,170
216,68,155836,2,0,P|179:102|187:187,1,127.5
179,175,156189,6,0,P|202:212|150:339,1,170
325,321,156718,2,0,P|288:298|161:350,1,170
325,321,157247,1,0,0:0:0:0:
398,227,157424,1,0,0:0:0:0:
398,227,157512,1,0,0:0:0:0:
398,227,157600,6,0,P|450:215|487:219,1,85
273,199,157953,2,0,P|221:211|184:207,1,85
356,126,158306,1,0,0:0:0:0:
323,265,158483,1,0,0:0:0:0:
372,114,158659,1,0,0:0:0:0:
447,301,158836,1,0,0:0:0:0:
275,353,159012,5,0,0:0:0:0:
289,324,159189,1,0,0:0:0:0:
149,297,159365,1,0,0:0:0:0:
340,257,159542,1,0,0:0:0:0:
136,215,159718,5,0,0:0:0:0:
160,379,159894,1,0,0:0:0:0:
326,357,160071,1,0,0:0:0:0:
302,193,160247,1,0,0:0:0:0:
244,364,160424,5,0,0:0:0:0:
317,168,160600,1,0,0:0:0:0:
108,303,160777,2,0,P|107:248|81:196,1,85
17,136,161042,1,0,0:0:0:0:
35,127,161130,2,0,L|77:118,3,42.5
95,92,161483,2,0,L|186:74,1,85
287,125,161836,6,0,P|342:143|446:41,1,203.999993774414
287,125,162365,1,0,0:0:0:0:
211,213,162542,2,0,P|199:258|221:319,1,101.999996887207
386,260,162894,2,0,L|274:257,1,101.999996887207
117,318,163247,6,0,P|66:317|34:179,1,203.999993774414
188,255,163777,1,0,0:0:0:0:
95,235,163953,2,0,P|74:189|76:139,1,101.999996887207
96,43,164306,2,0,P|97:95|73:144,1,101.999996887207
20,43,164659,6,0,L|196:31,1,152.999995330811
198,45,165012,1,0,0:0:0:0:
310,112,165189,1,0,0:0:0:0:
200,173,165365,6,0,L|24:161,1,152.999995330811
22,175,165718,1,0,0:0:0:0:
140,255,165894,1,0,0:0:0:0:
9,316,166071,5,0,0:0:0:0:
94,195,166247,1,0,0:0:0:0:
227,302,166424,2,0,P|283:305|332:276,1,101.999996887207
462,125,166777,2,0,P|406:122|357:151,1,101.999996887207,0|0,3:0|3:0,3:0:0:0:
338,172,167042,1,0,0:0:0:0:
323,210,167130,1,0,0:0:0:0:
438,245,167306,1,0,0:0:0:0:
352,331,167483,6,0,L|135:319,1,203.999993774414
73,206,168012,1,0,0:0:0:0:
20,134,168189,2,0,P|75:119|146:260,1,203.999993774414
241,315,168718,1,0,0:0:0:0:
148,319,168894,6,0,P|192:232|288:235,1,203.999993774414
375,273,169424,1,0,0:0:0:0:
419,101,169600,2,0,P|374:138|361:195,1,101.999996887207
477,23,169953,2,0,P|459:70|418:100,1,101.999996887207
255,110,170306,6,0,B|153:94|153:94|42:127,1,203.999993774414
0,257,170836,1,0,0:0:0:0:
100,331,171012,2,0,P|173:334|215:318,1,101.999996887207
224,304,171277,1,0,0:0:0:0:
241,278,171365,2,0,L|215:150,1,101.999996887207
411,84,171718,6,0,P|366:61|316:58,1,101.999996887207
361,263,172071,2,0,P|359:212|337:167,1,101.999996887207
182,308,172424,2,0,P|224:281|253:239,1,101.999996887207
150,122,172777,2,0,P|75:159|148:202,1,203.999993774414
219,80,173306,1,0,0:0:0:0:
320,175,173483,6,0,P|233:168|212:149,1,101.999996887207
415,188,173836,2,0,P|369:167|319:174,1,101.999996887207
510,201,174189,2,0,P|460:207|414:187,1,101.999996887207
392,167,174453,1,0,0:0:0:0:
379,140,174542,6,0,L|394:28,1,101.999996887207
365,241,174894,2,0,L|380:129,1,101.999996887207
351,342,175247,2,0,L|366:230,1,101.999996887207
358,211,175512,1,0,0:0:0:0:
333,190,175600,2,0,P|282:197|239:224,1,101.999996887207
358,84,175953,6,0,L|481:79,1,101.999996887207
256,88,176306,2,0,L|379:83,1,101.999996887207
154,92,176659,2,0,L|277:87,1,101.999996887207
295,98,176924,1,0,0:0:0:0:
328,121,177012,1,0,0:0:0:0:
347,156,177100,1,0,0:0:0:0:
348,197,177189,1,0,0:0:0:0:
255,324,177365,6,0,L|137:322,1,101.999996887207
342,266,177718,1,0,0:0:0:0:
296,178,177894,2,0,P|279:129|284:63,1,101.999996887207
169,223,178247,2,0,P|169:274|153:322,1,101.999996887207
46,208,178600,1,0,0:0:0:0:
46,208,178777,6,0,L|274:192,1,203.999993774414
334,276,179306,1,0,0:0:0:0:
385,176,179483,2,0,P|396:126|391:75,1,101.999996887207
208,51,179836,2,0,L|372:51,1,152.999995330811
391,75,180189,6,0,P|396:126|385:176,1,101.999996887207
229,303,180542,1,0,0:0:0:0:
141,255,180718,2,0,P|179:216|325:265,1,203.999993774414
325,282,181159,1,0,0:0:0:0:
323,322,181247,2,0,L|333:127,1,152.999995330811
318,140,181600,6,0,P|268:121|193:116,1,101.999996887207
104,217,181953,1,0,0:0:0:0:
221,336,182130,2,0,L|329:321,1,101.999996887207
344,334,182394,1,0,0:0:0:0:
366,346,182483,1,0,0:0:0:0:
465,229,182659,1,0,0:0:0:0:
465,229,182747,1,0,0:0:0:0:
465,229,182836,1,0,0:0:0:0:
256,192,182924,12,0,185880,0:0:0:0:
241,204,191483,5,0,0:0:0:0:
186,216,193424,1,0,0:0:0:0:
209,222,193512,1,0,0:0:0:0:
236,227,193600,2,0,P|215:190|231:114,2,102
263,240,194218,1,0,0:0:0:0:
294,253,194306,6,0,L|380:247,1,85
201,326,194659,1,0,0:0:0:0:
192,214,194836,2,0,L|186:127,1,85
222,27,195189,1,0,0:0:0:0:
101,98,195365,1,0,0:0:0:0:
272,184,195542,1,0,0:0:0:0:
380,100,195718,6,0,P|423:83|473:85,1,85
490,91,195983,1,0,0:0:0:0:
512,106,196071,1,0,0:0:0:0:
327,174,196247,2,0,L|312:292,1,85
310,287,196512,1,0,0:0:0:0:
283,308,196600,2,0,P|261:312|235:313,2,42.5
327,174,196953,1,0,0:0:0:0:
213,53,197130,6,0,P|161:46|108:52,1,85
23,208,197483,1,0,0:0:0:0:
163,137,197659,1,0,0:0:0:0:
40,44,197836,1,0,0:0:0:0:
169,165,198012,1,0,0:0:0:0:
244,0,198189,1,0,0:0:0:0:
174,188,198365,6,0,P|235:173|303:191,1,127.5
323,200,198718,1,0,0:0:0:0:
238,296,198894,1,0,0:0:0:0:
352,206,199071,1,0,0:0:0:0:
297,67,199247,1,0,0:0:0:0:
379,209,199424,1,0,0:0:0:0:
472,62,199600,1,0,0:0:0:0:
407,211,199777,1,0,0:0:0:0:
276,48,199953,6,0,L|155:48,1,85
75,129,200306,1,0,0:0:0:0:
205,208,200483,1,0,0:0:0:0:
48,272,200659,1,0,0:0:0:0:
232,199,200836,1,0,0:0:0:0:
154,375,201012,1,0,0:0:0:0:
258,191,201189,6,0,P|280:139|264:53,1,127.5
259,44,201542,1,0,0:0:0:0:
399,173,201718,1,0,0:0:0:0:
272,69,201894,1,0,0:0:0:0:
130,167,202071,1,0,0:0:0:0:
281,108,202247,1,0,0:0:0:0:
187,254,202424,1,0,0:0:0:0:
145,249,202512,1,0,0:0:0:0:
103,246,202600,1,0,0:0:0:0:
61,241,202688,1,0,0:0:0:0:
21,235,202777,5,0,0:0:0:0:
135,152,202953,1,0,0:0:0:0:
181,347,203130,1,0,0:0:0:0:
281,219,203306,1,0,0:0:0:0:
281,219,203659,1,0,0:0:0:0:
281,219,203747,1,0,0:0:0:0:
281,219,203836,1,0,0:0:0:0:
317,112,204012,1,0,0:0:0:0:
271,240,204189,6,0,L|262:355,2,85
201,121,204718,1,0,0:0:0:0:
201,121,205071,1,0,0:0:0:0:
201,121,205159,1,0,0:0:0:0:
201,121,205247,1,0,0:0:0:0:
81,136,205424,1,0,0:0:0:0:
235,16,205600,5,0,0:0:0:0:
359,115,205777,2,0,P|407:125|466:117,1,85
275,175,206130,1,0,0:0:0:0:
147,92,206306,2,0,L|49:84,1,85
296,193,206659,1,0,0:0:0:0:
141,244,206836,6,0,P|120:281|114:323,1,85
244,212,207189,1,0,0:0:0:0:
223,318,207365,1,0,0:0:0:0:
176,150,207542,1,0,0:0:0:0:
326,247,207718,1,0,0:0:0:0:
326,247,207806,1,0,0:0:0:0:
326,247,207894,1,0,0:0:0:0:
326,247,207983,1,0,0:0:0:0:
326,247,208071,2,0,P|343:214|352:271,1,127.5
372,265,208424,6,0,P|424:251|463:261,1,85
286,331,208777,2,0,P|234:345|195:335,1,85
398,171,209130,1,0,0:0:0:0:
241,264,209306,1,0,0:0:0:0:
421,332,209483,1,0,0:0:0:0:
274,114,209659,5,0,0:0:0:0:
274,114,210012,1,0,0:0:0:0:
250,358,210189,1,0,0:0:0:0:
143,178,211247,5,0,0:0:0:0:
143,178,211600,2,0,P|135:120|216:191,1,255
96,296,212659,5,0,0:0:0:0:
187,141,212836,1,0,0:0:0:0:
215,326,213012,1,0,0:0:0:0:
187,141,213189,1,0,0:0:0:0:
346,237,213365,1,0,0:0:0:0:
251,68,213542,1,0,0:0:0:0:
251,68,213630,1,0,0:0:0:0:
251,68,213718,2,0,P|203:46|179:43,1,50.9999984436036
333,115,213894,2,0,P|357:106|378:93,1,50.9999984436036
262,244,214071,5,0,0:0:0:0:
262,244,214689,2,0,L|253:217,2,25.4999992218018
132,332,215130,1,0,0:0:0:0:
262,244,215306,6,0,B|321:223|321:223|377:239|377:239|427:160,1,203.999993774414
421,135,215747,1,0,0:0:0:0:
399,103,215836,2,0,L|297:94,1,101.999996887207
87,165,216189,1,0,0:0:0:0:
212,87,216365,1,0,0:0:0:0:
206,217,216542,1,0,0:0:0:0:
157,32,216718,1,0,0:0:0:0:
128,249,216894,6,0,B|63:275|18:224|18:224|35:268|23:306,1,203.999993774414
132,347,217424,1,0,0:0:0:0:
226,288,217600,2,0,P|299:299|334:333,2,101.999996887207
132,347,218130,1,0,0:0:0:0:
253,379,218306,6,0,L|276:148,1,203.999993774414
371,61,218836,1,0,0:0:0:0:
181,139,219012,2,0,P|120:139|59:118,1,101.999996887207
375,214,219365,2,0,P|436:214|497:193,1,101.999996887207
259,83,219718,5,0,0:0:0:0:
303,276,219894,1,0,0:0:0:0:
173,103,220071,5,0,0:0:0:0:
215,295,220247,1,0,0:0:0:0:
322,141,220424,5,0,0:0:0:0:
128,171,220600,1,0,0:0:0:0:
341,224,220777,5,0,0:0:0:0:
135,256,220953,1,0,0:0:0:0:
215,64,221130,5,0,0:0:0:0:
391,37,221306,2,0,L|446:45,2,50.9999984436036
464,144,221659,2,0,P|473:189|468:214,1,50.9999984436036
372,321,221836,1,0,0:0:0:0:
321,326,221924,1,0,0:0:0:0:
272,314,222012,1,0,0:0:0:0:
222,305,222100,1,0,0:0:0:0:
172,314,222189,2,0,P|208:247|157:154,1,152.999995330811
164,155,222542,6,0,L|397:166,1,203.999993774414
292,257,223071,1,0,0:0:0:0:
363,74,223247,2,0,P|434:103|421:238,1,203.999993774414
327,336,223777,1,0,0:0:0:0:
327,336,223953,6,0,P|261:319|223:328,1,101.999996887207
85,249,224306,2,0,P|151:266|189:257,1,101.999996887207
296,100,224659,1,0,0:0:0:0:
143,156,224836,1,0,0:0:0:0:
143,156,224924,1,0,0:0:0:0:
143,156,225012,1,0,0:0:0:0:
328,215,225189,1,0,0:0:0:0:
211,368,225365,6,0,L|216:260,1,101.999996887207
272,126,225718,1,0,0:0:0:0:
378,228,225894,1,0,0:0:0:0:
124,348,226071,6,0,L|129:240,1,101.999996887207
185,106,226424,1,0,0:0:0:0:
291,208,226600,1,0,0:0:0:0:
163,86,226777,6,0,P|110:76|59:83,1,101.999996887207
224,229,227130,1,0,0:0:0:0:
409,147,227306,1,0,0:0:0:0:
409,147,227394,1,0,0:0:0:0:
409,147,227483,2,0,L|532:141,1,101.999996887207
330,305,227836,1,0,0:0:0:0:
330,305,227924,1,0,0:0:0:0:
330,305,228012,1,0,0:0:0:0:
194,169,228189,6,0,P|121:162|11:258,1,203.999993774414
145,298,228718,1,0,0:0:0:0:
194,169,228894,2,0,L|158:52,1,101.999996887207
299,268,229247,2,0,L|335:385,1,101.999996887207
338,133,229600,2,0,P|343:83|470:126,1,203.999993774414
369,207,230130,1,0,0:0:0:0:
256,111,230306,1,0,0:0:0:0:
256,111,230394,1,0,0:0:0:0:
256,111,230483,2,0,P|241:80|241:51,1,50.9999984436036
187,160,230659,2,0,P|183:185|171:208,1,50.9999984436036
259,306,230836,2,0,P|246:283|242:258,1,50.9999984436036
334,53,231012,6,0,L|320:258,1,203.999993774414
229,341,231542,1,0,0:0:0:0:
177,124,231718,2,0,P|112:98|69:111,1,101.999996887207
59,121,231983,1,0,0:0:0:0:
41,143,232071,2,0,L|38:271,1,101.999996887207
229,341,232424,6,0,P|301:328|333:301,1,101.999996887207
160,154,232777,2,0,P|137:199|138:250,1,101.999996887207,0|0,2:0|2:0,2:0:0:0:
361,178,233130,2,0,P|313:122|274:107,1,101.999996887207
73,294,233483,2,0,L|285:255,1,203.999993774414
385,314,234012,1,0,0:0:0:0:
302,158,234189,6,0,P|252:156|206:178,1,101.999996887207
398,138,234542,2,0,P|352:159|302:158,1,101.999996887207
495,118,234894,2,0,P|444:116|398:137,1,101.999996887207
377,162,235159,1,0,0:0:0:0:
360,187,235247,6,0,L|490:211,1,101.999996887207
259,168,235600,2,0,L|389:192,1,101.999996887207
158,149,235953,2,0,L|288:173,1,101.999996887207
282,181,236218,1,0,0:0:0:0:
307,205,236306,2,0,P|333:273|325:321,1,101.999996887207
158,149,236659,6,0,L|175:26,1,101.999996887207
144,250,237012,2,0,L|161:127,1,101.999996887207
130,351,237365,2,0,L|147:228,1,101.999996887207
160,221,237630,1,0,0:0:0:0:
185,203,237718,2,0,L|250:199,2,50.9999984436036
309,301,238071,6,0,L|326:190,1,101.999996887207
330,69,238424,1,0,0:0:0:0:
512,95,238600,2,0,P|468:129|378:118,1,101.999996887207
241,108,238953,2,0,P|285:74|375:85,1,101.999996887207
157,159,239306,1,0,0:0:0:0:
157,159,239483,6,0,L|144:373,1,203.999993774414
25,243,240012,1,0,0:0:0:0:
25,243,240189,2,0,P|21:189|44:124,1,101.999996887207
192,124,240542,2,0,P|141:133|108:249,1,152.999995330811
103,243,240894,6,0,L|234:266,1,101.999996887207
312,170,241247,1,0,0:0:0:0:
71,269,241424,2,0,L|202:292,1,101.999996887207
339,153,241777,1,0,0:0:0:0:
339,153,241865,1,0,0:0:0:0:
339,153,241953,1,0,0:0:0:0:
291,285,242130,1,0,0:0:0:0:
208,123,242306,6,0,L|191:22,1,101.999996887207
305,152,242659,1,0,0:0:0:0:
112,120,242836,2,0,P|51:131|9:162,1,101.999996887207
80,338,243189,2,0,P|141:327|183:296,1,101.999996887207
257,110,243542,5,0,0:0:0:0:
256,192,243630,12,0,245130,0:0:0:0:
229,207,246542,5,0,0:0:0:0:
347,156,247777,1,0,0:0:0:0:
347,156,247865,1,0,0:0:0:0:
347,156,247953,5,0,0:0:0:0:
223,83,248130,1,0,0:0:0:0:
267,226,248306,1,0,0:0:0:0:
319,13,248483,1,0,0:0:0:0:
175,143,248659,1,0,0:0:0:0:
364,259,248836,1,0,0:0:0:0:
319,13,249012,1,0,0:0:0:0:
242,335,249189,1,0,0:0:0:0:
242,335,249542,1,0,0:0:0:0:
242,335,249630,1,0,0:0:0:0:
242,335,249718,1,0,0:0:0:0:
199,200,249894,1,0,0:0:0:0:
324,284,250071,2,0,P|346:287|389:284,2,50.9999984436036
179,179,250424,2,0,L|11:163,1,152.999995330811
2,142,250777,6,0,L|10:328,1,170
126,364,251306,1,0,0:0:0:0:
185,232,251483,2,0,P|228:202|355:247,1,170
264,323,252012,1,0,0:0:0:0:
185,232,252189,6,0,P|131:211|86:210,1,85
71,213,252453,1,0,0:0:0:0:
45,227,252542,2,0,L|54:341,1,85
185,232,252894,1,0,0:0:0:0:
120,124,253071,1,0,0:0:0:0:
185,232,253247,2,0,L|287:219,1,85
381,111,253600,6,0,P|359:159|356:215,1,85
363,218,253865,1,0,0:0:0:0:
376,248,253953,2,0,P|424:269|480:272,1,85
314,322,254306,6,0,L|221:309,1,85
199,304,254571,1,0,0:0:0:0:
163,300,254659,2,0,L|70:287,1,85
192,158,255012,2,0,P|179:104|131:173,1,170
262,63,255542,1,0,0:0:0:0:
296,241,255718,1,0,0:0:0:0:
371,104,255894,1,0,0:0:0:0:
371,104,255983,1,0,0:0:0:0:
371,104,256071,2,0,L|353:208,1,85
229,297,256424,6,0,P|192:263|66:300,1,170
229,297,256953,1,0,0:0:0:0:
294,183,257130,2,0,P|299:137|289:96,1,85
364,290,257483,2,0,P|369:336|359:377,1,85
157,306,257836,6,0,L|163:183,1,85
170,194,258100,1,0,0:0:0:0:
191,168,258189,2,0,P|261:147|295:155,1,85
410,224,258542,2,0,L|425:284,3,42.5
432,296,258894,2,0,L|310:290,1,85
196,343,259247,6,0,L|111:338,2,85
295,215,259777,2,0,P|309:162|290:101,1,85
186,42,260130,2,0,P|182:84|195:124,1,85
430,239,260483,6,0,L|409:39,1,170
295,215,261012,1,0,0:0:0:0:
309,71,261189,1,0,0:0:0:0:
197,198,261365,1,0,0:0:0:0:
198,219,261453,1,0,0:0:0:0:
198,240,261542,1,0,0:0:0:0:
198,261,261630,1,0,0:0:0:0:
199,283,261718,2,0,P|255:265|299:277,1,85
308,284,261983,1,0,0:0:0:0:
332,307,262071,6,0,L|350:175,1,118.999996368408
249,36,262424,1,0,0:0:0:0:
169,204,262600,2,0,P|84:215|36:188,1,118.999996368408
320,86,262953,1,0,0:0:0:0:
286,313,263130,1,0,0:0:0:0:
113,109,263306,6,0,B|209:121|209:121|254:198|361:206,1,237.999992736817
267,17,263836,1,0,0:0:0:0:
220,277,264012,1,0,0:0:0:0:
328,71,264189,1,0,0:0:0:0:
157,198,264365,1,0,0:0:0:0:
426,140,264542,1,0,0:0:0:0:
210,121,264718,1,0,0:0:0:0:
210,121,265071,1,0,0:0:0:0:
210,121,265159,1,0,0:0:0:0:
210,121,265247,5,0,0:0:0:0:
426,140,265424,1,0,0:0:0:0:
157,198,265601,1,0,0:0:0:0:
328,71,265777,1,0,0:0:0:0:
220,277,265954,1,0,0:0:0:0:
267,17,266130,1,0,0:0:0:0:
256,191,266659,5,0,0:0:0:0:
256,191,266747,1,0,0:0:0:0:
256,191,266836,1,0,0:0:0:0:
256,192,266924,12,0,272130,0:0:0:0:
