osu file format v14

[General]
AudioFilename: audio.mp3
AudioLeadIn: 0
PreviewTime: 80129
Countdown: 0
SampleSet: Soft
StackLeniency: 0.7
Mode: 0
LetterboxInBreaks: 0
WidescreenStoryboard: 1

[Editor]
DistanceSpacing: 1.4
BeatDivisor: 6
GridSize: 32
TimelineZoom: 2

[Metadata]
Title:HAPPY PARTY TRAIN
TitleUnicode:HAPPY PARTY TRAIN
Artist:Aqours
ArtistUnicode:Aqours
Creator:Sotarks
Version:Sunshine
Source:ラブライブ!サンシャイン!!
Tags:video game 3rd Single Love Live! Sunshine!! Second Live School Idol Project japanese female vocalist chiga elinor [_eli_] smokelind browiec anime 高海千歌 Chika Takami 伊波杏樹 Anju Inami 桜内梨子 Riko Sakurauchi 逢田梨香子 Rikako Aida 松浦果南 Kanan Matsuura 諏訪ななか Nanaka Suwa 黒澤ダイヤ Dia Kurosawa 小宮有紗 Arisa Komiya 畑 亜貴 Aki Hata 渡辺拓也 Takuya Watanabe EFFY アクア
BeatmapID:2488855
BeatmapSetID:1194661

[Difficulty]
HPDrainRate:5.2
CircleSize:3.8
OverallDifficulty:8.7
ApproachRate:9
SliderMultiplier:1.72
SliderTickRate:1

[Events]
//Background and Video events
0,0,"bg.jpg",0,0
//Break Periods
//Storyboard Layer 0 (Background)
//Storyboard Layer 1 (Fail)
//Storyboard Layer 2 (Pass)
//Storyboard Layer 3 (Foreground)
//Storyboard Layer 4 (Overlay)
//Storyboard Sound Samples

[TimingPoints]
806,352.941176470588,4,2,22,42,1,0
806,-161.290322580645,4,2,22,42,0,0
6453,-121.951219512195,4,2,22,62,0,0
9276,-121.951219512195,4,2,22,72,0,0
10688,-121.951219512195,4,2,22,82,0,0
11394,-121.951219512195,4,2,22,72,0,0
11658,-121.951219512195,4,2,22,5,0,0
11747,-121.951219512195,4,2,22,72,0,0
12011,-121.951219512195,4,2,22,5,0,0
12100,-98.0392156862745,4,2,22,72,0,0
21805,-89.2857142857143,4,2,22,72,0,0
22158,-98.0392156862745,4,2,22,72,0,0
23394,-138.888888888889,4,2,22,62,0,0
44570,-108.695652173913,4,2,22,72,0,0
45982,-98.0392156862746,4,2,22,72,0,0
78453,-98.0392156862746,4,2,22,82,0,0
79864,-98.0392156862746,4,2,22,92,0,0
80747,-98.0392156862746,4,2,22,72,0,0
81188,-98.0392156862746,4,2,22,5,0,0
81276,-89.2857142857143,4,2,22,82,0,0
102276,-108.695652173913,4,2,22,82,0,0
103688,-138.888888888889,4,2,22,82,0,0
103864,-138.888888888889,4,2,22,62,0,0
106511,-138.888888888889,4,2,22,72,0,0
107923,-108.695652173913,4,2,22,82,0,0
109158,-70.4225352112677,4,2,22,82,0,0
109423,-70.4225352112677,4,2,22,5,0,0
109511,-98.0392156862745,4,2,22,82,0,0
120805,-89.2857142857143,4,2,22,82,0,0
125479,347.826086956522,4,2,22,82,1,0
125479,-312.5,4,2,22,82,0,0
131044,-100,4,2,22,12,0,0

[Colours]
Combo1 : 227,70,62
Combo2 : 61,111,241
Combo3 : 255,251,166

[HitObjects]
75,117,806,6,0,P|82:168|91:237,1,106.639995769287,6|0,0:2|0:2,0:0:0:0:
51,321,1335,2,0,P|87:329|118:338,1,53.3199978846436,2|0,0:2|0:2,0:0:0:0:
177,267,1688,1,2,0:2:0:0:
177,267,1864,2,0,P|202:260|228:254,1,53.3199978846436,2|0,0:2|0:2,0:0:0:0:
325,327,2217,2,0,P|332:276|341:207,1,106.639995769287,2|0,0:2|0:2,0:0:0:0:
301,123,2746,2,0,P|337:115|368:106,1,53.3199978846436,2|0,0:2|0:2,0:0:0:0:
445,34,3100,2,0,P|451:86|459:139,1,106.639995769287,2|0,0:2|0:2,0:0:0:0:
491,260,3629,6,0,P|441:233|375:248,1,106.639995769287,2|0,0:2|0:2,0:0:0:0:
282,220,4158,2,0,P|290:263|296:289,1,53.3199978846436,2|0,0:2|0:2,0:0:0:0:
168,238,4511,1,2,0:2:0:0:
168,238,4688,2,0,P|174:212|179:186,1,53.3199978846436,2|0,0:2|0:2,0:0:0:0:
206,52,5041,1,2,0:2:0:0:
258,143,5217,1,0,0:2:0:0:
131,98,5394,1,2,0:2:0:0:
265,2,5570,2,0,P|256:50|250:77,1,53.3199978846436,2|0,0:2|0:2,0:0:0:0:
383,97,5923,1,2,0:2:0:0:
383,97,6100,2,0,P|377:70|373:44,1,53.3199978846436,2|0,0:2|0:2,0:0:0:0:
213,211,6453,6,0,P|222:276|227:311,1,70.5200010760498,4|0,1:2|0:2,0:0:0:0:
374,346,6805,2,0,P|378:311|383:276,1,70.5200010760498,0|0,1:2|0:2,0:0:0:0:
449,132,7158,2,0,P|395:143|369:148,1,70.5200010760498,0|0,1:2|0:2,0:0:0:0:
265,14,7511,2,0,P|299:21|334:27,1,70.5200010760498,0|0,1:2|0:2,0:0:0:0:
215,171,7864,6,0,P|206:126|197:86,1,70.5200010760498,2|0,1:2|0:2,0:0:0:0:
73,27,8217,2,0,P|65:61|58:96,1,70.5200010760498,0|0,1:2|0:2,0:0:0:0:
6,244,8570,2,0,P|57:256|79:263,1,70.5200010760498,0|0,1:2|0:2,0:0:0:0:
210,365,8923,2,0,P|159:377|137:384,1,70.5200010760498,0|0,1:2|0:2,0:0:0:0:
262,200,9276,5,2,1:2:0:0:
346,305,9453,1,0,1:2:0:0:
299,131,9629,1,0,1:2:0:0:
187,270,9805,1,0,1:2:0:0:
262,67,9982,1,8,1:2:0:0:
393,243,10158,1,8,1:2:0:0:
307,4,10335,1,8,1:2:0:0:
162,196,10511,1,8,1:2:0:0:
435,29,10688,5,14,1:2:0:0:
435,29,11394,6,0,P|444:91|451:141,1,105.780001614075,10|0,1:2|0:2,0:0:0:0:
329,180,11747,2,0,P|336:127|343:75,1,105.780001614075,14|0,0:2|0:2,0:0:0:0:
473,222,12100,6,0,B|424:200|386:237|402:247|369:294|288:253,1,175.440001070801,6|8,1:2|0:2,0:0:0:0:
200,160,12629,1,0,0:2:0:0:
76,277,12805,2,0,P|86:328|94:371,1,87.7200005354004,2|0,1:2|1:2,0:0:0:0:
227,249,13158,1,8,0:2:0:0:
48,152,13335,1,0,0:2:0:0:
203,345,13511,6,0,P|265:334|301:327,1,87.7200005354004,2|0,1:2|0:2,0:0:0:0:
356,123,13864,2,0,P|312:115|269:107,1,87.7200005354004,10|0,0:2|1:2,0:0:0:0:
401,212,14217,1,2,0:2:0:0:
336,35,14394,1,0,1:2:0:0:
210,162,14570,2,0,P|218:205|226:248,1,87.7200005354004,10|0,0:2|0:2,0:0:0:0:
418,84,14923,6,0,P|461:76|504:68,1,87.7200005354004,6|0,1:2|0:2,0:0:0:0:
438,298,15276,2,0,P|394:290|351:282,1,87.7200005354004,10|0,0:2|0:2,0:0:0:0:
279,101,15629,1,2,1:2:0:0:
401,212,15805,1,0,1:2:0:0:
204,299,15982,2,0,P|212:255|220:212,1,87.7200005354004,10|0,0:2|0:2,0:0:0:0:
56,38,16335,6,0,B|25:66|6:80|6:80|36:134|54:191,1,175.440001070801,6|8,1:2|0:2,0:0:0:0:
212,70,16864,1,0,1:2:0:0:
87,263,17041,1,0,1:2:0:0:
251,188,17217,1,8,0:2:0:0:
251,188,17305,1,8,0:2:0:0:
251,188,17394,1,10,0:2:0:0:
111,107,17570,1,8,0:3:0:0:
259,312,17747,6,0,B|321:288|378:265|378:265|402:282|431:301,1,175.440001070801,6|8,1:2|0:2,0:0:0:0:
311,130,18276,1,0,0:2:0:0:
171,275,18453,2,0,P|180:329|188:374,1,87.7200005354004,2|0,1:2|1:2,0:0:0:0:
277,208,18805,1,8,0:2:0:0:
131,132,18982,1,0,0:2:0:0:
259,312,19158,6,0,P|327:298|368:288,1,87.7200005354004,2|0,1:2|0:2,0:0:0:0:
389,66,19511,2,0,P|345:57|303:47,1,87.7200005354004,10|0,0:2|1:2,0:0:0:0:
227,81,19776,1,0,1:2:0:0:
227,81,19864,2,0,P|236:138|240:156,1,43.8600002677002,10|0,1:3|1:2,0:0:0:0:
376,219,20041,2,0,P|379:197|382:175,1,43.8600002677002,0|0,1:2|1:2,0:0:0:0:
168,228,20217,2,0,P|180:314|188:372,1,131.580000803101,10|0,1:2|0:2,0:0:0:0:
189,384,20570,6,0,P|132:373|90:368,1,87.7200005354004,6|0,1:2|0:2,0:0:0:0:
178,141,20923,1,8,0:2:0:0:
372,322,21100,2,0,P|429:311|471:306,1,87.7200005354004,2|0,1:2|0:2,0:0:0:0:
278,46,21453,1,2,1:2:0:0:
278,46,21805,6,0,B|221:25|183:62|199:72|166:119|79:84,1,192.640002351563,6|8,1:2|0:2,0:0:0:0:
32,46,22247,1,8,0:2:0:0:
32,46,22335,2,0,P|21:109|15:148,1,87.7200005354004,8|0,0:2|1:2,0:0:0:0:
206,225,22688,1,8,0:2:0:0:
103,91,22864,1,8,0:3:0:0:
28,284,23041,1,4,0:3:0:0:
28,284,23394,6,0,P|96:291|174:312,1,123.840003023438,6|0,1:2|0:2,0:0:0:0:
243,358,23923,1,2,1:2:0:0:
243,358,24100,2,0,P|250:310|256:280,1,61.9200015117188,2|0,0:2|0:2,0:0:0:0:
356,243,24453,2,0,P|361:273|365:304,1,61.9200015117188,0|0,3:2|0:2,0:0:0:0:
435,165,24805,2,0,P|374:150|313:145,1,123.840003023438,0|2,1:2|0:2,0:0:0:0:
211,218,25335,1,0,1:2:0:0:
211,218,25512,2,0,P|204:170|198:140,1,61.9200015117188,2|0,0:2|0:2,0:0:0:0:
98,103,25865,2,0,P|92:133|88:164,1,61.9200015117188,2|0,3:2|0:2,0:0:0:0:
207,47,26217,6,0,P|242:41|281:36,1,61.9200015117188,2|0,1:2|0:2,0:0:0:0:
306,156,26570,1,2,0:2:0:0:
306,156,26747,2,0,P|275:150|244:146,1,61.9200015117188,2|0,1:2|0:2,0:0:0:0:
366,81,27100,1,2,0:2:0:0:
258,227,27276,1,0,3:2:0:0:
386,172,27453,1,2,0:2:0:0:
206,47,27629,2,0,P|197:144|191:199,1,123.840003023438,0|0,1:2|0:2,0:0:0:0:
82,252,28158,2,0,P|75:190|70:128,1,123.840003023438,0|0,1:2|0:2,0:0:0:0:
184,228,28688,1,2,3:2:0:0:
42,324,28864,1,2,0:2:0:0:
184,228,29041,6,0,B|260:210|229:267|322:253,1,123.840003023438,2|2,1:2|0:2,0:0:0:0:
380,181,29570,2,0,B|398:200|414:214|414:214|395:256|390:306,1,123.840003023438,2|0,1:2|0:2,0:0:0:0:
297,168,30100,1,0,3:2:0:0:
404,93,30276,1,2,0:2:0:0:
297,168,30453,2,0,P|260:162|233:157,1,61.9200015117188,2|0,1:2|0:2,0:0:0:0:
162,76,30805,1,2,0:2:0:0:
162,76,30982,2,0,P|193:71|224:66,1,61.9200015117188,2|0,1:2|0:2,0:0:0:0:
111,169,31335,2,0,P|107:205|102:239,1,61.9200015117188,2|0,0:2|3:2,0:0:0:0:
189,343,31688,1,2,0:2:0:0:
43,267,31864,6,0,B|87:241|139:280|123:290|156:326|214:300,2,185.760004535156,0|0|0,1:2|1:2|3:2,0:0:0:0:
321,132,33276,2,0,P|331:197|340:260,1,123.840003023438,0|0,1:2|0:2,0:0:0:0:
308,357,33805,1,2,1:2:0:0:
413,286,33982,1,2,0:2:0:0:
266,215,34158,1,10,0:3:0:0:
329,279,34335,1,2,3:2:0:0:
391,184,34511,1,6,0:3:0:0:
245,301,34688,6,0,P|178:290|99:281,1,123.840003023438,2|2,1:2|0:2,0:0:0:0:
25,176,35217,2,0,P|92:165|171:156,1,123.840003023438,2|0,1:2|0:2,0:0:0:0:
302,59,35747,1,2,3:2:0:0:
188,13,35923,1,2,0:2:0:0:
321,205,36100,2,0,P|330:113|334:60,1,123.840003023438,0|0,1:2|0:2,0:0:0:0:
236,163,36629,1,2,1:2:0:0:
401,125,36805,1,2,0:2:0:0:
303,56,36982,1,2,0:2:0:0:
404,232,37158,1,2,3:2:0:0:
509,112,37335,1,2,0:2:0:0:
321,205,37511,6,0,P|328:251|333:283,1,61.9200015117188,2|0,1:2|0:2,0:0:0:0:
477,330,37864,1,2,0:2:0:0:
477,330,38041,2,0,P|483:268|488:206,1,123.840003023438,2|0,1:2|0:2,0:0:0:0:
360,108,38570,1,2,3:2:0:0:
485,58,38747,1,2,0:2:0:0:
382,213,38923,2,0,P|336:206|298:202,2,61.9200015117188,0|0|0,1:2|0:2|0:2,0:0:0:0:
237,45,39453,2,0,P|267:41|298:36,2,61.9200015117188,0|0|0,1:2|0:2|0:2,0:0:0:0:
99,132,39982,1,2,3:2:0:0:
137,0,40158,1,2,0:2:0:0:
219,165,40335,6,0,P|231:268|236:306,1,123.840003023438,2|2,1:2|0:2,0:0:0:0:
105,349,40864,2,0,P|112:287|119:226,1,123.840003023438,2|0,1:2|0:2,0:0:0:0:
170,77,41394,1,2,3:2:0:0:
46,121,41570,1,2,0:2:0:0:
211,197,41747,6,0,B|287:215|256:158|349:172,1,123.840003023438,2|0,1:2|0:2,0:0:0:0:
426,54,42276,2,0,P|437:120|447:194,1,123.840003023438,2|0,1:2|0:2,0:0:0:0:
327,260,42805,1,2,3:2:0:0:
463,312,42982,1,2,0:2:0:0:
326,169,43158,2,0,P|280:175|246:179,1,61.9200015117188,2|0,1:2|0:2,0:0:0:0:
204,352,43511,2,0,P|234:356|265:359,1,61.9200015117188,0|0,1:2|0:2,0:0:0:0:
138,217,43864,1,0,1:2:0:0:
78,314,44041,1,2,0:2:0:0:
246,248,44217,1,2,1:2:0:0:
80,124,44394,1,2,0:2:0:0:
204,352,44570,6,0,P|209:294|216:194,1,158.239994687988,6|8,1:2|0:2,0:0:0:0:
376,81,45100,2,0,P|386:132|392:168,1,79.1199973439942,2|0,1:2|0:2,0:0:0:0:
138,217,45453,2,0,P|144:178|152:139,1,79.1199973439942,2|2,1:2|0:2,0:0:0:0:
314,300,45805,1,10,0:2:0:0:
314,300,45894,1,8,0:2:0:0:
314,300,45982,6,0,P|373:315|439:229,1,175.440001070801,6|8,1:2|0:2,0:0:0:0:
284,149,46511,1,2,0:2:0:0:
199,323,46688,1,2,1:2:0:0:
342,221,46864,1,0,1:2:0:0:
180,93,47041,2,0,P|191:162|199:210,1,87.7200005354004,8|0,0:2|0:2,0:0:0:0:
25,289,47394,2,0,P|32:245|38:202,1,87.7200005354004,0|0,1:2|0:2,0:0:0:0:
117,40,47747,1,10,0:2:0:0:
0,83,47923,1,0,1:2:0:0:
142,200,48100,2,0,P|203:187|242:179,1,87.7200005354004,2|0,0:2|1:2,0:0:0:0:
345,50,48453,2,0,P|302:40|259:31,1,87.7200005354004,10|0,0:2|0:2,0:0:0:0:
374,293,48805,6,0,B|391:260|415:229|415:229|389:191|368:134,1,175.440001070801,2|10,1:2|0:2,0:0:0:0:
216,105,49335,1,2,0:2:0:0:
321,231,49511,1,0,1:2:0:0:
345,50,49688,1,2,1:2:0:0:
201,183,49864,1,8,0:2:0:0:
374,293,50041,1,2,0:2:0:0:
306,123,50217,6,0,P|214:134|116:147,1,175.440001070801,0|8,1:2|0:2,0:0:0:0:
22,319,50747,2,0,P|114:330|212:343,1,175.440001070801,0|0,1:2|1:2,0:0:0:0:
401,218,51276,1,10,0:2:0:0:
320,384,51453,1,2,0:2:0:0:
219,215,51629,2,0,P|165:228|127:237,1,87.7200005354004,2|0,1:2|0:2,0:0:0:0:
303,293,51982,1,10,0:2:0:0:
380,119,52158,2,0,P|434:132|472:141,1,87.7200005354004,2|0,0:2|1:2,0:0:0:0:
311,206,52511,1,0,1:2:0:0:
261,53,52688,1,8,0:2:0:0:
401,218,52864,1,2,0:2:0:0:
189,105,53041,6,0,P|181:178|176:216,1,87.7200005354004,2|0,1:2|0:2,0:0:0:0:
274,330,53394,1,10,0:2:0:0:
87,173,53570,2,0,P|95:246|100:284,1,87.7200005354004,2|0,1:2|0:2,0:0:0:0:
266,178,53923,1,2,1:2:0:0:
110,78,54100,1,8,0:2:0:0:
208,292,54276,1,2,0:2:0:0:
367,117,54453,6,0,P|322:55|206:78,1,175.440001070801,0|8,1:2|0:2,0:0:0:0:
305,275,54982,2,0,P|358:266|404:260,1,87.7200005354004,0|0,0:2|1:2,0:0:0:0:
274,145,55335,1,0,1:2:0:0:
130,255,55511,2,0,P|77:246|31:240,1,87.7200005354004,8|0,0:2|0:2,0:0:0:0:
147,102,55864,1,0,1:2:0:0:
217,313,56041,1,0,1:2:0:0:
83,172,56217,1,8,0:2:0:0:
274,145,56394,1,2,3:2:0:0:
121,334,56570,1,2,1:2:0:0:
202,181,56747,1,10,0:2:0:0:
202,181,56835,1,8,0:2:0:0:
202,181,56923,1,10,0:2:0:0:
288,362,57100,1,10,0:3:0:0:
50,233,57276,6,0,P|57:155|68:39,1,175.440001070801,6|10,1:2|0:2,0:0:0:0:
311,21,57805,2,0,P|319:108|327:195,1,175.440001070801,2|0,0:2|1:2,0:0:0:0:
220,318,58335,1,10,0:2:0:0:
373,373,58511,1,2,0:2:0:0:
209,191,58688,2,0,B|160:167|116:211|133:219|93:259|25:222,1,175.440001070801,0|8,1:2|0:2,0:0:0:0:
231,104,59217,1,2,0:2:0:0:
194,281,59394,1,2,1:2:0:0:
74,148,59570,1,2,1:2:0:0:
244,202,59747,1,10,0:2:0:0:
78,313,59923,1,2,0:2:0:0:
231,104,60100,6,0,P|279:109|338:117,1,87.7200005354004,2|0,1:2|0:2,0:0:0:0:
358,321,60453,1,10,0:2:0:0:
153,193,60629,2,0,P|149:236|145:280,1,87.7200005354004,2|0,1:2|0:2,0:0:0:0:
278,197,60982,1,0,1:2:0:0:
154,68,61158,1,10,0:2:0:0:
234,272,61335,1,2,0:2:0:0:
387,72,61511,2,0,P|441:85|457:213,1,175.440001070801,0|8,1:2|0:2,0:0:0:0:
313,347,62041,1,0,3:2:0:0:
390,171,62217,1,0,1:2:0:0:
465,313,62394,1,0,1:2:0:0:
324,122,62570,1,10,0:2:0:0:
387,279,62747,1,2,0:2:0:0:
459,55,62923,6,0,P|372:72|264:93,1,175.440001070801,6|10,1:2|0:2,0:0:0:0:
107,46,63453,1,2,0:2:0:0:
220,186,63629,1,0,1:2:0:0:
66,130,63805,1,0,1:2:0:0:
241,16,63982,2,0,P|235:76|232:114,1,87.7200005354004,8|2,0:2|0:2,0:0:0:0:
372,268,64335,2,0,P|319:253|220:334,1,175.440001070801,2|10,1:2|0:2,0:0:0:0:
0,184,64864,2,0,P|53:169|152:250,1,175.440001070801,2|0,1:2|1:2,0:0:0:0:
299,125,65394,1,10,0:2:0:0:
178,56,65570,1,2,0:2:0:0:
279,242,65747,5,4,1:2:0:0:
406,68,65923,1,2,1:2:0:0:
207,171,66100,1,10,0:2:0:0:
420,272,66276,1,2,1:2:0:0:
299,125,66453,2,0,L|292:182,1,43.8600002677002,10|8,0:2|0:2,0:0:0:0:
465,209,66629,2,0,L|459:165,1,43.8600002677002,2|0,1:2|1:2,0:0:0:0:
291,339,66805,2,0,P|238:348|182:359,1,87.7200005354004,10|0,0:2|1:2,0:0:0:0:
109,146,67158,5,14,0:2:0:0:
44,333,67335,1,0,1:2:0:0:
149,77,67511,1,10,0:2:0:0:
229,276,67688,1,0,1:2:0:0:
106,16,67864,1,10,0:2:0:0:
0,263,68041,1,0,1:2:0:0:
184,4,68217,6,0,B|266:-35|315:37|295:47|335:118|443:75,1,263.160001606201,6|0,1:2|0:2,0:0:0:0:
411,84,68923,1,0,1:2:0:0:
268,242,69100,1,8,0:2:0:0:
426,195,69276,2,0,P|436:252|444:296,1,87.7200005354004,0|0,1:2|0:2,0:0:0:0:
222,93,69629,2,0,P|172:85|123:78,1,87.7200005354004,6|0,1:3|0:2,0:0:0:0:
161,289,69982,6,0,P|204:282|247:275,1,87.7200005354004,2|0,1:2|0:2,0:0:0:0:
364,133,70335,1,2,1:2:0:0:
255,187,70511,1,10,0:3:0:0:
393,317,70688,2,0,P|397:272|402:213,1,87.7200005354004,0|0,0:2|1:2,0:0:0:0:
301,71,71041,1,6,1:3:0:0:
440,116,71217,1,2,1:2:0:0:
255,187,71394,6,0,P|258:230|262:274,1,87.7200005354004,4|0,1:2|0:2,0:0:0:0:
138,103,71747,2,0,P|80:89|50:83,1,87.7200005354004,2|0,1:2|0:2,0:0:0:0:
93,280,72100,2,0,P|135:269|178:260,1,87.7200005354004,10|0,1:3|0:2,0:0:0:0:
311,296,72453,1,2,1:2:0:0:
203,171,72629,1,6,1:3:0:0:
203,171,72717,1,4,1:3:0:0:
203,171,72805,6,0,B|188:207|170:232|170:232|207:282|226:347,1,175.440001070801,4|8,1:2|0:2,0:0:0:0:
333,170,73335,1,10,0:2:0:0:
108,88,73511,1,10,0:2:0:0:
266,234,73688,1,2,1:2:0:0:
355,27,73864,1,14,0:2:0:0:
203,171,74041,1,2,1:2:0:0:
395,277,74217,6,0,P|443:268|488:260,1,87.7200005354004,6|0,1:2|0:2,0:0:0:0:
281,113,74570,1,10,0:2:0:0:
195,342,74747,2,0,P|103:325|19:309,1,175.440001070801,2|0,1:2|1:2,0:0:0:0:
161,87,75276,1,10,0:2:0:0:
161,87,75629,6,0,P|171:153|177:202,1,87.7200005354004,2|0,1:2|0:2,0:0:0:0:
112,291,75982,1,10,0:2:0:0:
277,142,76158,2,0,P|267:208|261:257,1,87.7200005354004,2|0,1:2|0:2,0:0:0:0:
352,370,76511,1,8,1:3:0:0:
161,202,76688,2,0,P|111:208|55:216,1,87.7200005354004,8|2,0:2|0:2,0:0:0:0:
225,364,77041,5,10,0:2:0:0:
348,197,77217,1,0,1:2:0:0:
112,291,77394,1,10,0:2:0:0:
329,226,77570,1,0,1:2:0:0:
155,85,77747,5,10,0:2:0:0:
277,293,77923,1,2,1:2:0:0:
383,73,78100,1,10,0:2:0:0:
143,260,78276,1,2,1:2:0:0:
421,171,78453,5,6,1:2:0:0:
131,58,78629,1,0,1:2:0:0:
308,357,78805,1,10,0:2:0:0:
245,21,78982,1,0,1:2:0:0:
40,290,79158,1,10,0:2:0:0:
343,148,79335,1,0,1:2:0:0:
53,25,79511,1,10,0:2:0:0:
232,346,79688,1,0,1:2:0:0:
428,27,79864,5,14,1:2:0:0:
85,167,80041,1,10,1:2:0:0:
440,384,80217,1,10,1:2:0:0:
341,176,80747,5,0,1:2:0:0:
341,176,80835,1,0,1:2:0:0:
341,176,80923,2,0,P|264:164|193:153,1,131.580000803101,12|0,0:2|0:2,0:0:0:0:
148,81,81276,6,0,B|123:114|103:134|103:134|132:189|147:252,1,192.640002351563,6|8,1:2|0:2,0:0:0:0:
210,155,81805,1,0,0:2:0:0:
21,90,81982,2,0,P|12:150|4:205,1,96.3200011757813,2|0,1:2|0:2,0:0:0:0:
146,277,82335,1,10,0:2:0:0:
6,346,82511,1,2,0:2:0:0:
112,183,82688,6,0,B|167:153|216:201|200:211|243:253|312:212,1,192.640002351563,4|8,1:3|0:2,0:0:0:0:
430,135,83217,1,0,0:2:0:0:
253,50,83394,2,0,P|264:111|271:154,1,96.3200011757813,2|0,1:2|0:2,0:0:0:0:
408,267,83747,2,0,P|415:219|424:172,1,96.3200011757813,10|0,0:2|0:2,0:0:0:0:
253,310,84100,6,0,P|174:323|102:335,1,144.480001763672,10|0,1:3|0:2,0:0:0:0:
28,349,84453,2,0,P|36:302|48:239,1,96.3200011757813,10|0,0:2|0:2,0:0:0:0:
159,47,84805,2,0,P|174:143|185:212,1,144.480001763672,6|2,1:3|0:2,0:0:0:0:
185,227,85158,1,10,0:2:0:0:
57,96,85335,1,2,0:2:0:0:
269,173,85511,6,0,P|319:126|418:145,1,144.480001763672,8|0,1:3|0:2,0:0:0:0:
445,186,85864,2,0,P|440:244|434:300,1,96.3200011757813,10|0,0:2|0:2,0:0:0:0:
236,384,86217,2,0,P|231:336|227:288,1,96.3200011757813,6|8,1:3|0:2,0:0:0:0:
211,262,86482,1,8,0:2:0:0:
211,262,86570,1,10,0:2:0:0:
321,78,86747,1,4,0:3:0:0:
321,78,86835,1,4,0:3:0:0:
321,78,86923,6,0,B|266:48|217:96|233:106|190:148|121:107,1,192.640002351563,6|8,1:2|0:2,0:0:0:0:
6,60,87453,1,0,0:2:0:0:
159,22,87629,2,0,P|150:81|143:136,1,96.3200011757813,2|0,1:2|0:2,0:0:0:0:
266,253,87982,1,10,0:2:0:0:
122,222,88158,1,2,0:2:0:0:
338,101,88335,6,0,P|354:224|365:308,1,192.640002351563,4|8,1:3|0:2,0:0:0:0:
262,349,88864,1,0,0:2:0:0:
396,190,89041,2,0,P|446:199|503:208,1,96.3200011757813,2|0,1:2|0:2,0:0:0:0:
240,101,89394,2,0,P|190:110|133:119,1,96.3200011757813,10|0,0:2|0:2,0:0:0:0:
404,0,89747,6,0,P|473:9|496:131,1,192.640002351563,6|0,1:2|1:2,0:0:0:0:
387,319,90276,1,10,0:2:0:0:
139,189,90453,2,0,P|127:268|119:314,1,96.3200011757813,14|0,0:2|0:2,0:0:0:0:
428,186,90805,2,0,P|420:138|413:90,1,96.3200011757813,8|0,0:2|0:2,0:0:0:0:
216,319,91158,5,14,0:2:0:0:
278,121,91335,1,0,1:2:0:0:
374,288,91511,1,10,0:2:0:0:
243,56,91688,1,0,1:2:0:0:
161,254,91864,1,10,0:2:0:0:
291,3,92041,1,0,1:2:0:0:
473,290,92217,6,0,P|436:215|252:276,1,288.960003527344,6|0,1:2|1:2,0:0:0:0:
260,277,92835,1,0,1:0:0:0:
260,277,92923,5,12,0:0:0:0:
431,169,93100,1,0,1:0:0:0:
208,106,93276,1,10,0:0:0:0:
454,24,93453,1,0,1:0:0:0:
229,137,93629,1,8,0:0:0:0:
485,224,93805,1,0,1:0:0:0:
323,28,93982,5,14,0:0:0:0:
260,277,94158,1,0,1:0:0:0:
453,142,94335,1,8,0:0:0:0:
208,106,94511,1,0,1:0:0:0:
403,326,94688,1,8,0:0:0:0:
309,122,94864,1,0,1:0:0:0:
171,339,95041,1,8,0:0:0:0:
408,235,95217,1,0,1:0:0:0:
184,79,95394,5,14,0:0:0:0:
254,300,95570,1,0,1:0:0:0:
249,36,95747,1,8,0:0:0:0:
116,271,95923,1,0,1:0:0:0:
181,1,96100,1,8,0:0:0:0:
308,230,96276,1,0,1:0:0:0:
308,230,96364,1,0,1:0:0:0:
308,230,96453,2,0,L|312:177,1,48.1600005878906,8|8,0:0|0:3,0:0:0:0:
72,126,96629,2,0,L|75:174,1,48.1600005878906,4|4,0:3|0:3,0:0:0:0:
215,351,96805,6,0,P|262:340|309:330,1,96.3200011757813,6|0,1:2|1:2,0:0:0:0:
379,125,97158,1,10,0:2:0:0:
225,263,97335,1,6,1:2:0:0:
72,126,97688,6,0,P|62:227|51:329,1,192.640002351563,6|2,1:2|1:2,0:0:0:0:
121,379,98129,1,0,1:2:0:0:
121,379,98217,6,0,P|174:369|231:361,1,96.3200011757813,4|0,1:2|0:2,0:0:0:0:
341,147,98570,2,0,P|288:137|231:129,1,96.3200011757813,8|0,0:2|0:2,0:0:0:0:
82,71,98923,1,0,1:2:0:0:
216,10,99100,1,0,1:2:0:0:
128,195,99276,2,0,P|139:254|149:313,1,96.3200011757813,10|0,0:2|0:2,0:0:0:0:
234,153,99629,5,2,1:2:0:0:
55,253,99805,1,0,0:2:0:0:
165,83,99982,1,10,0:2:0:0:
247,290,100158,2,0,B|317:266|380:245|380:245|409:269|434:287,1,192.640002351563,2|0,1:2|1:2,0:0:0:0:
462,344,100600,1,0,1:2:0:0:
462,344,100688,2,0,P|467:286|472:228,1,96.3200011757813,10|0,0:2|0:2,0:0:0:0:
291,67,101041,5,6,1:2:0:0:
376,223,101217,1,0,1:2:0:0:
472,28,101394,1,8,0:2:0:0:
239,225,101570,1,6,1:2:0:0:
239,225,101923,5,2,1:2:0:0:
483,137,102100,1,2,0:2:0:0:
243,3,102276,2,0,B|151:-11|188:61|86:41,1,158.239994687988,6|0,1:2|1:2,0:0:0:0:
97,42,102805,1,0,1:2:0:0:
232,100,102982,2,0,P|242:207|248:270,1,158.239994687988,8|8,0:2|0:3,0:0:0:0:
221,377,103511,1,4,0:3:0:0:
323,307,103688,2,0,L|350:298,3,20.6400005039063,0|0|0|6,0:2|0:2|0:2|0:0,0:0:0:0:
81,93,106511,6,0,L|87:70,3,20.6400005039063,8|8|8|6,0:2|0:2|0:2|1:2,0:0:0:0:
253,184,107041,5,8,1:2:0:0:
157,37,107218,1,10,1:2:0:0:
248,279,107394,1,8,1:2:0:0:
408,60,107571,1,10,1:2:0:0:
126,190,107747,1,10,1:2:0:0:
416,374,107923,6,0,P|421:293|428:179,1,158.239994687988,6|8,1:2|0:2,0:0:0:0:
365,154,108364,1,8,0:2:0:0:
365,154,108453,2,0,P|337:161|294:171,1,39.5599986719971,8|0,0:2|1:2,0:0:0:0:
248,279,108629,2,0,P|276:286|319:296,1,39.5599986719971,0|0,1:2|1:2,0:0:0:0:
206,93,108805,1,10,0:2:0:0:
166,94,108893,1,8,0:3:0:0:
134,116,108981,1,6,0:3:0:0:
119,152,109069,1,4,0:3:0:0:
126,190,109158,6,0,P|193:240|286:179,1,183.179990776154,14|0,0:2|0:2,0:0:0:0:
352,101,109511,6,0,B|376:128|396:145|396:145|372:197|362:263,1,175.440001070801,6|8,1:2|0:2,0:0:0:0:
166,341,110041,1,0,0:2:0:0:
275,201,110217,2,0,P|287:273|293:309,1,87.7200005354004,2|0,1:2|1:2,0:0:0:0:
131,160,110570,1,8,0:2:0:0:
260,92,110747,1,0,0:2:0:0:
143,258,110923,6,0,P|87:246|43:236,1,87.7200005354004,2|0,1:2|0:2,0:0:0:0:
0,66,111276,2,0,P|56:54|100:44,1,87.7200005354004,10|0,0:2|1:2,0:0:0:0:
269,216,111629,1,2,0:2:0:0:
131,160,111805,1,0,1:2:0:0:
246,6,111982,2,0,P|258:77|263:109,1,87.7200005354004,10|0,0:2|0:2,0:0:0:0:
360,302,112335,6,0,P|414:291|458:282,1,87.7200005354004,6|0,1:2|0:2,0:0:0:0:
512,117,112688,2,0,P|458:106|414:97,1,87.7200005354004,10|0,0:2|0:2,0:0:0:0:
260,238,113041,1,2,1:2:0:0:
411,186,113217,1,0,1:2:0:0:
254,46,113394,2,0,P|266:117|271:149,1,87.7200005354004,10|0,0:2|0:2,0:0:0:0:
137,337,113747,6,0,P|76:315|92:188,1,175.440001070801,6|8,1:2|0:2,0:0:0:0:
218,121,114276,1,0,1:2:0:0:
67,62,114453,1,0,1:2:0:0:
167,239,114629,1,8,0:2:0:0:
167,239,114717,1,8,0:2:0:0:
167,239,114805,1,10,0:2:0:0:
275,59,114982,1,8,0:3:0:0:
53,184,115158,6,0,P|149:193|243:204,1,175.440001070801,6|8,1:2|0:2,0:0:0:0:
401,131,115688,1,0,0:2:0:0:
275,59,115864,1,2,1:2:0:0:
350,236,116041,1,0,1:2:0:0:
479,103,116217,2,0,P|471:50|463:5,1,87.7200005354004,8|0,0:2|0:2,0:0:0:0:
277,173,116570,6,0,P|197:182|169:186,1,87.7200005354004,2|0,1:2|0:2,0:0:0:0:
364,323,116923,2,0,P|444:332|472:336,1,87.7200005354004,10|0,0:2|1:2,0:0:0:0:
493,268,117188,1,0,1:2:0:0:
493,268,117276,2,0,L|481:215,1,43.8600002677002,10|0,1:3|1:2,0:0:0:0:
367,138,117453,2,0,L|357:180,1,43.8600002677002,0|0,1:2|1:2,0:0:0:0:
277,301,117629,1,10,1:2:0:0:
277,301,117982,5,6,1:2:0:0:
454,182,118158,1,0,0:2:0:0:
189,170,118335,1,8,0:2:0:0:
350,51,118511,2,0,P|363:118|372:168,1,87.7200005354004,2|0,1:2|0:2,0:0:0:0:
87,86,118864,2,0,P|95:42|103:0,1,87.7200005354004,2|0,1:2|0:0,0:0:0:0:
357,251,119217,6,0,P|266:271|168:293,1,175.440001070801,6|8,1:2|0:2,0:0:0:0:
112,250,119658,1,8,0:2:0:0:
112,250,119747,2,0,P|115:221|121:183,1,43.8600002677002,0|0,1:2|1:2,0:0:0:0:
288,129,119923,2,0,P|290:150|293:172,1,43.8600002677002,0|0,0:2|1:2,0:0:0:0:
87,86,120100,1,8,0:2:0:0:
106,47,120188,1,8,0:3:0:0:
141,21,120276,1,4,0:3:0:0:
184,15,120364,1,4,0:3:0:0:
225,30,120453,2,0,P|249:108|213:178,1,131.580000803101,12|0,0:2|0:2,0:0:0:0:
171,217,120805,6,0,P|105:208|62:202,1,96.3200011757813,6|0,1:2|0:2,0:0:0:0:
229,369,121158,1,8,0:2:0:0:
394,198,121335,2,0,P|378:127|366:76,1,96.3200011757813,2|0,1:2|0:2,0:0:0:0:
246,278,121688,1,2,1:2:0:0:
470,152,121864,1,2,0:2:0:0:
241,0,122041,6,0,P|230:46|219:93,1,96.3200011757813,6|0,1:2|0:2,0:0:0:0:
421,301,122394,1,0,1:2:0:0:
330,98,122570,1,4,1:3:0:0:
166,319,122747,1,4,1:3:0:0:
394,198,122923,1,4,1:3:0:0:
146,59,123100,1,4,1:3:0:0:
258,374,123276,1,4,1:3:0:0:
380,19,123453,6,0,B|406:44|436:62|436:62|406:119|392:201,1,192.640002351563,6|8,1:2|0:2,0:0:0:0:
355,246,123894,1,8,0:2:0:0:
355,246,123982,2,0,P|321:237|287:232,1,48.1600005878906,8|0,0:2|1:2,0:0:0:0:
220,74,124158,2,0,P|243:67|266:62,1,48.1600005878906,0|0,1:2|1:2,0:0:0:0:
191,258,124335,1,8,1:3:0:0:
310,71,124511,1,0,1:2:0:0:
247,329,124688,1,10,0:2:0:0:
158,14,124864,1,6,1:2:0:0:
191,258,125479,6,0,B|206:94|338:0|338:0|414:138|373:289|373:289|287:207|287:207|346:154|434:197,1,880.64,6|0,0:0|0:2,0:0:0:0:
