osu file format v14

[General]
AudioFilename: audio.mp3
AudioLeadIn: 0
PreviewTime: 80129
Countdown: 0
SampleSet: Soft
StackLeniency: 0.7
Mode: 0
LetterboxInBreaks: 0
WidescreenStoryboard: 1

[Editor]
Bookmarks: 815,6462,9285,12109,17756,23403,45991,68226,81285,86932,92226,93991,95403,98226,103873,109520,115167,120814,125488
DistanceSpacing: 0.9
BeatDivisor: 4
GridSize: 32
TimelineZoom: 2

[Metadata]
Title:HAPPY PARTY TRAIN
TitleUnicode:HAPPY PARTY TRAIN
Artist:Aqours
ArtistUnicode:Aqours
Creator:Sotarks
Version:Chiga's Normal
Source:ラブライブ!サンシャイン!!
Tags:video game 3rd Single Love Live! Sunshine!! Second Live School Idol Project japanese female vocalist chiga elinor [_eli_] smokelind browiec anime 高海千歌 Chika Takami 伊波杏樹 Anju Inami 桜内梨子 Riko Sakurauchi 逢田梨香子 Rikako Aida 松浦果南 Kanan Matsuura 諏訪ななか Nanaka Suwa 黒澤ダイヤ Dia Kurosawa 小宮有紗 Arisa Komiya 畑 亜貴 Aki Hata 渡辺拓也 Takuya Watanabe EFFY アクア
BeatmapID:2492721
BeatmapSetID:1194661

[Difficulty]
HPDrainRate:4
CircleSize:3.5
OverallDifficulty:4
ApproachRate:5
SliderMultiplier:1.2
SliderTickRate:1

[Events]
//Background and Video events
0,0,"bg.jpg",0,0
//Break Periods
//Storyboard Layer 0 (Background)
//Storyboard Layer 1 (Fail)
//Storyboard Layer 2 (Pass)
//Storyboard Layer 3 (Foreground)
//Storyboard Layer 4 (Overlay)
//Storyboard Sound Samples

[TimingPoints]
806,352.941176470588,4,2,22,42,1,0
806,-125,4,2,22,42,0,0
6453,-125,4,2,22,62,0,0
6462,-125,4,2,22,62,0,0
9276,-125,4,2,22,72,0,0
9285,-125,4,2,22,72,0,0
10688,-125,4,2,22,82,0,0
10697,-125,4,2,22,82,0,0
11394,-125,4,2,22,72,0,0
11403,-125,4,2,22,72,0,0
11658,-125,4,2,22,72,0,0
11667,-125,4,2,22,5,0,0
11747,-125,4,2,22,72,0,0
11756,-125,4,2,22,72,0,0
12011,-125,4,2,22,72,0,0
12020,-125,4,2,22,5,0,0
12100,-125,4,2,22,72,0,0
12109,-125,4,2,22,72,0,0
23394,-142.857142857143,4,2,22,62,0,0
23403,-142.857142857143,4,2,22,62,0,0
44482,-125,4,2,22,62,0,0
44570,-125,4,2,22,72,0,0
44579,-125,4,2,22,72,0,0
45982,-125,4,2,22,72,0,0
78453,-125,4,2,22,82,0,0
78462,-125,4,2,22,82,0,0
79864,-125,4,2,22,92,0,0
79873,-125,4,2,22,92,0,0
80747,-125,4,2,22,92,0,0
80756,-125,4,2,22,72,0,0
81188,-125,4,2,22,72,0,0
81197,-125,4,2,22,5,0,0
81276,-117.647058823529,4,2,22,82,0,1
81285,-117.647058823529,4,2,22,82,0,1
85776,-117.647058823529,4,2,22,82,0,1
85864,-117.647058823529,4,2,22,82,0,1
103864,-117.647058823529,4,2,22,62,0,0
103873,-117.647058823529,4,2,22,62,0,0
106511,-117.647058823529,4,2,22,62,0,0
106520,-117.647058823529,4,2,22,72,0,0
107923,-117.647058823529,4,2,22,82,0,0
107932,-117.647058823529,4,2,22,82,0,0
109423,-117.647058823529,4,2,22,82,0,0
109432,-117.647058823529,4,2,22,5,0,0
109511,-117.647058823529,4,2,22,82,0,0
109520,-117.647058823529,4,2,22,82,0,0
125479,347.826086956522,4,2,22,82,1,0
125479,-117.647058823529,4,2,22,82,0,0
131019,-117.647058823529,4,2,22,82,0,0
131028,-117.647058823529,4,2,22,12,0,0
131044,-117.647058823529,4,2,22,12,0,0

[Colours]
Combo1 : 227,70,62
Combo2 : 61,111,241
Combo3 : 255,251,166

[HitObjects]
170,193,806,6,0,B|253:159|233:212|309:181,2,144,6|2|2,0:2|0:2|0:2,0:0:0:0:
125,278,2217,2,0,P|79:225|82:149,2,144,2|2|0,0:2|0:2|0:0,0:0:0:0:
199,338,3629,6,0,B|289:304|289:304|348:337,2,144,2|2|2,0:2|0:2|0:2,0:0:0:0:
125,278,5041,2,0,L|144:135,2,144,2|2|2,0:2|0:2|0:2,0:0:0:0:
199,338,6453,6,0,P|261:340|312:269,1,144,4|0,1:2|0:2,0:0:0:0:
342,245,7158,2,0,P|340:202|327:183,1,48,0|0,1:2|0:2,0:0:0:0:
299,169,7511,1,0,1:2:0:0:
214,164,7864,6,0,B|188:84|188:84|202:55|232:48,1,144,2|0,1:2|0:2,0:0:0:0:
267,14,8570,2,0,P|284:33|321:40,1,48,0|0,1:2|0:2,0:0:0:0:
352,46,8923,1,0,1:2:0:0:
439,7,9276,6,0,B|428:66|428:66|441:96|441:96|432:147,1,144,2|0,1:2|1:2,0:0:0:0:
401,184,9982,1,8,1:2:0:0:
401,184,10158,2,0,L|414:249,1,48,8|8,1:2|1:2,0:0:0:0:
424,277,10511,1,8,1:2:0:0:
424,277,10688,5,14,1:2:0:0:
257,366,11394,2,0,P|216:349|160:334,1,96,10|14,1:2|0:2,0:0:0:0:
80,351,12100,6,0,B|112:270|60:299|102:200,1,144,6|0,1:2|0:2,0:0:0:0:
69,178,12805,2,0,P|98:138|148:141,1,96,2|8,1:2|0:2,0:0:0:0:
198,202,13511,5,2,1:2:0:0:
267,150,13864,2,0,L|373:176,1,96,10|2,0:2|0:2,0:0:0:0:
422,109,14570,1,10,0:2:0:0:
482,178,14923,6,0,P|493:230|470:270,1,96,6|10,1:2|0:2,0:0:0:0:
379,304,15629,1,2,1:2:0:0:
304,243,15982,1,10,0:2:0:0:
226,299,16335,6,0,L|124:264,1,96,6|8,1:2|0:2,0:0:0:0:
38,269,17041,2,0,P|15:219|37:168,1,96,0|10,1:2|0:2,0:0:0:0:
57,145,17570,1,8,0:3:0:0:
57,145,17747,6,0,B|142:103|112:170|215:122,1,144,6|0,1:2|0:2,0:0:0:0:
213,85,18453,2,0,P|260:63|307:87,1,96,2|8,1:2|0:2,0:0:0:0:
320,171,19158,5,2,1:2:0:0:
411,199,19511,2,0,L|391:306,1,96,10|10,0:2|1:3,0:0:0:0:
322,358,20217,1,10,1:2:0:0:
271,276,20570,6,0,P|238:251|168:261,1,96,6|8,1:2|0:2,0:0:0:0:
150,284,21100,1,2,1:2:0:0:
121,202,21453,1,2,1:2:0:0:
96,119,21805,6,0,B|63:99|29:114|29:114|34:79|95:24|173:70,1,240,6|8,1:2|0:2,0:0:0:0:
235,123,23041,1,4,0:3:0:0:
284,58,23394,6,0,L|268:191,1,125.999996154785,6|2,1:2|1:2,0:0:0:0:
297,207,24100,2,0,P|349:236|347:312,1,125.999996154785,2|0,0:2|0:2,0:0:0:0:
335,329,24805,1,0,1:2:0:0:
260,342,25158,1,2,0:2:0:0:
197,300,25511,2,0,P|157:277|113:283,1,83.9999974365235,2|2,0:2|3:2,0:0:0:0:
39,311,26217,6,0,L|25:219,1,83.9999974365235,2|2,1:2|0:2,0:0:0:0:
54,196,26747,2,0,L|68:104,1,83.9999974365235,2|2,1:2|0:2,0:0:0:0:
52,73,27276,1,0,3:2:0:0:
113,15,27629,6,0,P|170:14|197:39,1,83.9999974365235,0|0,1:2|0:2,0:0:0:0:
214,63,28158,2,0,P|249:83|290:76,1,83.9999974365235,0|0,1:2|0:2,0:0:0:0:
314,40,28688,1,2,3:2:0:0:
397,58,29041,6,0,B|380:94|380:94|400:150,1,83.9999974365235,2|2,1:2|0:2,0:0:0:0:
424,165,29570,2,0,B|441:201|441:201|421:257,1,83.9999974365235,2|0,1:2|0:2,0:0:0:0:
412,282,30100,1,0,3:2:0:0:
327,264,30453,6,0,P|271:233|242:242,1,83.9999974365235,2|2,1:2|0:2,0:0:0:0:
219,259,30982,1,2,1:2:0:0:
179,333,31335,2,0,P|137:325|89:303,1,83.9999974365235,2|2,0:2|0:2,0:0:0:0:
66,330,31864,6,0,B|24:228|93:262|50:148,1,167.999994873047,0|0,1:2|0:0,0:0:0:0:
76,84,32923,1,0,3:2:0:0:
156,107,33276,2,0,L|296:89,1,125.999996154785,0|2,1:2|1:2,0:0:0:0:
309,59,33982,1,2,0:2:0:0:
384,95,34335,1,2,3:2:0:0:
460,56,34688,6,0,B|443:93|443:93|463:148,1,83.9999974365235,2|2,1:2|0:2,0:0:0:0:
480,168,35217,2,0,L|391:192,1,83.9999974365235,2|0,1:2|0:2,0:0:0:0:
382,228,35747,1,2,3:2:0:0:
311,182,36100,6,0,P|256:150|195:180,1,125.999996154785,0|2,1:2|1:2,0:0:0:0:
165,191,36805,1,2,0:2:0:0:
164,275,37158,1,2,3:2:0:0:
233,321,37511,6,0,L|316:308,1,83.9999974365235,2|2,1:2|0:2,0:0:0:0:
337,271,38041,2,0,L|420:283,1,83.9999974365235,2|0,1:2|0:2,0:0:0:0:
455,306,38570,1,2,3:2:0:0:
511,243,38923,6,0,P|512:187|487:162,1,83.9999974365235,0|0,1:2|0:2,0:0:0:0:
454,156,39453,2,0,P|432:121|438:80,1,83.9999974365235,0|0,1:2|0:2,0:0:0:0:
461,45,39982,1,2,3:2:0:0:
384,10,40335,6,0,P|318:7|288:54,2,125.999996154785,2|2|2,1:2|1:2|3:2,0:0:0:0:
461,45,41747,2,0,L|439:182,2,125.999996154785,2|2|2,1:2|1:2|3:2,0:0:0:0:
426,30,42982,1,2,0:2:0:0:
426,30,43158,6,0,B|324:9|360:78|268:61,1,167.999994873047,2|0,1:2|1:2,0:0:0:0:
234,40,44041,1,2,0:2:0:0:
234,40,44217,2,0,P|201:39|180:54,1,41.9999987182618,2|2,1:2|0:2,0:0:0:0:
148,59,44570,6,0,B|156:105|156:105|166:120|166:120|173:160,1,96,6|8,1:2|0:2,0:0:0:0:
213,174,45100,1,2,1:2:0:0:
186,269,45453,1,2,1:2:0:0:
186,269,45629,2,0,L|202:327,1,48,2|10,0:2|0:2,0:0:0:0:
235,337,45982,6,0,P|282:308|328:309,1,96,6|8,1:2|0:2,0:0:0:0:
368,303,46511,1,2,0:2:0:0:
368,303,46688,2,0,L|425:317,1,48,2|0,1:2|1:2,0:0:0:0:
452,292,47041,1,8,0:2:0:0:
437,201,47394,6,0,L|452:106,1,96,0|10,1:2|0:2,0:0:0:0:
393,29,48100,1,2,0:2:0:0:
319,90,48453,1,10,0:2:0:0:
246,27,48805,6,0,P|186:23|160:46,1,96,2|10,1:2|0:2,0:0:0:0:
113,54,49335,2,0,L|132:157,1,96,2|2,0:2|1:2,0:0:0:0:
161,184,49864,1,8,0:2:0:0:
81,237,50217,6,0,P|72:287|94:332,1,96,0|8,1:2|0:2,0:0:0:0:
129,355,50747,2,0,L|227:334,1,96,0|0,1:2|1:2,0:0:0:0:
251,296,51276,1,10,0:2:0:0:
340,330,51629,6,0,P|375:299|431:304,1,96,2|10,1:2|0:2,0:0:0:0:
461,327,52158,2,0,L|476:231,1,96,2|0,0:2|1:2,0:0:0:0:
483,184,52688,1,8,0:2:0:0:
438,98,53041,6,0,P|384:87|343:117,1,96,2|10,1:2|0:2,0:0:0:0:
325,147,53570,1,2,1:2:0:0:
240,101,53923,1,2,1:2:0:0:
172,169,54276,6,0,B|90:126|105:188|21:136,1,144,2|8,0:2|0:2,0:0:0:0:
13,100,54982,1,0,0:2:0:0:
13,100,55158,2,0,P|19:61|33:45,1,48,0|0,1:2|1:2,0:0:0:0:
63,28,55511,1,8,0:2:0:0:
130,97,55864,6,0,L|237:75,1,96,0|8,1:2|0:2,0:0:0:0:
255,40,56394,1,2,3:2:0:0:
255,40,56570,2,0,L|307:53,1,48,2|10,1:2|0:2,0:0:0:0:
348,62,56923,1,10,0:2:0:0:
436,23,57276,6,0,B|422:61|422:61|446:110,1,96,6|10,1:2|0:2,0:0:0:0:
484,140,57805,2,0,P|486:195|456:229,1,96,2|0,0:2|1:2,0:0:0:0:
414,237,58335,1,10,0:2:0:0:
321,186,58688,6,0,L|212:207,1,96,0|8,1:2|0:2,0:0:0:0:
186,227,59217,1,2,0:2:0:0:
186,227,59394,2,0,L|128:213,1,48,2|2,1:2|1:2,0:0:0:0:
107,179,59747,1,10,0:2:0:0:
13,206,60100,6,0,P|-4:256|34:303,1,96,2|10,1:2|0:2,0:0:0:0:
38,333,60629,2,0,P|85:353|135:318,1,96,2|0,1:2|1:2,0:0:0:0:
148,294,61158,1,10,0:2:0:0:
223,353,61511,6,0,L|324:329,1,96,0|8,1:2|0:2,0:0:0:0:
350,296,62041,1,0,3:2:0:0:
350,296,62217,2,0,L|360:239,1,48,0|0,1:2|1:2,0:0:0:0:
366,201,62570,1,10,0:2:0:0:
287,164,62923,6,0,L|271:53,1,96,6|10,1:2|0:2,0:0:0:0:
287,27,63453,2,0,P|357:20|390:96,1,144,2|8,0:2|0:2,0:0:0:0:
385,162,64335,6,0,L|488:136,1,96,2|10,1:2|0:2,0:0:0:0:
506,171,64864,2,0,B|491:211|491:211|514:271,1,96,2|0,1:2|1:2,0:0:0:0:
503,303,65394,1,10,0:2:0:0:
427,344,65747,6,0,P|398:308|335:307,1,96,4|10,1:2|0:2,0:0:0:0:
315,276,66276,1,2,1:2:0:0:
315,276,66453,2,0,P|281:280|261:303,1,48,10|2,0:2|1:2,0:0:0:0:
246,323,66805,2,0,L|195:303,1,48,10|0,0:2|1:2,0:0:0:0:
161,287,67158,5,14,0:2:0:0:
75,300,67511,1,10,0:2:0:0:
24,229,67864,1,10,0:2:0:0:
65,141,68217,6,0,B|180:89|147:166|264:117,1,192,6|0,1:2|1:2,0:0:0:0:
270,77,69100,2,0,P|309:50|362:63,1,96,8|0,0:2|0:2,0:0:0:0:
384,95,69629,1,6,1:3:0:0:
474,61,69982,6,0,B|456:169,1,96,2|2,1:2|1:2,0:0:0:0:
484,196,70511,2,0,B|507:235|507:235|485:302,1,96,10|0,0:3|1:2,0:0:0:0:
461,321,71041,2,0,L|405:306,1,48,6|2,1:3|1:2,0:0:0:0:
386,269,71394,5,4,1:2:0:0:
296,304,71747,1,2,1:2:0:0:
235,229,72100,2,0,P|188:204|130:224,1,96,10|2,1:3|1:2,0:0:0:0:
122,253,72629,1,6,1:3:0:0:
122,253,72805,6,0,L|103:148,1,96,4|8,1:2|0:2,0:0:0:0:
74,121,73335,1,10,0:2:0:0:
74,121,73511,2,0,L|87:74,1,48,10|2,0:2|1:2,0:0:0:0:
82,26,73864,1,14,0:2:0:0:
176,10,74217,6,0,P|221:45|275:39,1,96,6|10,1:2|0:2,0:0:0:0:
303,27,74747,2,0,P|350:30|385:62,1,96,2|0,1:2|1:2,0:0:0:0:
395,108,75276,1,10,0:2:0:0:
491,94,75629,6,0,L|470:200,1,96,2|10,1:2|0:2,0:0:0:0:
430,212,76158,2,0,L|451:318,1,96,2|8,1:2|1:3,0:0:0:0:
454,354,76688,1,8,0:2:0:0:
350,317,77041,6,0,P|308:288|250:293,1,96,10|10,0:2|0:2,0:0:0:0:
228,319,77570,1,0,1:2:0:0:
228,319,77747,2,0,L|216:263,1,48,10|2,0:2|1:2,0:0:0:0:
219,228,78100,1,10,0:2:0:0:
139,193,78453,6,0,B|111:142|111:142|123:97,1,96,6|10,1:2|0:2,0:0:0:0:
158,82,78982,1,0,1:2:0:0:
158,82,79158,2,0,L|216:61,1,48,10|0,0:2|1:2,0:0:0:0:
239,41,79511,2,0,L|284:57,1,48,10|0,0:2|1:2,0:0:0:0:
315,86,79864,6,0,L|384:74,2,48,14|10|10,1:2|1:2|1:2,0:0:0:0:
467,3,80923,1,12,0:2:0:0:
490,91,81276,6,0,B|465:205,1,102.000001945496,6|8,1:2|0:2,0:0:0:0:
465,282,81982,2,0,L|357:257,1,102.000001945496,2|10,1:2|0:2,0:0:0:0:
326,278,82511,1,2,0:2:0:0:
326,278,82688,6,0,L|310:209,1,51.0000009727478,4|0,1:3|0:0,0:0:0:0:
322,176,83041,1,8,0:2:0:0:
227,159,83394,5,2,1:2:0:0:
143,196,83747,1,10,0:2:0:0:
54,170,84100,2,0,L|72:61,1,102.000001945496,10|10,1:3|0:2,0:0:0:0:
153,23,84805,2,0,P|199:58|260:53,1,102.000001945496,6|10,1:3|0:2,0:0:0:0:
277,88,85335,1,2,0:2:0:0:
277,88,85511,6,0,L|349:79,1,51.0000009727478,8|0,1:3|0:0,0:0:0:0:
361,50,85864,1,10,0:2:0:0:
439,97,86217,1,6,1:3:0:0:
424,187,86570,1,10,0:2:0:0:
339,223,86923,6,0,L|234:196,1,102.000001945496,6|8,1:2|0:2,0:0:0:0:
160,152,87629,2,0,P|115:183|116:242,1,102.000001945496,2|10,1:2|0:2,0:0:0:0:
71,253,88158,1,2,0:2:0:0:
71,253,88335,6,0,P|81:291|106:306,1,51.0000009727478,4|0,1:3|0:0,0:0:0:0:
124,326,88688,1,8,0:2:0:0:
195,267,89041,1,2,1:2:0:0:
270,318,89394,1,10,0:2:0:0:
345,266,89747,6,0,B|335:225|335:225|339:210|339:210|327:162,1,102.000001945496,6|0,1:2|1:2,0:0:0:0:
365,131,90276,1,10,0:2:0:0:
365,131,90453,2,0,B|279:78|294:141|220:100,1,153.000002918243,14|0,0:2|0:2,0:0:0:0:
192,57,91158,5,14,0:2:0:0:
101,40,91511,1,10,0:2:0:0:
40,109,91864,1,10,0:2:0:0:
65,197,92217,6,0,B|163:170|163:170|214:205,1,153.000002918243,6|0,1:2|1:2,0:0:0:0:
231,237,92923,1,12,0:0:0:0:
311,187,93276,6,0,P|345:223|393:228,2,76.5000014591217,10|2|0,0:0|0:0|1:0,0:0:0:0:
309,140,93982,1,14,0:0:0:0:
228,95,94335,2,0,L|236:34,1,51.0000009727478,8|0,0:0|1:0,0:0:0:0:
271,17,94688,6,0,B|195:3,2,76.5000014591217,8|2|0,0:0|0:0|1:0,0:0:0:0:
305,47,95394,1,14,0:0:0:0:
389,10,95747,2,0,P|398:41|393:70,1,51.0000009727478,8|0,0:0|1:0,0:0:0:0:
385,104,96100,2,0,P|367:143|371:190,2,76.5000014591217,8|2|4,0:0|1:2|0:3,0:0:0:0:
426,84,96805,6,0,B|464:87|493:109|493:109|488:130|471:155,1,102.000001945496,6|10,1:2|0:2,0:0:0:0:
458,176,97335,1,6,1:2:0:0:
471,266,97688,1,6,1:2:0:0:
392,312,98041,1,2,1:2:0:0:
392,312,98217,6,0,P|356:274|288:274,1,102.000001945496,4|8,1:2|0:2,0:0:0:0:
269,242,98747,1,0,0:2:0:0:
269,242,98923,2,0,L|258:187,1,51.0000009727478,0|0,1:2|1:2,0:0:0:0:
276,149,99276,1,10,0:2:0:0:
196,102,99629,6,0,L|90:128,1,102.000001945496,2|10,1:2|0:2,0:0:0:0:
52,114,100158,2,0,B|25:157|25:157|57:221,1,102.000001945496,2|0,1:2|1:2,0:0:0:0:
72,241,100688,1,10,0:2:0:0:
158,210,101041,6,0,L|141:320,1,102.000001945496,6|8,1:2|0:2,0:0:0:0:
160,352,101570,2,0,P|210:376|262:349,1,102.000001945496,6|2,1:2|1:2,0:0:0:0:
272,319,102100,1,2,0:2:0:0:
272,319,102276,1,6,1:2:0:0:
256,192,102453,12,6,103864,0:2:0:0:
164,183,106688,6,0,P|210:186|262:145,1,102.000001945496,6|8,1:2|1:2,0:0:0:0:
273,108,107217,2,0,L|334:123,1,51.0000009727478,10|8,1:2|1:2,0:0:0:0:
345,165,107570,1,10,1:2:0:0:
345,165,107747,1,10,1:2:0:0:
345,165,107923,6,0,L|453:151,1,102.000001945496,6|8,1:2|0:2,0:0:0:0:
486,183,108453,2,0,P|489:217|474:250,1,51.0000009727478,8|0,0:2|1:2,0:0:0:0:
496,282,108805,1,10,0:2:0:0:
428,358,109158,1,14,0:2:0:0:
334,316,109511,6,0,B|239:286|274:354|167:319,1,153.000002918243,6|0,1:2|0:2,0:0:0:0:
142,350,110217,2,0,P|96:352|51:311,1,102.000001945496,2|8,1:2|0:2,0:0:0:0:
21,221,110923,5,2,1:2:0:0:
107,166,111276,2,0,L|86:55,1,102.000001945496,10|2,0:2|0:2,0:0:0:0:
167,0,111982,1,10,0:2:0:0:
213,90,112335,6,0,P|258:122|313:111,1,102.000001945496,6|10,1:2|0:2,0:0:0:0:
375,45,113041,1,2,1:2:0:0:
443,120,113394,1,10,0:2:0:0:
375,196,113747,6,0,L|366:302,1,102.000001945496,6|8,1:2|0:2,0:0:0:0:
329,332,114276,1,0,1:2:0:0:
329,332,114453,2,0,P|262:288|242:290,1,102.000001945496,0|10,1:2|0:2,0:0:0:0:
199,310,114982,1,8,0:3:0:0:
199,310,115158,6,0,B|171:217|171:217|220:158,1,153.000002918243,6|0,1:2|0:2,0:0:0:0:
244,139,115864,2,0,P|290:168|350:156,1,102.000001945496,2|8,1:2|0:2,0:0:0:0:
408,92,116570,5,2,1:2:0:0:
335,19,116923,2,0,L|225:38,1,102.000001945496,10|10,0:2|1:3,0:0:0:0:
136,6,117629,1,10,1:2:0:0:
70,77,117982,6,0,B|83:125|83:125|95:135|95:135|112:189,1,102.000001945496,6|8,1:2|0:2,0:0:0:0:
145,201,118511,2,0,B|132:249|132:249|120:259|120:259|103:313,1,102.000001945496,2|2,1:2|1:2,0:0:0:0:
137,338,119041,1,0,0:0:0:0:
137,338,119217,2,0,P|198:343|232:303,1,102.000001945496,6|8,1:2|0:2,0:0:0:0:
243,269,119747,2,0,P|266:258|301:261,1,51.0000009727478,0|0,1:2|0:2,0:0:0:0:
337,278,120100,1,8,0:2:0:0:
438,263,120453,1,12,0:2:0:0:
487,174,120805,6,0,P|455:117|416:117,1,102.000001945496,6|8,1:2|0:2,0:0:0:0:
381,79,121335,2,0,P|333:92|318:138,1,102.000001945496,2|2,1:2|1:2,0:0:0:0:
296,186,121864,1,2,0:2:0:0:
296,186,122041,6,0,B|182:157,1,102.000001945496,6|0,1:2|1:2,0:0:0:0:
155,131,122570,2,0,B|98:176,1,51.0000009727478,4|4,1:3|1:3,0:0:0:0:
64,169,122923,2,0,B|56:243,2,51.0000009727478,4|4|4,1:3|1:3|1:3,0:0:0:0:
34,126,123453,5,6,1:2:0:0:
106,54,123805,1,8,0:2:0:0:
106,54,123982,2,0,L|170:71,1,51.0000009727478,8|0,0:2|1:2,0:0:0:0:
197,96,124335,2,0,L|246:82,1,51.0000009727478,8|0,1:3|1:2,0:0:0:0:
289,65,124688,1,10,0:2:0:0:
289,65,124864,1,6,1:2:0:0:
256,192,125479,12,0,131044,0:2:0:0:
