osu file format v14

[General]
AudioFilename: audio.mp3
AudioLeadIn: 0
PreviewTime: 80226
Countdown: 0
SampleSet: Normal
StackLeniency: 0.7
Mode: 0
LetterboxInBreaks: 0
WidescreenStoryboard: 1

[Editor]
DistanceSpacing: 1.2
BeatDivisor: 4
GridSize: 32
TimelineZoom: 1.7

[Metadata]
Title:HAPPY PARTY TRAIN
TitleUnicode:HAPPY PARTY TRAIN
Artist:Aqours
ArtistUnicode:Aqours
Creator:- Tatan -
Version:TheShadow's Easy
Source:ラブライブ!サンシャイン!!
Tags:3rd Single Love Live! Sunshine!! Second Live School Idol Project Single Crissa [-Crissaegrim-] TheShadowOfDark Chika Takami You Watanabe Riko Sakurauchi Hanamaru Kunikida Yoshiko Tsushima Ruby Dia Kurosawa Mari Ohara Kanan Matsuura Ai Furihata Aika Kobayashi Aina Suzuki Anju Inami Arisa Komiya Kanako Takatsuki Nanaka Suwa Rikako Aida Shuka Saito 伊波杏樹 逢田梨香子 諏訪ななか 小宮有紗 斉藤朱夏 小林愛香 高槻かなこ 鈴木愛奈 降幡愛
BeatmapID:1611082
BeatmapSetID:676193

[Difficulty]
HPDrainRate:4
CircleSize:2.5
OverallDifficulty:2
ApproachRate:4
SliderMultiplier:0.500000005960464
SliderTickRate:1

[Events]
//Background and Video events
0,0,"67930986_p0.jpg",0,0
//Break Periods
//Storyboard Layer 0 (Background)
//Storyboard Layer 1 (Fail)
//Storyboard Layer 2 (Pass)
//Storyboard Layer 3 (Foreground)
//Storyboard Sound Samples

[TimingPoints]
815,352.941176470588,4,1,1,50,1,0
815,-100,4,1,1,50,0,0
6462,-100,4,1,1,75,0,0
44579,-100,4,1,1,75,0,0
45991,-100,4,1,1,85,0,0
67167,-100,4,1,1,85,0,0
78462,-100,4,1,1,50,0,0
78814,-100,4,1,1,75,0,0
79167,-100,4,1,1,95,0,0
81285,-90.9090909090909,4,1,1,90,0,1
102285,-90.9090909090909,4,1,1,60,0,1
103873,-100,4,1,1,50,0,0
106697,-100,4,1,1,50,0,0
109520,-100,4,1,1,75,0,0
125381,352.941176470588,4,1,1,60,1,0
130675,-100,4,1,1,5,0,0

[Colours]
Combo1 : 36,146,255
Combo2 : 128,128,255
Combo3 : 128,255,255
Combo4 : 0,255,255

[HitObjects]
56,72,815,6,0,B|120:56|120:56|192:72|192:72|256:56,1,200.000002384186,0|0,2:0|2:0,0:0:0:0:
416,232,3638,6,0,P|392:296|256:320,1,200.000002384186,0|0,2:0|2:0,0:0:0:0:
96,168,6462,6,0,L|200:160,1,100.000001192093,0|0,0:0|0:0,0:0:0:0:
312,176,7873,2,0,L|416:168,1,100.000001192093,0|0,0:0|0:0,0:0:0:0:
480,272,9285,6,0,B|440:296|392:288|392:288|344:264|256:304,1,200.000002384186,12|8,0:0|0:0,0:0:0:0:
176,344,11403,1,10,0:0:0:0:
64,288,12109,6,0,L|48:152,1,100.000001192093,4|2,0:0|0:0,0:0:0:0:
88,80,13520,1,2,0:0:0:0:
205,55,14226,1,2,0:0:0:0:
324,68,14932,6,0,P|388:92|420:132,2,100.000001192093,6|2|6,0:0|0:0|0:0,0:0:0:0:
208,56,17050,1,2,0:0:0:0:
120,136,17756,6,0,L|136:256,1,100.000001192093,6|2,0:0|0:0,0:0:0:0:
224,312,19167,2,0,P|248:272|232:192,1,100.000001192093,2|2,0:0|0:0,0:0:0:0:
216,104,20579,6,0,B|168:72|96:80|96:80|64:128,1,175.000002086162,6|12,0:0|0:0,0:0:0:0:
40,336,23403,6,0,B|88:344|88:344|144:336,1,100.000001192093,4|0,2:0|2:0,0:0:0:0:
256,312,24814,2,0,L|336:296,2,75.0000008940696,4|4|0,2:0|2:0|2:0,0:0:0:0:
200,296,26226,6,0,P|179:249|188:196,1,100.000001192093,4|0,2:0|2:0,0:0:0:0:
264,112,27638,1,4,2:0:0:0:
383,122,28344,1,0,2:0:0:0:
451,220,29050,6,0,P|395:244|355:238,1,100.000001192093,4|0,2:0|2:0,0:0:0:0:
242,205,30462,2,0,P|186:191|143:208,1,100.000001192093,4|0,2:0|2:0,0:0:0:0:
39,256,31873,6,0,P|98:315|213:305,1,200.000002384186,4|4,2:0|2:0,0:0:0:0:
299,229,33991,1,0,2:0:0:0:
358,124,34697,6,0,P|359:72|352:48,2,75.0000008940696,4|4|0,2:0|2:0|2:0,0:0:0:0:
338,180,36109,2,0,P|300:194|264:192,1,75.0000008940696,4|4,2:0|2:0,0:0:0:0:
116,182,37520,6,0,L|105:97,2,75.0000008940696,4|4|0,2:0|2:0|2:0,0:0:0:0:
123,241,38932,2,0,P|140:285|164:307,1,75.0000008940696,4|4,2:0|2:0,0:0:0:0:
302,348,40344,6,0,B|380:347|380:347|451:316,1,150.000001788139,4|0,2:0|2:0,0:0:0:0:
486,272,41756,2,0,P|505:210|470:125,1,150.000001788139,4|0,2:0|2:0,0:0:0:0:
435,89,43167,5,12,0:0:0:0:
325,40,43873,1,8,0:0:0:0:
204,41,44579,2,0,P|129:58|94:93,1,125.000001490116,8|8,0:0|0:0,0:0:0:0:
64,176,45991,5,6,0:0:0:0:
160,248,46697,1,2,0:0:0:0:
280,232,47403,2,0,L|386:220,1,100.000001192093,2|2,0:0|0:0,0:0:0:0:
456,128,48814,6,0,P|464:72|456:24,2,100.000001192093,2|2|0,0:0|0:0|0:0,0:0:0:0:
379,220,50932,1,0,0:0:0:0:
256,216,51638,6,0,L|232:112,1,100.000001192093,2|0,0:0|0:0,0:0:0:0:
112,104,53050,2,0,L|134:201,1,100.000001192093,2|2,0:0|0:0,0:0:0:0:
184,312,54462,6,0,P|272:344|376:320,1,200.000002384186,0|2,0:0|0:0,0:0:0:0:
464,240,56579,1,2,0:0:0:0:
464,120,57285,6,0,P|456:72|448:48,2,75.0000008940696,6|0|8,0:0|0:0|0:0,0:0:0:0:
454,179,58697,2,0,P|406:195|382:195,1,75.0000008940696,0|0,0:0|0:0,0:0:0:0:
233,195,60109,6,0,P|195:197|161:211,2,75.0000008940696,2|0|8,0:0|0:0|0:0,0:0:0:0:
288,216,61520,2,0,P|296:248|296:296,1,75.0000008940696,2|0,0:0|0:0,0:0:0:0:
160,344,62932,6,0,P|88:312|64:248,1,150.000001788139,6|8,0:0|0:0,0:0:0:0:
61,188,64344,1,2,0:0:0:0:
135,95,65050,1,0,0:0:0:0:
240,40,65756,6,0,P|288:32|344:48,1,100.000001192093,6|10,0:0|0:0,0:0:0:0:
415,135,67167,2,0,L|463:167,2,50.0000005960464,2|2|2,0:0|0:0|0:0,0:0:0:0:
362,105,68226,6,0,B|324:89|324:89|215:135|215:135|200:174,1,200.000002384186,6|8,0:0|0:0,0:0:0:0:
192,234,69991,2,0,P|192:274|208:306,2,75.0000008940696,2|8|8,0:0|0:0|0:0,0:0:0:0:
187,173,71403,5,6,0:0:0:0:
272,89,72109,1,8,0:0:0:0:
385,128,72814,1,6,0:0:0:0:
383,248,73520,1,10,0:0:0:0:
288,322,74226,6,0,L|208:330,2,75.0000008940696,4|8|8,0:0|0:0|0:0,0:0:0:0:
341,294,75638,2,0,L|415:286,2,75.0000008940696,4|8|2,0:0|0:0|0:0,0:0:0:0:
256,192,77050,12,8,79873,0:0:0:0:
330,302,81285,6,0,L|439:309,1,110.000004668236,6|2,0:0|0:0,0:0:0:0:
504,200,82697,2,0,L|394:192,1,110.000004668236,6|2,0:0|0:0,0:0:0:0:
264,184,84109,5,6,0:0:0:0:
136,208,84814,1,8,0:0:0:0:
26,134,85520,2,0,P|26:70|50:22,1,110.000004668236,6|8,0:0|0:0,0:0:0:0:
176,26,86932,6,0,P|178:80|157:131,1,110.000004668236,6|2,0:0|0:0,0:0:0:0:
134,261,88344,1,12,0:0:0:0:
249,324,89050,1,2,0:0:0:0:
377,293,89756,6,0,P|427:259|458:207,1,110.000004668236,12|12,0:0|0:0,0:0:0:0:
496,94,91167,2,0,L|513:35,2,55.0000023341179,8|2|8,0:0|0:0|0:0,0:0:0:0:
431,108,92226,6,0,P|381:116|313:103,1,110.000004668236,12|8,0:0|0:0,0:0:0:0:
258,90,93285,1,12,0:0:0:0:
149,164,93991,1,12,0:0:0:0:
152,295,94697,1,12,0:0:0:0:
268,353,95403,2,0,P|323:357|376:347,1,110.000004668236,12|12,0:0|0:0,0:0:0:0:
479,264,96814,6,0,B|497:207|495:139|495:139|460:102|403:131,1,220.000009336472,6|6,0:0|0:0,0:0:0:0:
285,174,98932,1,2,0:0:0:0:
153,182,99638,6,0,P|101:171|66:153,2,82.5000035011769,6|0|12,0:0|0:0|0:0,0:0:0:0:
219,182,101050,1,8,0:0:0:0:
317,171,101579,2,0,P|346:166|377:173,1,55.0000023341179,8|8,0:0|0:0,0:0:0:0:
434,187,102285,6,0,B|495:227|514:321|481:367|402:351|425:294,1,247.500010503531,8|0,0:0|2:0,0:0:0:0:
256,192,105285,1,0,2:0:0:0:
49,314,106697,6,0,B|65:342|117:352|117:352|176:335|215:334,1,175.000002086162,8|8,0:0|0:0,0:0:0:0:
358,356,108814,1,2,0:0:0:0:
451,281,109520,6,0,B|457:229|457:229|447:174,1,100.000001192093,6|2,0:0|0:0,0:0:0:0:
370,90,110932,1,6,0:0:0:0:
252,113,111638,1,2,0:0:0:0:
135,141,112344,6,0,P|73:149|34:132,2,100.000001192093,6|6|6,0:0|0:0|0:0,0:0:0:0:
252,113,114462,1,2,0:0:0:0:
369,90,115167,6,0,P|371:149|345:191,1,100.000001192093,6|2,0:0|0:0,0:0:0:0:
264,266,116579,2,0,L|155:281,1,100.000001192093,6|2,0:0|0:0,0:0:0:0:
44,273,117991,6,8,P|61:206|159:160,1,175.000002086162,6|8,0:0|0:0,0:0:0:0:
299,187,120109,2,0,L|306:243,1,50.0000005960464,8|6,0:0|0:0,0:0:0:0:
313,296,120814,5,12,0:0:0:0:
232,343,121344,2,0,P|198:351|180:348,1,50.0000005960464,14|14,0:0|0:0,0:0:0:0:
123,342,122050,2,0,B|93:307|97:267|116:237|116:237|159:196|160:154|143:104|120:79|75:77|37:98|27:132|27:162|65:169,1,400.000004768371,12|2,0:0|0:0,0:0:0:0:
256,192,125381,12,0,130675,0:0:0:0:
