osu file format v14

[General]
AudioFilename: audio.mp3
AudioLeadIn: 0
PreviewTime: 80226
Countdown: 0
SampleSet: Normal
StackLeniency: 0.7
Mode: 0
LetterboxInBreaks: 0
WidescreenStoryboard: 1

[Editor]
DistanceSpacing: 1.2
BeatDivisor: 2
GridSize: 8
TimelineZoom: 1.7

[Metadata]
Title:HAPPY PARTY TRAIN
TitleUnicode:HAPPY PARTY TRAIN
Artist:Aqours
ArtistUnicode:Aqours
Creator:- Tatan -
Version:Normal
Source:ラブライブ!サンシャイン!!
Tags:3rd Single Love Live! Sunshine!! Second Live School Idol Project Single Crissa [-Crissaegrim-] TheShadowOfDark Chika Takami You Watanabe Riko Sakurauchi Hanamaru Kunikida Yoshiko Tsushima Ruby Dia Kurosawa Mari Ohara Kanan Matsuura Ai Furihata Aika Kobayashi Aina Suzuki Anju Inami Arisa Komiya Kanako Takatsuki Nanaka Suwa Rikako Aida Shuka Saito 伊波杏樹 逢田梨香子 諏訪ななか 小宮有紗 斉藤朱夏 小林愛香 高槻かなこ 鈴木愛奈 降幡愛
BeatmapID:1608648
BeatmapSetID:676193

[Difficulty]
HPDrainRate:4
CircleSize:2.5
OverallDifficulty:3
ApproachRate:5
SliderMultiplier:0.800000005960464
SliderTickRate:1

[Events]
//Background and Video events
0,0,"67930986_p0.jpg",0,0
//Break Periods
2,104073,105497
//Storyboard Layer 0 (Background)
//Storyboard Layer 1 (Fail)
//Storyboard Layer 2 (Pass)
//Storyboard Layer 3 (Foreground)
//Storyboard Sound Samples

[TimingPoints]
815,352.941176470588,4,1,1,50,1,0
815,-100,4,1,1,50,0,0
6462,-100,4,1,1,75,0,0
9285,-100,4,1,1,75,0,0
12109,-100,4,1,1,75,0,0
39020,-100,4,2,1,75,0,0
43167,-100,4,1,1,80,0,0
43873,-100,4,1,1,85,0,0
44579,-100,4,1,1,75,0,0
45991,-100,4,1,1,85,0,0
67520,-100,4,1,1,75,0,0
68226,-100,4,1,1,90,0,0
69109,-100,4,1,1,75,0,0
72109,-100,4,1,1,75,0,0
75638,-100,4,1,1,85,0,0
78462,-100,4,1,1,50,0,0
78814,-100,4,1,1,75,0,0
79167,-100,4,1,1,95,0,0
79873,-100,4,1,1,100,0,0
80579,-100,4,1,1,90,0,0
81285,-90.9090909090909,4,1,1,90,0,1
102285,-90.9090909090909,4,1,1,60,0,1
102638,-90.9090909090909,4,1,1,50,0,1
103873,-90.9090909090909,4,1,1,50,0,0
106697,-90.9090909090909,4,1,1,50,0,0
107226,-90.9090909090909,4,1,1,60,0,0
107932,-90.9090909090909,4,1,1,70,0,0
120814,-90.9090909090909,4,1,1,70,0,0
125381,352.941176470588,4,1,1,60,1,0
130675,-100,4,1,1,5,0,0

[Colours]
Combo1 : 36,146,255
Combo2 : 128,128,255
Combo3 : 128,255,255
Combo4 : 0,255,255

[HitObjects]
49,109,815,6,0,P|116:76|238:176,1,240.000001788139,0|0,2:0|2:0,0:0:0:0:
254,266,2226,2,0,P|330:350|441:321,1,240.000001788139,0|0,2:0|2:0,0:0:0:0:
464,208,3638,6,0,P|380:130|272:168,1,240.000001788139,0|0,2:0|2:0,0:0:0:0:
200,256,5050,2,0,P|88:296|24:184,1,240.000001788139,0|0,2:0|2:0,0:0:0:0:
24,104,6462,5,4,0:0:0:0:
128,56,6814,1,0,0:0:0:0:
200,144,7167,2,0,L|296:150,1,80.0000005960464,0|0,0:0|0:0,0:0:0:0:
368,216,7873,2,0,L|416:219,2,40.0000002980232,0|0|0,0:0|0:0|0:0,0:0:0:0:
277,268,8579,2,0,L|237:265,2,40.0000002980232,0|0|0,0:0|0:0|0:0,0:0:0:0:
317,364,9285,6,0,L|237:359,1,80.0000005960464,12|8,0:0|0:0,0:0:0:0:
133,344,9991,1,8,0:0:0:0:
104,244,10344,1,8,0:0:0:0:
148,150,10697,1,8,0:0:0:0:
148,150,11403,6,0,L|251:144,1,80.0000005960464,10|8,0:0|0:0,0:0:0:0:
309,80,12109,6,0,P|243:40|163:61,2,160.000001192093,4|2|2,0:0|0:0|0:0,0:0:0:0:
348,176,13873,1,8,0:0:0:0:
315,274,14226,2,0,L|316:367,1,80.0000005960464,2|8,0:0|0:0,0:0:0:0:
415,324,14932,6,0,L|414:244,1,80.0000005960464,6|8,0:0|0:0,0:0:0:0:
511,281,15638,2,0,L|512:374,2,80.0000005960464,2|8|6,0:0|0:0|0:0,0:0:0:0:
512,176,16697,1,8,0:0:0:0:
423,120,17050,2,0,L|320:114,1,80.0000005960464,2|8,0:0|0:0,0:0:0:0:
261,50,17756,6,0,P|327:10|407:31,2,160.000001192093,6|2|2,0:0|0:0|0:0,0:0:0:0:
229,146,19520,1,8,0:0:0:0:
235,248,19873,1,2,0:0:0:0:
321,305,20226,1,8,0:0:0:0:
406,246,20579,6,0,P|356:207|317:204,1,80.0000005960464,6|8,0:0|0:0,0:0:0:0:
289,196,21109,2,0,P|253:177|229:146,1,80.0000005960464,2|2,0:0|0:0,0:0:0:0:
179,55,21814,2,0,B|226:31|274:55|274:55|322:78|370:55,1,200.000001490116,12|8,0:0|0:0,0:0:0:0:
473,32,23050,1,2,0:0:0:0:
475,135,23403,6,0,P|439:185|364:203,1,120.00000089407,4|4,2:0|2:0,0:0:0:0:
334,214,24109,2,0,P|351:275|331:335,1,120.00000089407,0|0,2:0|2:0,0:0:0:0:
298,364,24814,1,4,2:0:0:0:
222,294,25167,2,0,L|209:188,2,80.0000005960464,0|0|0,2:0|2:0|2:0,0:0:0:0:
134,237,26226,6,0,P|144:168|176:142,1,80.0000005960464,4|0,2:0|2:0,0:0:0:0:
195,135,26756,2,0,P|262:148|287:180,1,80.0000005960464,4|0,2:0|2:0,0:0:0:0:
357,209,27462,2,0,P|437:221|495:139,1,160.000001192093,0|4,2:0|2:0,0:0:0:0:
412,33,28697,2,0,L|406:105,1,40.0000002980232,0|0,2:0|2:0,0:0:0:0:
406,124,29050,6,0,P|319:88|270:101,2,120.00000089407,4|4|0,2:0|2:0|2:0,0:0:0:0:
327,192,30462,2,0,L|216:180,1,80.0000005960464,4|0,2:0|2:0,0:0:0:0:
208,217,30991,2,0,L|253:319,1,80.0000005960464,4|0,2:0|2:0,0:0:0:0:
319,358,31697,6,0,L|428:233,1,160.000001192093,0|0,2:0|2:0,0:0:0:0:
444,172,32579,1,0,2:0:0:0:
423,69,32932,1,0,2:0:0:0:
319,72,33285,2,0,L|181:81,1,120.00000089407,4|4,2:0|2:0,0:0:0:0:
147,84,33991,2,0,L|136:151,1,40.0000002980232,0|0,2:0|2:0,0:0:0:0:
133,176,34344,2,0,L|144:243,1,40.0000002980232,0|0,2:0|2:0,0:0:0:0:
149,266,34697,6,0,P|78:291|33:273,2,120.00000089407,4|4|0,2:0|2:0|2:0,0:0:0:0:
227,197,36109,2,0,P|298:172|343:190,2,120.00000089407,4|4|0,2:0|2:0|2:0,0:0:0:0:
293,276,37520,6,0,L|393:255,1,80.0000005960464,4|0,2:0|2:0,0:0:0:0:
421,244,38050,2,0,P|434:169|405:108,1,120.00000089407,4|0,2:0|2:0,0:0:0:0:
394,83,38756,2,0,L|315:99,1,80.0000005960464,0|0,2:0|2:0,0:0:0:0:
265,113,39285,5,0,2:0:0:0:
169,72,39638,1,0,2:0:0:0:
252,9,39991,1,0,2:0:0:0:
265,113,40344,6,0,L|252:251,1,120.00000089407,4|4,2:0|2:0,0:0:0:0:
329,369,41403,1,0,2:0:0:0:
371,273,41756,6,0,L|382:153,1,120.00000089407,4|4,2:0|2:0,0:0:0:0:
442,9,42814,1,0,2:0:0:0:
494,98,43167,5,12,0:0:0:0:
493,202,43520,1,8,0:0:0:0:
454,298,43873,1,8,0:0:0:0:
350,311,44226,1,8,0:0:0:0:
255,266,44579,6,0,L|119:259,1,120.00000089407,8|8,0:0|0:0,0:0:0:0:
85,168,45462,2,0,L|182:173,1,80.0000005960464,8|8,0:0|0:0,0:0:0:0:
217,171,45991,6,0,P|242:96|234:54,1,120.00000089407,6|0,0:0|0:0,0:0:0:0:
278,84,46697,2,0,P|353:109|395:101,1,120.00000089407,2|0,0:0|0:0,0:0:0:0:
438,78,47403,1,2,0:0:0:0:
444,181,47756,2,0,L|431:282,2,80.0000005960464,8|2|10,0:0|0:0|0:0,0:0:0:0:
345,213,48814,6,0,L|332:314,1,80.0000005960464,2|8,0:0|0:0,0:0:0:0:
317,341,49344,2,0,P|263:342|226:320,1,80.0000005960464,0|2,0:0|0:0,0:0:0:0:
167,256,50050,2,0,P|102:210|-11:271,1,200.000001490116,0|0,0:0|0:0,0:0:0:0:
84,311,51285,1,8,0:0:0:0:
167,256,51638,6,0,P|185:203|175:157,1,80.0000005960464,2|8,0:0|0:0,0:0:0:0:
167,130,52167,2,0,P|166:78|223:14,1,120.00000089407,0|8,0:0|0:0,0:0:0:0:
269,105,53050,2,0,L|358:112,1,80.0000005960464,2|8,0:0|0:0,0:0:0:0:
400,116,53579,1,0,0:0:0:0:
503,125,53932,1,2,0:0:0:0:
458,219,54285,6,0,L|290:205,1,160.000001192093,0|0,0:0|0:0,0:0:0:0:
246,200,55167,5,2,0:0:0:0:
167,268,55520,1,8,0:0:0:0:
265,301,55873,1,2,0:0:0:0:
164,181,56403,1,0,0:0:0:0:
164,181,56579,2,0,L|143:71,1,80.0000005960464,2|8,0:0|0:0,0:0:0:0:
47,128,57285,6,0,L|62:206,1,80.0000005960464,6|8,0:0|0:0,0:0:0:0:
80,255,57814,2,0,P|135:288|208:282,1,120.00000089407,0|8,0:0|0:0,0:0:0:0:
239,274,58520,2,0,P|315:257|399:296,1,160.000001192093,0|0,0:0|0:0,0:0:0:0:
430,318,59403,1,2,0:0:0:0:
461,218,59756,1,8,0:0:0:0:
454,114,60109,6,0,P|383:142|363:171,1,80.0000005960464,2|8,0:0|0:0,0:0:0:0:
352,186,60638,2,0,P|303:134|226:126,1,120.00000089407,0|8,0:0|0:0,0:0:0:0:
205,129,61344,2,0,P|114:119|72:10,1,200.000001490116,0|2,0:0|0:0,0:0:0:0:
173,31,62579,1,8,0:0:0:0:
205,129,62932,6,0,L|192:241,1,80.0000005960464,6|8,0:0|0:0,0:0:0:0:
190,260,63462,2,0,P|241:276|313:246,1,120.00000089407,0|8,0:0|0:0,0:0:0:0:
379,185,64344,2,0,P|443:168|484:181,1,80.0000005960464,2|8,0:0|0:0,0:0:0:0:
506,180,64873,2,0,L|494:318,1,120.00000089407,0|8,0:0|0:0,0:0:0:0:
491,351,65579,1,0,0:0:0:0:
491,351,65756,5,6,0:0:0:0:
415,279,66109,1,8,0:0:0:0:
322,327,66462,1,10,0:0:0:0:
233,272,66814,1,8,0:0:0:0:
158,198,67167,6,0,P|209:171|255:170,2,80.0000005960464,2|2|2,0:0|0:0|0:0,0:0:0:0:
63,241,68226,2,0,P|53:131|81:34,1,200.000001490116,6|12,0:0|0:0,0:0:0:0:
75,45,69638,1,8,0:0:0:0:
164,112,69991,6,0,P|235:125|275:108,1,80.0000005960464,2|2,0:0|0:0,0:0:0:0:
290,96,70520,2,8,P|373:70|429:91,1,120.00000089407,8|8,0:0|0:0,0:0:0:0:
446,112,71226,1,0,0:0:0:0:
395,272,71756,5,2,0:0:0:0:
293,319,72109,2,0,P|231:328|185:305,1,80.0000005960464,8|0,0:0|0:0,0:0:0:0:
172,286,72638,2,0,P|113:250|40:259,1,120.00000089407,2|2,0:0|0:0,0:0:0:0:
40,140,73520,2,0,L|53:38,1,80.0000005960464,10|4,0:0|0:0,0:0:0:0:
162,54,74226,6,0,P|192:148|173:190,2,120.00000089407,4|8|8,0:0|0:0|0:0,0:0:0:0:
261,2,75638,2,0,P|354:36|376:77,2,120.00000089407,4|8|2,0:0|0:0|0:0,0:0:0:0:
269,113,77050,6,0,P|323:144|378:144,1,80.0000005960464,8|8,0:0|0:0,0:0:0:0:
450,164,77756,2,0,P|419:218|419:273,1,80.0000005960464,8|8,0:0|0:0,0:0:0:0:
425,346,78462,5,12,0:0:0:0:
329,288,78814,1,12,0:0:0:0:
232,345,79167,1,12,0:0:0:0:
136,287,79519,1,12,0:0:0:0:
224,217,79873,5,12,0:0:0:0:
224,217,80050,1,8,0:0:0:0:
224,217,80226,2,0,L|229:130,2,80.0000005960464,8|0|8,0:0|0:0|0:0,0:0:0:0:
327,149,81285,6,0,P|392:112|448:120,1,132.000005011797,6|0,0:0|0:0,0:0:0:0:
502,145,81991,2,0,P|508:203|482:246,1,88.000003341198,2|8,0:0|0:0,0:0:0:0:
466,282,82520,2,0,B|412:308|359:282|359:282|306:255|253:282,1,220.000008352995,0|2,0:0|0:0,0:0:0:0:
148,345,83756,1,12,0:0:0:0:
153,221,84109,5,2,0:0:0:0:
50,289,84462,1,12,0:0:0:0:
55,172,84814,2,0,L|64:59,1,88.000003341198,2|12,0:0|0:0,0:0:0:0:
66,28,85344,2,0,P|127:40|189:26,1,88.000003341198
206,18,85873,2,0,P|267:6|329:20,2,88.000003341198,12|2|14,0:0|0:0|0:0,0:0:0:0:
261,118,86932,6,0,L|248:245,1,88.000003341198,2|12,0:0|0:0,0:0:0:0:
342,275,87638,2,0,L|350:187,1,88.000003341198,2|12,0:0|0:0,0:0:0:0:
360,130,88167,2,0,P|428:106|502:129,1,132.000005011797,0|12,0:0|0:0,0:0:0:0:
434,221,89050,2,0,P|437:279|425:308,1,88.000003341198,2|12,0:0|0:0,0:0:0:0:
334,375,89756,6,0,L|184:367,1,132.000005011797,8|2,0:0|0:0,0:0:0:0:
153,338,90462,2,0,L|147:226,1,88.000003341198,12|0,0:0|0:0,0:0:0:0:
69,166,91167,2,0,P|36:231|38:273,2,88.000003341198,8|8|8,0:0|0:0|0:0,0:0:0:0:
180,108,92226,6,0,B|232:81|285:108|285:108|338:134|391:108,1,220.000008352995,12|2,0:0|0:0,0:0:0:0:
443,83,93285,2,0,L|448:153,2,66.0000025058985,12|0|0,0:0|0:0|0:0,0:0:0:0:
438,25,93991,1,12,0:0:0:0:
348,147,94520,5,0,0:0:0:0:
348,147,94697,2,0,L|353:217,2,66.0000025058985,12|0|0,0:0|0:0|0:0,0:0:0:0:
343,89,95403,1,12,0:0:0:0:
249,204,95932,5,0,0:0:0:0:
249,204,96109,2,0,L|254:274,2,66.0000025058985,12|8|0,0:0|0:0|0:0,0:0:0:0:
243,146,96814,6,0,P|186:122|146:127,1,88.000003341198,6|8,0:0|0:0,0:0:0:0:
110,151,97344,2,0,P|53:175|13:170,1,88.000003341198,2|8,0:0|0:0,0:0:0:0:
86,272,98050,2,0,L|221:272,1,132.000005011797,2|8,0:0|0:0,0:0:0:0:
288,362,98932,2,0,L|185:362,1,88.000003341198,2|8,0:0|0:0,0:0:0:0:
264,267,99638,6,0,P|356:294|377:326,2,132.000005011797,6|0|12,0:0|0:0|0:0,0:0:0:0:
252,152,101050,2,0,L|243:46,1,88.000003341198,8|2,0:0|0:0,0:0:0:0:
240,7,101579,1,8,0:0:0:0:
344,52,101932,1,8,0:0:0:0:
359,165,102285,1,8,0:0:0:0:
256,192,102638,12,0,103873,2:0:0:0:
182,336,106697,6,0,P|198:284|179:228,1,88.000003341198,12|8,0:0|0:0,0:0:0:0:
169,199,107226,2,0,P|153:147|179:67,1,132.000005011797,6|8,0:0|0:0,0:0:0:0:
224,47,107932,2,0,L|367:36,1,132.000005011797,12|14,0:0|0:0,0:0:0:0:
428,125,108814,2,0,L|340:131,1,88.000003341198,2|8,0:0|0:0,0:0:0:0:
406,224,109520,6,0,L|493:217,1,88.000003341198,6|8,0:0|0:0,0:0:0:0:
440,318,110226,2,0,L|353:324,1,88.000003341198,2|8,0:0|0:0,0:0:0:0:
237,324,110932,1,6,0:0:0:0:
140,262,111285,1,8,0:0:0:0:
144,147,111638,2,0,L|151:43,1,88.000003341198,2|8,0:0|0:0,0:0:0:0:
252,110,112344,6,0,L|246:197,1,88.000003341198,6|8,0:0|0:0,0:0:0:0:
339,130,113050,2,0,L|346:26,1,88.000003341198,6|8,0:0|0:0,0:0:0:0:
435,112,113756,2,0,L|429:199,1,88.000003341198,6|8,0:0|0:0,0:0:0:0:
343,276,114462,1,2,0:0:0:0:
420,360,114814,1,8,0:0:0:0:
305,368,115167,6,0,P|254:319|273:204,2,176.000006682396,6|2|6,0:0|0:0|0:0,0:0:0:0:
419,359,116932,1,8,0:0:0:0:
479,261,117285,2,0,L|484:174,1,88.000003341198,2|8,0:0|0:0,0:0:0:0:
397,97,117991,6,0,L|391:183,1,88.000003341198,6|2,0:0|0:0,0:0:0:0:
385,241,118520,1,8,0:0:0:0:
278,198,118873,1,8,0:0:0:0:
181,259,119226,2,0,P|65:217|96:47,1,308.000011694193,12|6,0:0|0:0,0:0:0:0:
156,143,120814,6,0,L|307:166,1,132.000005011797,12|14,0:0|0:0,0:0:0:0:
399,180,121697,1,14,0:0:0:0:
355,74,122050,1,12,0:0:0:0:
256,192,122403,12,2,124873,0:0:0:0:
256,192,125381,12,0,130675,0:0:0:0:
