osu file format v14

[General]
AudioFilename: audio.mp3
AudioLeadIn: 0
PreviewTime: 80226
Countdown: 0
SampleSet: Normal
StackLeniency: 0.7
Mode: 0
LetterboxInBreaks: 0
WidescreenStoryboard: 1

[Editor]
DistanceSpacing: 1.2
BeatDivisor: 4
GridSize: 32
TimelineZoom: 2

[Metadata]
Title:HAPPY PARTY TRAIN
TitleUnicode:HAPPY PARTY TRAIN
Artist:Aqours
ArtistUnicode:Aqours
Creator:- Tatan -
Version:Memories
Source:ラブライブ!サンシャイン!!
Tags:3rd Single Love Live! Sunshine!! Second Live School Idol Project Single Crissa [-Crissaegrim-] TheShadowOfDark Chika Takami You Watanabe Riko Sakurauchi Hanamaru Kunikida Yoshiko Tsushima Ruby Dia Kurosawa Mari Ohara Kanan Matsuura Ai Furihata Aika Kobayashi Aina Suzuki Anju Inami Arisa Komiya Kanako Takatsuki Nanaka Suwa Rikako Aida Shuka Saito 伊波杏樹 逢田梨香子 諏訪ななか 小宮有紗 斉藤朱夏 小林愛香 高槻かなこ 鈴木愛奈 降幡愛
BeatmapID:1607978
BeatmapSetID:676193

[Difficulty]
HPDrainRate:6
CircleSize:4
OverallDifficulty:8.5
ApproachRate:9.2
SliderMultiplier:2.1
SliderTickRate:1

[Events]
//Background and Video events
0,0,"67930986_p0.jpg",0,0
//Break Periods
//Storyboard Layer 0 (Background)
//Storyboard Layer 1 (Fail)
//Storyboard Layer 2 (Pass)
//Storyboard Layer 3 (Foreground)
//Storyboard Sound Samples

[TimingPoints]
815,352.941176470588,4,1,1,55,1,0
815,-153.846153846153,4,1,1,55,0,0
6462,-100,4,1,1,75,0,0
11403,-111.111111111111,4,1,1,75,0,0
12373,-111.111111111111,4,1,1,5,0,0
12462,-111.111111111111,4,1,1,75,0,0
13432,-111.111111111111,4,1,1,5,0,0
13520,-111.111111111111,4,1,1,75,0,0
15197,-111.111111111111,4,1,1,5,0,0
15285,-111.111111111111,4,1,1,75,0,0
16609,-111.111111111111,4,1,1,5,0,0
16697,-111.111111111111,4,1,1,75,0,0
18020,-111.111111111111,4,1,1,5,0,0
18109,-111.111111111111,4,1,1,75,0,0
19079,-111.111111111111,4,1,1,5,0,0
19167,-111.111111111111,4,1,1,75,0,0
19697,-111.111111111111,4,1,1,50,0,0
19873,-111.111111111111,4,1,1,65,0,0
20226,-100,4,1,1,75,0,0
20491,-100,4,1,1,5,0,0
20579,-100,4,1,1,75,0,0
21462,-100,4,1,1,75,0,0
21814,-90.9090909090909,4,1,1,75,0,0
22079,-71.4285714285714,4,1,1,5,0,0
22167,-71.4285714285714,4,1,1,75,0,0
23403,-133.333333333333,4,1,1,75,0,0
34609,-133.333333333333,4,1,1,5,0,0
34697,-133.333333333333,4,1,1,75,0,0
37432,-133.333333333333,4,1,1,5,0,0
37520,-133.333333333333,4,1,1,75,0,0
40344,-111.111111111111,4,1,1,75,0,0
41314,-111.111111111111,4,1,1,5,0,0
41403,-111.111111111111,4,1,1,75,0,0
43167,-111.111111111111,4,1,1,80,0,0
43873,-111.111111111111,4,1,1,85,0,0
44579,-111.111111111111,4,1,1,75,0,0
44756,-90.9090909090908,4,1,1,75,0,0
45991,-100,4,1,1,85,0,0
67432,-100,4,1,1,5,0,0
67520,-100,4,1,1,75,0,0
67785,-100,4,1,1,5,0,0
67873,-100,4,1,1,75,0,0
68138,-100,4,1,1,5,0,0
68226,-100,4,1,1,90,0,0
68667,-100,4,1,1,5,0,0
68756,-100,4,1,1,75,0,0
69109,-133.333333333333,4,1,1,75,0,0
69373,-133.333333333333,4,1,1,5,0,0
69462,-133.333333333333,4,1,1,75,0,0
72020,-133.333333333333,4,1,1,5,0,0
72109,-117.647058823529,4,1,1,75,0,0
73873,-83.3333333333333,4,1,1,75,0,0
74138,-83.3333333333333,4,1,1,5,0,0
74226,-83.3333333333333,4,1,1,75,0,0
74491,-83.3333333333333,4,1,1,5,0,0
74579,-83.3333333333333,4,1,1,75,0,0
75638,-83.3333333333333,4,1,1,85,0,0
75903,-83.3333333333333,4,1,1,5,0,0
75991,-83.3333333333333,4,1,1,85,0,0
78462,-83.3333333333333,4,1,1,50,0,0
78814,-83.3333333333333,4,1,1,75,0,0
79167,-83.3333333333333,4,1,1,95,0,0
79873,-83.3333333333333,4,1,1,100,0,0
80756,-100,4,1,1,90,0,0
81197,-100,4,1,1,5,0,0
81285,-100,4,1,1,90,0,1
81550,-100,4,1,1,5,0,1
81638,-100,4,1,1,90,0,1
82256,-100,4,1,1,5,0,1
82344,-100,4,1,1,90,0,1
83667,-100,4,1,1,5,0,1
83756,-100,4,1,1,90,0,1
84373,-100,4,1,1,5,0,1
84462,-100,4,1,1,90,0,1
85079,-100,4,1,1,5,0,1
85167,-100,4,1,1,90,0,1
87197,-100,4,1,1,5,0,1
87285,-100,4,1,1,90,0,1
87903,-100,4,1,1,5,0,1
87991,-100,4,1,1,90,0,1
90197,-100,4,1,1,5,0,1
90285,-100,4,1,1,90,0,1
96814,-83.3333333333333,4,1,1,90,0,1
97079,-83.3333333333333,4,1,1,5,0,1
97167,-83.3333333333333,4,1,1,90,0,1
97609,-83.3333333333333,4,1,1,5,0,1
97697,-83.3333333333333,4,1,1,90,0,1
97962,-83.3333333333333,4,1,1,5,0,1
98050,-83.3333333333333,4,1,1,90,0,1
98579,-100,4,1,1,90,0,1
99550,-83.3333333333333,4,1,1,5,0,1
99638,-100,4,1,1,90,0,1
101314,-100,4,1,1,5,0,1
101402,-100,4,1,1,90,0,1
101844,-100,4,1,1,5,0,1
101932,-100,4,1,1,90,0,1
102285,-125,4,1,1,60,0,0
102638,-166.666666666667,4,1,1,50,0,0
103873,-333.333333333333,4,1,1,50,0,0
104491,-333.333333333333,4,1,1,5,0,0
104579,-333.333333333333,4,1,1,50,0,0
106520,-100,4,1,1,50,0,0
107050,-100,4,1,1,60,0,0
108285,-100,4,1,1,70,0,0
109432,-100,4,1,1,5,0,0
109520,-100,4,1,1,70,0,0
112609,-100,4,1,1,5,0,0
112697,-100,4,1,1,70,0,0
113314,-100,4,1,1,5,0,0
113402,-100,4,1,1,70,0,0
117638,-133.333333333333,4,1,1,70,0,0
117903,-100,4,1,1,5,0,0
117991,-100,4,1,1,70,0,0
120814,-83.3333333333333,4,1,1,70,0,0
125381,352.941176470588,4,1,1,60,1,0
125381,-83.3333333333333,4,1,1,60,0,0
126086,-83.3333333333333,4,1,1,50,0,0
126792,-83.3333333333333,4,1,1,40,0,0
127498,-83.3333333333333,4,1,1,30,0,0
128204,-83.3333333333333,4,1,1,20,0,0
128910,-83.3333333333333,4,1,1,10,0,0
130675,-83.3333333333333,4,1,1,5,0,0

[Colours]
Combo1 : 36,146,255
Combo2 : 128,128,255
Combo3 : 128,255,255
Combo4 : 0,255,255

[HitObjects]
88,156,638,5,0,2:0:0:0:
88,156,726,1,0,2:0:0:0:
88,156,815,2,0,P|120:124|131:80,1,68.2499968757631,0|0,2:0|2:0,2:0:0:0:
34,70,1167,1,0,2:0:0:0:
10,252,1344,2,0,P|103:246|156:209,1,136.499993751526,0|0,2:0|2:0,2:0:0:0:
192,144,1873,1,0,2:0:0:0:
192,144,2226,6,0,P|218:165|232:206,1,68.2499968757631,0|0,2:0|2:0,2:0:0:0:
150,214,2579,1,0,2:0:0:0:
223,75,2756,2,0,P|276:118|306:203,1,136.499993751526,0|0,2:0|2:0,2:0:0:0:
303,178,3638,6,0,P|242:198|201:179,1,68.2499968757631,0|0,2:0|2:0,2:0:0:0:
245,112,3991,1,0,2:0:0:0:
203,293,4167,2,0,P|137:207|146:156,1,136.499993751526,0|0,2:0|2:0,2:0:0:0:
151,75,4697,1,0,2:0:0:0:
151,75,5050,6,0,L|64:61,1,68.2499968757631,0|0,2:0|2:0,2:0:0:0:
120,178,5403,2,0,L|207:164,1,68.2499968757631,0|0,2:0|2:0,2:0:0:0:
128,320,5756,1,0,2:0:0:0:
32,256,5932,1,0,2:0:0:0:
295,283,6109,1,0,2:0:0:0:
295,283,6462,6,0,P|295:219|263:171,1,105,4|0,0:0|0:0,0:0:0:0:
172,146,6814,1,0,0:0:0:0:
191,255,6991,1,0,0:0:0:0:
276,185,7167,1,0,0:0:0:0:
257,76,7344,1,0,0:0:0:0:
154,38,7520,2,0,P|98:62|67:137,1,105
191,255,7873,5,0,0:0:0:0:
172,146,8050,1,0,0:0:0:0:
107,326,8226,1,0,0:0:0:0:
88,217,8403,1,0,0:0:0:0:
294,293,8579,1,0,0:0:0:0:
275,184,8756,1,0,0:0:0:0:
210,364,8933,1,0,0:0:0:0:
191,255,9109,1,0,0:0:0:0:
378,222,9285,5,8,0:0:0:0:
172,146,9462,1,2,0:0:0:0:
294,293,9638,5,8,0:0:0:0:
359,113,9814,1,2,0:0:0:0:
191,255,9991,5,8,0:0:0:0:
397,331,10167,1,2,0:0:0:0:
275,184,10344,5,8,0:0:0:0:
210,364,10520,1,2,0:0:0:0:
481,260,10697,1,8,0:0:0:0:
160,288,11403,6,0,L|213:284,2,47.2499985580445,10|10|2,0:0|0:0|0:0,0:0:0:0:
192,376,11756,2,0,B|287:369|287:369,1,94.499997116089,8|0,0:0|0:0,0:0:0:0:
192,200,12109,6,0,B|97:207|97:207|33:271,1,141.749995674133,4|0,0:0|0:0,0:0:0:0:
276,223,12462,2,0,P|276:170|223:118,1,94.499997116089,8|0,0:0|0:0,0:0:0:0:
144,112,12814,1,2,0:0:0:0:
192,200,12991,1,2,0:0:0:0:
224,32,13167,2,0,B|156:13|156:13|88:32,1,141.749995674133,8|0,0:0|0:0,0:0:0:0:
0,80,13520,6,0,P|42:120|87:130,1,94.499997116089,2|0,0:0|0:0,0:0:0:0:
224,160,13873,2,0,P|170:185|145:224,1,94.499997116089,8|0,0:0|0:0,0:0:0:0:
96,288,14226,2,0,P|153:303|197:291,1,94.499997116089,2|0,0:0|0:0,0:0:0:0:
288,256,14579,2,0,P|282:314|302:356,1,94.499997116089,8|0,0:0|0:0,0:0:0:0:
372,292,14932,6,0,B|399:215|399:215|388:132,1,141.749995674133,6|0,0:0|0:0,0:0:0:0:
282,21,15285,2,0,L|292:130,1,94.499997116089,8|0,0:0|0:0,0:0:0:0:
386,32,15638,1,2,0:0:0:0:
352,171,15814,1,2,0:0:0:0:
452,95,15991,2,0,P|484:47|484:-1,1,94.499997116089,8|0,0:0|0:0,0:0:0:0:
352,171,16344,6,0,B|454:182|454:182|489:159,1,141.749995674133,6|0,0:0|0:0,0:0:0:0:
512,139,16697,1,8,0:0:0:0:
336,91,16873,1,0,0:0:0:0:
413,257,17050,1,2,0:0:0:0:
265,234,17226,1,8,0:0:0:0:
231,229,17314,1,8,0:0:0:0:
192,224,17403,2,0,L|114:214,1,47.2499985580445,8|0,0:0|0:0,0:0:0:0:
51,353,17579,2,0,L|128:343,1,47.2499985580445
89,138,17756,6,0,P|50:223|87:298,1,141.749995674133,6|0,0:0|0:0,0:0:0:0:
185,138,18109,2,0,L|169:42,1,94.499997116089,8|0,0:0|0:0,0:0:0:0:
89,138,18462,1,2,0:0:0:0:
272,107,18638,1,2,0:0:0:0:
151,219,18814,2,0,B|135:315|135:315|151:363,1,141.749995674133,8|0,0:0|0:0,0:0:0:0:
320,267,19167,6,0,P|257:256|224:267,1,94.499997116089,2|0,0:0|0:0,0:0:0:0:
331,373,19520,1,8,0:0:0:0:
482,342,19697,2,0,L|471:293,1,47.2499985580445
428,187,19873,5,2,0:0:0:0:
397,167,19961,1,2,0:0:0:0:
360,163,20049,1,2,0:0:0:0:
333,170,20138,1,2,0:0:0:0:
299,187,20226,2,0,B|257:186|228:157|228:157|199:127|158:127,1,157.5,8|0,0:0|0:0,0:0:0:0:
114,132,20579,5,6,0:0:0:0:
178,11,20756,1,2,0:0:0:0:
189,243,20932,1,8,0:0:0:0:
290,102,21109,6,0,P|306:47|302:-4,1,105,2|0,0:0|0:0,0:0:0:0:
401,229,21462,2,0,P|385:179|388:126,1,105,2|0,0:0|0:0,0:0:0:0:
504,274,21814,6,0,B|447:248|390:274|390:274|333:299|276:274,1,231.000007049561,12|8,0:0|0:0,0:0:0:0:
235,262,22256,1,8,0:0:0:0:
235,262,22344,1,8,0:0:0:0:
286,104,22520,1,2,0:0:0:0:
113,207,22697,5,8,0:0:0:0:
309,210,22873,1,2,0:0:0:0:
185,136,23050,1,2,0:0:0:0:
185,136,23403,6,0,P|228:192|328:206,1,157.500006008148,4|0,2:0|2:0,2:0:0:0:
408,259,23932,1,4,2:0:0:0:
408,259,24109,2,0,P|419:188|368:116,1,157.500006008148,0|0,2:0|2:0,2:0:0:0:
315,269,24638,1,0,2:0:0:0:
315,269,24726,1,0,2:0:0:0:
315,269,24814,6,0,L|304:368,1,78.7500030040742,4|0,2:0|2:0,2:0:0:0:
224,240,25167,2,0,P|256:192|304:176,1,78.7500030040742,0|4,2:0|2:0,2:0:0:0:
192,336,25520,2,0,P|144:304|128:256,1,78.7500030040742,0|0,2:0|2:0,2:0:0:0:
174,182,25873,2,0,P|205:204|223:239,1,78.7500030040742,0|0,2:0|2:0,2:0:0:0:
64,352,26226,6,0,L|48:195,1,157.500006008148,4|0,2:0|2:0,2:0:0:0:
128,96,26756,2,0,L|139:205,1,78.7500030040742,4|0,2:0|2:0,2:0:0:0:
122,12,27109,2,0,P|75:25|46:74,1,78.7500030040742,0|0,2:0|2:0,2:0:0:0:
227,124,27462,6,0,B|336:112|336:112|400:144,1,157.500006008148,0|0,2:0|2:0,2:0:0:0:
388,236,27991,1,0,2:0:0:0:
304,272,28167,2,0,P|298:215|320:176,1,78.7500030040742,4|0,2:0|2:0,2:0:0:0:
384,352,28520,1,0,2:0:0:0:
212,320,28697,2,0,L|206:241,1,78.7500030040742,0|0,2:0|2:0,2:0:0:0:
113,209,29050,6,0,P|175:149|245:155,1,157.500006008148,4|0,2:0|2:0,2:0:0:0:
352,240,29579,2,0,L|334:64,1,157.500006008148,4|0,2:0|2:0,2:0:0:0:
256,32,30109,2,0,P|240:80|256:128,1,78.7500030040742,0|0,2:0|2:0,2:0:0:0:
491,68,30462,6,0,B|384:64|384:64|331:84,1,157.500006008148,4|0,2:0|2:0,2:0:0:0:
388,160,30991,2,0,B|466:162,1,78.7500030040742,4|0,2:0|2:0,2:0:0:0:
336,81,31344,2,0,B|257:78,1,78.7500030040742,0|0,2:0|2:0,2:0:0:0:
299,274,31697,6,0,B|458:279|458:279|395:238,1,236.250009012223,0|0,2:0|2:0,2:0:0:0:
256,160,32403,1,4,2:0:0:0:
256,160,32491,1,0,2:0:0:0:
256,160,32579,5,0,2:0:0:0:
336,195,32756,1,0,2:0:0:0:
185,211,32932,1,0,2:0:0:0:
246,72,33109,1,0,2:0:0:0:
256,160,33285,5,4,2:0:0:0:
149,119,33462,1,0,2:0:0:0:
246,72,33638,1,0,2:0:0:0:
352,128,33814,5,4,2:0:0:0:
352,224,33991,2,0,L|339:301,1,78.7500030040742,0|0,2:0|2:0,2:0:0:0:
249,325,34344,2,0,L|231:209,1,118.125004506111,0|0,2:0|2:0,2:0:0:0:
256,128,34697,6,0,P|195:131|148:233,1,157.500006008148,4|0,2:0|2:0,2:0:0:0:
336,208,35226,2,0,L|351:50,1,157.500006008148,4|0,2:0|2:0,2:0:0:0:
256,128,35756,1,0,2:0:0:0:
400,256,35932,2,0,P|416:208|320:128,1,157.500006008148,0|0,2:0|2:0,2:0:0:0:
335,207,36462,1,0,2:0:0:0:
335,207,36638,1,4,2:0:0:0:
480,304,36814,2,0,L|472:382,1,78.7500030040742,0|0,2:0|2:0,2:0:0:0:
400,256,37167,2,0,P|454:212|508:212,1,118.125004506111,0|0,2:0|2:0,2:0:0:0:
392,344,37520,6,0,L|216:336,1,157.500006008148,4|0,2:0|2:0,2:0:0:0:
271,202,38050,2,0,P|286:258|230:338,1,157.500006008148,4|0,2:0|2:0,2:0:0:0:
195,251,38579,1,0,2:0:0:0:
216,128,38756,1,0,2:0:0:0:
271,202,38932,5,4,2:0:0:0:
149,62,39109,1,0,2:0:0:0:
114,73,39285,1,0,2:0:0:0:
216,128,39462,1,4,2:0:0:0:
237,135,39638,1,0,2:0:0:0:
128,164,39814,1,0,2:0:0:0:
120,168,39991,2,0,L|128:280,1,78.7500030040742,0|0,2:0|2:0,2:0:0:0:
224,224,40344,6,0,B|214:89|214:89|145:37,1,188.999994232178,4|0,2:0|2:0,2:0:0:0:
173,337,40873,2,0,B|229:362|287:337|287:337|345:310|402:337,1,236.249992790222,4|0,2:0|2:0,2:0:0:0:
401,336,41403,2,0,L|387:237,1,94.499997116089,0|0,2:0|2:0,2:0:0:0:
473,206,41756,6,0,B|491:340|491:340|455:393,1,188.999994232178,4|0,2:0|2:0,2:0:0:0:
315,181,42285,2,0,P|407:152|478:222,1,188.999994232178,4|0,2:0|2:0,2:0:0:0:
269,293,42814,1,0,2:0:0:0:
383,271,42991,1,0,2:0:0:0:
204,212,43167,5,12,0:0:0:0:
383,271,43344,1,0,0:0:0:0:
259,128,43520,5,8,0:0:0:0:
212,311,43697,1,0,0:0:0:0:
340,172,43873,5,8,0:0:0:0:
163,103,44050,1,0,0:0:0:0:
288,256,44226,5,8,0:0:0:0:
320,64,44403,1,0,0:0:0:0:
159,194,44579,5,8,0:0:0:0:
159,194,44756,2,0,L|25:204,1,115.50000352478,8|0,0:0|0:0,0:0:0:0:
224,256,45109,2,0,P|247:185|226:126,1,115.50000352478,8|0,0:0|0:0,0:0:0:0:
133,342,45462,2,0,B|296:356|296:356|381:322,1,231.000007049561,8|8,0:0|0:0,0:0:0:0:
416,283,45903,1,8,0:0:0:0:
416,283,45991,6,0,L|280:271,1,105,6|0,0:0|0:0,0:0:0:0:
479,223,46344,2,0,P|506:272|486:340,1,105,8|0,0:0|0:0,0:0:0:0:
386,168,46697,1,2,0:0:0:0:
473,134,46873,1,2,0:0:0:0:
503,309,47050,1,8,0:0:0:0:
416,283,47226,1,0,0:0:0:0:
329,257,47403,6,0,P|247:277|228:302,1,105,2|0,0:0|0:0,0:0:0:0:
306,342,47756,1,8,0:0:0:0:
287,163,47932,1,0,0:0:0:0:
198,258,48109,2,0,L|211:381,1,105,2|2,0:0|0:0,0:0:0:0:
107,190,48462,2,0,L|94:313,1,105,10|0,0:0|0:0,0:0:0:0:
175,110,48814,6,0,P|99:84|5:159,1,210,2|8,0:0|0:0,0:0:0:0:
264,126,49344,2,0,P|256:64|224:32,1,105,0|2,0:0|0:0,0:0:0:0:
256,224,49697,2,0,P|318:216|350:184,1,105,2|8,0:0|0:0,0:0:0:0:
160,192,50050,6,0,P|160:256|288:320,1,210
303,121,50579,1,10,0:0:0:0:
357,218,50756,2,0,P|320:231|223:202,1,105,2|0,0:0|0:0,0:0:0:0:
303,121,51109,1,0,0:0:0:0:
455,224,51285,2,0,P|432:272|363:314,1,105,8|0,0:0|0:0,0:0:0:0:
195,288,51638,6,0,P|259:320|227:224,1,210,2|8,0:0|0:0,0:0:0:0:
136,184,52167,2,0,P|112:283|168:376,1,210,0|2,0:0|0:0,0:0:0:0:
246,138,52697,2,0,L|258:10,1,105,8|0,0:0|0:0,0:0:0:0:
141,11,53050,6,0,B|129:135|129:135|167:211,1,210,2|8,0:0|0:0,0:0:0:0:
224,128,53579,2,0,L|236:0,1,105,0|2,0:0|0:0,0:0:0:0:
168,212,53932,2,0,P|237:228|315:157,1,105,2|8,0:0|0:0,0:0:0:0:
507,218,54285,2,0,P|436:147|339:173,1,210
408,242,54814,1,8,0:0:0:0:
316,84,54991,1,0,0:0:0:0:
316,84,55079,1,0,0:0:0:0:
316,84,55167,5,2,0:0:0:0:
508,0,55344,1,2,0:0:0:0:
304,0,55520,1,8,0:0:0:0:
480,76,55697,1,0,0:0:0:0:
338,173,55873,1,2,0:0:0:0:
316,84,56050,1,0,0:0:0:0:
404,98,56226,1,8,0:0:0:0:
256,160,56403,1,0,0:0:0:0:
384,16,56579,1,2,0:0:0:0:
432,176,56756,5,8,0:0:0:0:
433,212,56844,1,8,0:0:0:0:
421,247,56932,1,8,0:0:0:0:
397,274,57020,1,0,0:0:0:0:
365,292,57109,2,0,L|289:289,1,52.5
208,192,57285,6,0,L|312:195,1,105,6|0,0:0|0:0,0:0:0:0:
192,288,57638,1,8,0:0:0:0:
112,144,57814,1,0,0:0:0:0:
80,336,57991,1,2,0:0:0:0:
208,192,58167,1,2,0:0:0:0:
176,384,58344,1,8,0:0:0:0:
32,224,58520,6,0,B|16:80|16:80|48:16,1,210
192,80,59050,2,0,P|144:112|96:112,1,105,8|0,0:0|0:0,0:0:0:0:
176,0,59403,2,0,P|233:6|270:37,1,105,2|2,0:0|0:0,0:0:0:0:
352,160,59756,1,8,0:0:0:0:
384,0,59932,1,0,0:0:0:0:
432,192,60109,6,0,P|384:240|320:240,1,105,2|0,0:0|0:0,0:0:0:0:
416,80,60462,1,8,0:0:0:0:
512,224,60638,2,0,P|465:293|336:336,1,210,0|2,0:0|0:0,0:0:0:0:
256,240,61167,1,8,0:0:0:0:
144,320,61344,2,0,L|16:336,1,105,0|2,0:0|0:0,0:0:0:0:
160,240,61697,5,0,0:0:0:0:
240,336,61873,1,8,0:0:0:0:
288,144,62050,1,0,0:0:0:0:
144,320,62226,1,2,0:0:0:0:
176,160,62403,1,2,0:0:0:0:
320,288,62579,2,0,L|424:274,1,105,8|0,0:0|0:0,0:0:0:0:
512,176,62932,6,0,L|407:189,1,105,6|0,0:0|0:0,0:0:0:0:
512,272,63285,1,8,0:0:0:0:
496,96,63462,2,0,B|362:112|362:112|301:173,1,210,0|2,0:0|0:0,0:0:0:0:
240,272,63991,1,8,0:0:0:0:
224,128,64167,1,0,0:0:0:0:
144,272,64344,6,0,P|160:336|208:368,1,105,2|0,0:0|0:0,0:0:0:0:
240,272,64697,1,8,0:0:0:0:
94,187,64873,2,0,P|64:305|98:392,1,210,0|2,0:0|0:0,0:0:0:0:
208,160,65403,1,8,0:0:0:0:
48,112,65579,1,0,0:0:0:0:
256,96,65756,5,6,0:0:0:0:
128,144,65932,1,0,0:0:0:0:
150,9,66109,1,8,0:0:0:0:
234,231,66285,1,0,0:0:0:0:
288,16,66462,1,10,0:0:0:0:
288,16,66550,1,10,0:0:0:0:
288,16,66638,1,2,0:0:0:0:
144,224,66814,1,8,0:0:0:0:
144,224,66991,1,2,0:0:0:0:
336,256,67167,6,0,B|447:263|447:263|513:236,1,157.5,2|0,0:0|0:0,0:0:0:0:
384,176,67520,6,0,L|199:163,1,157.5,2|0,0:0|0:0,0:0:0:0:
225,318,67873,6,0,P|241:238|224:159,1,157.5,2|0,0:0|0:0,0:0:0:0:
143,45,68226,6,0,B|111:109|143:173|143:173|175:237|143:301,1,262.5,6|0,0:0|0:0,0:0:0:0:
128,320,68756,1,2,0:0:0:0:
36,235,68932,1,2,0:0:0:0:
256,256,69109,2,0,P|375:264|375:264,1,118.125004506111,12|0,0:0|0:0,0:0:0:0:
414,269,69462,1,2,0:0:0:0:
324,178,69638,5,8,0:0:0:0:
352,352,69814,1,0,0:0:0:0:
408,172,69991,2,0,L|413:72,1,78.7500030040742,2|2,0:0|0:0,0:0:0:0:
324,178,70344,1,2,0:0:0:0:
492,204,70520,2,0,L|501:41,1,157.500006008148,8|2,0:0|0:0,0:0:0:0:
324,178,71050,1,8,0:0:0:0:
480,336,71226,1,0,0:0:0:0:
352,352,71403,6,0,L|248:364,1,78.7500030040742,6|0,0:0|0:0,0:0:0:0:
384,272,71756,2,0,P|432:320|432:368,1,118.125004506111,2|0,0:0|0:0,0:0:0:0:
304,272,72109,2,0,L|320:80,1,178.500003404617,8|0,0:0|0:0,0:0:0:0:
331,6,72638,1,2,0:0:0:0:
331,6,72726,1,2,0:0:0:0:
331,6,72814,5,6,0:0:0:0:
208,112,72991,1,2,0:0:0:0:
416,32,73167,1,2,0:0:0:0:
192,0,73344,1,2,0:0:0:0:
416,128,73520,5,10,0:0:0:0:
412,172,73608,1,10,0:0:0:0:
408,216,73696,1,2,0:0:0:0:
404,261,73784,1,2,0:0:0:0:
401,305,73873,2,0,B|352:286|309:313|309:313|267:340|220:323,1,188.999994232178,4|0,0:0|0:0,0:0:0:0:
245,217,74226,6,0,P|267:126|206:53,1,188.999994232178,4|0,0:0|0:0,0:0:0:0:
161,149,74579,1,2,0:0:0:0:
262,238,74756,2,0,P|290:117|212:22,1,251.999992309571,8|0,0:0|0:0,0:0:0:0:
102,43,75285,2,0,P|117:104|161:149,1,125.999996154785,8|0,0:0|0:0,0:0:0:0:
93,231,75638,6,0,P|184:253|257:192,1,188.999994232178,4|0,0:0|0:0,0:0:0:0:
161,149,75991,1,2,0:0:0:0:
72,248,76167,2,0,P|190:276|283:199,1,251.999992309571,8|0,0:0|0:0,0:0:0:0:
344,16,76697,1,2,0:0:0:0:
384,256,76873,1,2,0:0:0:0:
416,64,77050,5,8,0:0:0:0:
288,288,77226,1,2,0:0:0:0:
344,16,77403,5,8,0:0:0:0:
472,240,77579,1,2,0:0:0:0:
240,144,77756,2,0,L|88:128,1,125.999996154785,8|2,0:0|0:0,0:0:0:0:
199,247,78109,1,8,0:0:0:0:
240,48,78285,1,2,0:0:0:0:
351,164,78462,5,12,0:0:0:0:
240,144,78638,1,2,0:0:0:0:
330,263,78814,5,12,0:0:0:0:
371,64,78991,1,2,0:0:0:0:
199,247,79167,5,12,0:0:0:0:
436,266,79343,1,2,0:0:0:0:
240,48,79520,5,12,0:0:0:0:
179,346,79696,1,2,0:0:0:0:
481,180,79873,5,12,0:0:0:0:
94,179,80050,1,8,0:0:0:0:
390,352,80226,1,8,0:0:0:0:
317,186,80756,5,2,0:0:0:0:
317,186,80844,1,2,0:0:0:0:
317,186,80932,2,0,L|143:176,1,157.5,12|0,0:0|0:0,0:0:0:0:
381,250,81285,6,0,P|408:187|366:107,1,157.5,6|0,0:0|0:0,0:0:0:0:
285,346,81638,2,0,L|389:351,1,105,8|0,0:0|0:0,0:0:0:0:
256,256,81991,2,0,B|133:262|133:262|82:305,1,157.5,2|0,0:0|0:0,0:0:0:0:
81,312,82344,1,8,0:0:0:0:
32,128,82520,6,0,P|96:64|224:128,1,210
128,160,83050,1,8,0:0:0:0:
256,0,83226,1,0,0:0:0:0:
351,185,83403,2,0,P|379:119|340:25,1,157.5,2|0,0:0|0:0,0:0:0:0:
293,269,83756,2,0,L|438:279,1,105,12|0,0:0|0:0,0:0:0:0:
224,194,84109,6,0,P|196:260|235:353,1,157.5,2|0,0:0|0:0,0:0:0:0:
282,109,84462,2,0,L|137:100,1,105,12|0,0:0|0:0,0:0:0:0:
48,0,84814,2,0,L|229:12,1,157.5,2|0,0:0|0:0,0:0:0:0:
379,17,85167,1,12,0:0:0:0:
304,192,85344,6,0,P|352:257|480:240,1,210
403,172,85873,1,12,0:0:0:0:
224,224,86050,1,2,0:0:0:0:
352,352,86226,1,2,0:0:0:0:
288,112,86403,1,10,0:0:0:0:
288,112,86491,1,10,0:0:0:0:
288,112,86579,2,0,L|275:-7,1,105,14|2,0:0|0:0,0:0:0:0:
93,122,86932,6,0,P|141:186|222:187,1,157.5,2|0,0:0|0:0,0:0:0:0:
64,32,87285,2,0,P|16:64|0:128,1,105,12|0,0:0|0:0,0:0:0:0:
34,257,87638,2,0,B|71:232|71:232|95:110,1,157.5,2|0,0:0|0:0,0:0:0:0:
64,32,87991,1,12,0:0:0:0:
192,48,88167,6,0,B|352:64|352:64|288:0,1,210
272,160,88697,1,12,0:0:0:0:
432,16,88873,1,0,0:0:0:0:
352,240,89050,1,2,0:0:0:0:
317,29,89226,1,0,0:0:0:0:
256,256,89403,1,12,0:0:0:0:
422,121,89579,1,0,0:0:0:0:
352,352,89756,6,0,B|288:384|224:352|224:352|160:320|96:352,1,262.5,8|0,0:0|0:0,0:0:0:0:
66,374,90285,1,2,0:0:0:0:
96,224,90462,2,0,B|121:70|121:70|70:121,1,210,12|0,0:0|0:0,0:0:0:0:
17,295,90991,1,0,0:0:0:0:
192,160,91167,6,0,B|217:6|217:6,1,105,8|0,0:0|0:0,0:0:0:0:
0,192,91520,2,0,B|17:295,1,105,8|0,0:0|0:0,0:0:0:0:
320,128,91873,2,0,B|345:-25|345:-25,1,105,8|0,0:0|0:0,0:0:0:0:
160,276,92226,6,0,B|224:308|224:308|384:276,1,210,12|0,0:0|0:0,0:0:0:0:
512,246,92756,1,0,0:0:0:0:
313,193,92932,5,8,0:0:0:0:
459,374,93109,1,2,0:0:0:0:
508,127,93285,5,12,0:0:0:0:
359,314,93462,1,0,0:0:0:0:
359,53,93638,5,8,0:0:0:0:
512,246,93815,1,0,0:0:0:0:
471,15,93991,5,12,0:0:0:0:
321,203,94168,1,0,0:0:0:0:
209,53,94344,5,8,0:0:0:0:
424,157,94521,1,0,0:0:0:0:
146,157,94697,5,12,0:0:0:0:
359,53,94874,1,0,0:0:0:0:
70,60,95050,5,8,0:0:0:0:
284,164,95227,1,0,0:0:0:0:
0,157,95403,5,12,0:0:0:0:
209,53,95580,1,0,0:0:0:0:
174,274,95756,5,8,0:0:0:0:
70,60,95933,1,0,0:0:0:0:
42,370,96109,5,12,0:0:0:0:
137,153,96286,1,8,0:0:0:0:
137,153,96373,1,8,0:0:0:0:
137,153,96462,2,0,L|224:160,1,52.5,8|0,0:0|0:0,0:0:0:0:
288,64,96638,2,0,L|235:59,1,52.5,0|0,0:0|0:0,0:0:0:0:
316,212,96814,6,0,B|438:221|438:221|508:180,1,188.999994232178,6|0,0:0|0:0,0:0:0:0:
352,128,97167,1,8,0:0:0:0:
356,321,97344,2,0,P|448:352|512:256,1,188.999994232178,2|0,0:0|0:0,0:0:0:0:
316,212,97697,2,0,P|255:267|250:376,1,188.999994232178,8|0,0:0|0:0,0:0:0:0:
423,213,98050,2,0,P|400:145|375:122,1,62.9999980773926,2|0,0:0|0:0,0:0:0:0:
330,79,98226,6,0,P|253:61|198:75,1,125.999996154785,6|0,0:0|0:0,0:0:0:0:
109,128,98579,2,0,L|118:242,1,105,8|0,0:0|0:0,0:0:0:0:
221,293,98932,2,0,L|229:188,1,105,2|2,0:0|0:0,0:0:0:0:
150,355,99285,2,0,P|214:387|310:323,1,157.5,8|0,0:0|0:0,0:0:0:0:
69,248,99638,6,0,L|56:387,1,105,6|0,0:0|0:0,0:0:0:0:
157,261,99991,1,8,0:0:0:0:
8,187,100167,2,0,L|0:82,1,105,0|2,0:0|0:0,0:0:0:0:
96,0,100520,1,2,0:0:0:0:
96,0,100609,1,2,0:0:0:0:
96,0,100697,2,0,L|104:104,1,105,12|0,0:0|0:0,0:0:0:0:
112,201,101050,6,0,P|176:169|194:79,1,157.5,8|0,0:0|0:0,0:0:0:0:
104,104,101403,1,2,0:0:0:0:
32,250,101579,2,0,P|92:288|184:268,1,157.5,8|0,0:0|0:0,0:0:0:0:
300,161,101932,1,8,0:0:0:0:
196,90,102109,1,0,0:0:0:0:
252,273,102285,6,0,L|236:385,1,84,8|0,0:0|0:0,0:0:0:0:
396,129,102638,5,8,0:0:0:0:
317,76,102815,1,8,0:0:0:0:
360,214,102991,2,0,L|338:353,1,125.999996154785,8|0,0:0|0:0,0:0:0:0:
333,378,103520,1,2,0:0:0:0:
474,181,103873,6,0,L|455:295,1,110.249996635437,0|0,2:0|2:0,2:0:0:0:
450,323,104579,1,0,2:0:0:0:
368,288,104932,1,0,2:0:0:0:
282,311,105285,2,0,P|237:326|192:320,2,94.499997116089,0|0|0,2:0|2:0|2:0,2:0:0:0:
318,132,106520,1,8,0:0:0:0:
318,132,106609,1,8,0:0:0:0:
318,132,106697,5,12,0:0:0:0:
255,206,106873,1,2,0:0:0:0:
206,101,107050,5,12,0:0:0:0:
331,246,107226,1,2,0:0:0:0:
154,188,107403,5,12,0:0:0:0:
278,38,107579,1,2,0:0:0:0:
282,311,107756,1,8,0:0:0:0:
91,113,107932,6,0,L|84:6,1,105,12|0,0:0|0:0,0:0:0:0:
0,135,108285,1,8,0:0:0:0:
2,176,108373,1,8,0:0:0:0:
5,218,108462,2,0,L|11:322,1,105,14|0,0:0|0:0,0:0:0:0:
170,241,108814,2,0,P|145:178|91:158,1,105,2|0,0:0|0:0,0:0:0:0:
113,314,109167,2,0,P|193:332|254:282,1,157.5,8|0,0:0|0:0,0:0:0:0:
249,289,109520,6,0,P|275:344|335:364,1,105,6|0,0:0|0:0,0:0:0:0:
369,166,109873,1,8,0:0:0:0:
275,203,110050,1,0,0:0:0:0:
448,197,110226,2,0,P|438:117|406:88,1,105,2|2,0:0|0:0,0:0:0:0:
386,261,110579,2,0,P|462:283|501:260,1,105,8|0,0:0|0:0,0:0:0:0:
245,120,110932,6,0,L|133:130,1,105,6|0,0:0|0:0,0:0:0:0:
16,266,111285,2,0,L|62:163,1,105,8|0,0:0|0:0,0:0:0:0:
3,6,111638,2,0,L|68:97,1,105,2|2,0:0|0:0,0:0:0:0:
237,207,111991,2,0,P|301:186|329:118,1,105,8|0,0:0|0:0,0:0:0:0:
140,130,112344,6,0,L|152:299,1,157.5,6|0,0:0|0:0,0:0:0:0:
118,353,112697,2,0,L|125:248,1,105,8|0,0:0|0:0,0:0:0:0:
244,161,113050,2,0,L|256:330,1,157.5,6|0,0:0|0:0,0:0:0:0:
222,384,113403,2,0,L|229:279,1,105,8|0,0:0|0:0,0:0:0:0:
368,231,113756,6,0,L|360:335,1,105,6|0,0:0|0:0,0:0:0:0:
455,222,114109,2,0,P|426:164|373:143,1,105,8|0,0:0|0:0,0:0:0:0:
368,231,114462,1,2,0:0:0:0:
477,60,114638,1,8,0:0:0:0:
477,60,114726,1,8,0:0:0:0:
477,60,114814,2,0,L|321:66,1,105,8|0,0:0|0:0,0:0:0:0:
218,132,115167,6,0,L|374:138,1,105,6|0,0:0|0:0,0:0:0:0:
175,54,115520,2,0,P|131:115|139:171,1,105,8|0,0:0|0:0,0:0:0:0:
237,231,115873,1,2,0:0:0:0:
218,132,116050,1,2,0:0:0:0:
179,304,116226,2,0,P|234:323|304:296,1,105,8|0,0:0|0:0,0:0:0:0:
97,256,116579,6,0,B|84:368,1,105,6|0,0:0|0:0,0:0:0:0:
24,209,116932,2,0,P|84:171|126:175,1,105,8|0,0:0|0:0,0:0:0:0:
158,187,117197,1,2,0:0:0:0:
204,214,117285,1,2,0:0:0:0:
251,221,117373,1,2,0:0:0:0:
289,214,117461,1,2,0:0:0:0:
320,198,117549,1,2,0:0:0:0:
337,181,117638,6,0,L|329:44,1,118.125004506111,8|0,0:0|0:0,0:0:0:0:
325,17,117991,1,6,0:0:0:0:
227,130,118167,1,2,0:0:0:0:
452,79,118344,1,2,0:0:0:0:
202,45,118520,2,0,L|97:37,1,105,8|0,0:0|0:0,0:0:0:0:
353,251,118873,2,0,L|460:245,1,105,8|0,0:0|0:0,0:0:0:0:
248,230,119226,6,0,P|254:303|300:353,1,105,12|0,0:0|0:0,0:0:0:0:
375,154,119579,1,8,0:0:0:0:
343,130,119667,1,8,0:0:0:0:
305,121,119755,1,8,0:0:0:0:
267,129,119843,1,2,0:0:0:0:
235,151,119932,2,0,P|209:197|209:240,1,52.5,2|2,0:0|0:0,0:0:0:0:
263,43,120109,5,8,0:0:0:0:
216,20,120197,1,8,0:0:0:0:
165,26,120285,1,2,0:0:0:0:
125,59,120373,1,2,0:0:0:0:
109,108,120462,2,0,L|119:270,1,157.5,6|2,0:0|0:0,0:0:0:0:
175,344,120814,6,0,P|215:282|206:225,1,125.999996154785,12|0,0:0|0:0,0:0:0:0:
35,104,121167,1,2,0:0:0:0:
118,265,121344,5,14,0:0:0:0:
178,8,121520,1,2,0:0:0:0:
95,169,121697,5,14,0:0:0:0:
357,191,121873,1,2,0:0:0:0:
125,85,122050,2,0,L|-38:70,1,125.999996154785,12|0,0:0|0:0,0:0:0:0:
321,274,122403,5,2,0:0:0:0:
271,151,122579,1,2,0:0:0:0:
231,259,122756,1,2,0:0:0:0:
364,162,122932,5,2,0:0:0:0:
175,182,123109,1,2,0:0:0:0:
306,363,123285,1,2,0:0:0:0:
330,69,123462,1,2,0:0:0:0:
175,182,123814,5,2,0:0:0:0:
160,222,123902,1,2,0:0:0:0:
161,267,123990,1,10,0:0:0:0:
181,306,124078,1,10,0:0:0:0:
213,336,124166,1,2,0:0:0:0:
338,154,124344,5,8,0:0:0:0:
114,90,124520,1,2,0:0:0:0:
306,363,124697,5,8,0:0:0:0:
433,38,124873,1,2,0:0:0:0:
235,151,125381,6,0,L|230:89,2,41.9999987182618,0|0|0,2:0|2:0|2:0,0:0:0:0:
256,192,125557,12,0,130675,0:0:0:0:
