osu file format v14

[General]
AudioFilename: audio.mp3
AudioLeadIn: 0
PreviewTime: 80226
Countdown: 0
SampleSet: Normal
StackLeniency: 0.7
Mode: 0
LetterboxInBreaks: 0
WidescreenStoryboard: 1

[Editor]
DistanceSpacing: 1.2
BeatDivisor: 4
GridSize: 32
TimelineZoom: 1.7

[Metadata]
Title:HAPPY PARTY TRAIN
TitleUnicode:HAPPY PARTY TRAIN
Artist:Aqours
ArtistUnicode:Aqours
Creator:- Tatan -
Version:Hard
Source:ラブライブ!サンシャイン!!
Tags:3rd Single Love Live! Sunshine!! Second Live School Idol Project Single Crissa [-Crissaegrim-] TheShadowOfDark Chika Takami You Watanabe Riko Sakurauchi Hanamaru Kunikida Yoshiko Tsushima Ruby Dia Kurosawa Mari Ohara Kanan Matsuura Ai Furihata Aika Kobayashi Aina Suzuki Anju Inami Arisa Komiya Kanako Takatsuki Nanaka Suwa Rikako Aida Shuka Saito 伊波杏樹 逢田梨香子 諏訪ななか 小宮有紗 斉藤朱夏 小林愛香 高槻かなこ 鈴木愛奈 降幡愛
BeatmapID:1489051
BeatmapSetID:676193

[Difficulty]
HPDrainRate:6
CircleSize:3.3
OverallDifficulty:7
ApproachRate:8
SliderMultiplier:1
SliderTickRate:1

[Events]
//Background and Video events
0,0,"67930986_p0.jpg",0,0
//Break Periods
//Storyboard Layer 0 (Background)
//Storyboard Layer 1 (Fail)
//Storyboard Layer 2 (Pass)
//Storyboard Layer 3 (Foreground)
//Storyboard Sound Samples

[TimingPoints]
815,352.941176470588,4,1,1,55,1,0
9285,-83.3333333333333,4,1,1,55,0,0
9991,-83.3333333333333,4,1,1,75,0,0
10697,-83.3333333333333,4,1,1,75,0,0
11403,-76.9230769230769,4,1,1,75,0,0
12020,-76.9230769230769,4,1,1,5,0,0
12108,-76.9230769230769,4,1,1,75,0,0
12462,-76.9230769230769,4,1,1,75,0,0
13520,-76.9230769230769,4,1,1,75,0,0
15197,-76.9230769230769,4,1,1,5,0,0
15285,-76.9230769230769,4,1,1,75,0,0
15903,-76.9230769230769,4,1,1,5,0,0
15991,-76.9230769230769,4,1,1,75,0,0
16697,-76.9230769230769,4,1,1,75,0,0
18109,-76.9230769230769,4,1,1,75,0,0
19167,-76.9230769230769,4,1,1,75,0,0
19873,-76.9230769230769,4,1,1,65,0,0
20579,-71.4285714285714,4,1,1,75,0,0
22167,-71.4285714285714,4,1,1,75,0,0
23403,-71.4285714285714,4,1,1,75,0,0
39020,-71.4285714285714,4,1,1,75,0,0
43167,-71.4285714285714,4,1,1,80,0,0
43520,-66.6666666666667,4,1,1,80,0,0
43873,-66.6666666666667,4,1,1,85,0,0
44226,-66.6666666666667,4,1,1,85,0,0
44579,-66.6666666666667,4,1,1,75,0,0
45991,-66.6666666666667,4,1,1,85,0,0
57550,-66.6666666666667,4,1,1,5,0,0
57638,-66.6666666666667,4,1,1,85,0,0
67167,-66.6666666666667,4,1,1,85,0,0
67432,-66.6666666666667,4,1,1,5,0,0
67520,-66.6666666666667,4,1,1,75,0,0
67785,-66.6666666666667,4,1,1,5,0,0
67873,-66.6666666666667,4,1,1,75,0,0
68138,-66.6666666666667,4,1,1,5,0,0
68226,-66.6666666666667,4,1,1,90,0,0
69109,-66.6666666666667,4,1,1,75,0,0
75638,-66.6666666666667,4,1,1,85,0,0
77403,-62.5,4,1,1,85,0,0
78462,-62.5,4,1,1,50,0,0
78814,-62.5,4,1,1,75,0,0
79167,-62.5,4,1,1,95,0,0
79873,-62.5,4,1,1,100,0,0
81285,-62.5,4,1,1,90,0,1
83667,-62.5,4,1,1,5,0,1
83756,-62.5,4,1,1,90,0,1
84373,-62.5,4,1,1,5,0,1
84462,-62.5,4,1,1,90,0,1
85079,-62.5,4,1,1,5,0,1
85167,-62.5,4,1,1,90,0,1
86844,-62.5,4,1,1,5,0,1
86932,-62.5,4,1,1,90,0,1
89314,-62.5,4,1,1,5,0,1
89403,-62.5,4,1,1,90,0,1
100167,-60.6060606060606,4,1,1,90,0,1
102285,-60.6060606060606,4,1,1,60,0,1
102638,-60.6060606060606,4,1,1,50,0,1
103344,-60.6060606060606,4,1,1,50,0,1
103873,-133.333333333333,4,1,1,50,0,0
106520,-76.9230769230769,4,1,1,50,0,0
107050,-76.9230769230769,4,1,1,60,0,0
107403,-76.9230769230769,4,1,1,70,0,0
112609,-76.9230769230769,4,1,1,5,0,0
112697,-76.9230769230769,4,1,1,70,0,0
113314,-76.9230769230769,4,1,1,5,0,0
113402,-76.9230769230769,4,1,1,70,0,0
125381,352.941176470588,4,1,1,60,1,0
125381,-166.666666666667,4,1,1,60,0,0
126086,-166.666666666667,4,1,1,50,0,0
127145,-166.666666666667,4,1,1,40,0,0
127498,-166.666666666667,4,1,1,30,0,0
128204,-166.666666666667,4,1,1,20,0,0
129263,-166.666666666667,4,1,1,10,0,0
130675,-166.666666666667,4,1,1,5,0,0

[Colours]
Combo1 : 36,146,255
Combo2 : 128,128,255
Combo3 : 128,255,255
Combo4 : 0,255,255

[HitObjects]
21,137,815,6,0,B|86:144|139:96|139:96|95:165|111:257|160:310,1,350,0|0,2:0|2:0,0:0:0:0:
155,303,2226,2,0,B|249:336|322:270|322:270|396:204|489:237,1,350,0|0,2:0|2:0,0:0:0:0:
480,234,3638,6,0,B|442:177|367:183|367:183|269:188|250:131|267:85|287:66|341:71|354:101,1,350,0|0,2:0|2:0,0:0:0:0:
339,85,5050,2,0,P|364:132|198:208,1,300,0|0,2:0|2:0,0:0:0:0:
150,84,6462,6,0,P|228:74|267:90,1,100,4|0,0:0|0:0,0:0:0:0:
201,212,7167,2,0,P|152:220|104:207,1,100,0|0,0:0|0:0,0:0:0:0:
37,84,7873,2,0,B|32:34,2,50,0|0|0,0:0|0:0|0:0,0:0:0:0:
104,207,8579,2,0,B|99:257,2,50,0|0|0,0:0|0:0|0:0,0:0:0:0:
138,41,9285,6,0,P|189:66|213:108,1,59.9999981689454,8|2,0:0|0:0,0:0:0:0:
269,38,9638,2,0,P|272:96|248:137,1,59.9999981689454,8|2,0:0|0:0,0:0:0:0:
341,147,9991,2,0,P|292:179|244:179,1,59.9999981689454,8|2,0:0|0:0,0:0:0:0:
284,263,10344,2,0,P|231:238|208:195,1,59.9999981689454,8|2,0:0|0:0,0:0:0:0:
196,160,10697,1,8,0:0:0:0:
190,67,11403,6,0,L|187:25,2,32.4999985122681,10|10|2,0:0|0:0|0:0,0:0:0:0:
133,129,11756,2,0,P|202:151|237:138,1,97.4999955368044,8|0,0:0|0:0,0:0:0:0:
262,126,12109,6,0,L|251:270,1,129.999994049073,4|8,0:0|0:0,0:0:0:0:
296,342,12638,1,0,0:0:0:0:
388,373,12814,2,0,P|379:290|325:253,1,129.999994049073,2|8,0:0|0:0,0:0:0:0:
252,255,13344,1,0,0:0:0:0:
161,289,13520,6,0,P|112:302|78:294,1,64.9999970245363,2|0,0:0|0:0,0:0:0:0:
117,204,13873,2,0,P|68:190|42:166,1,64.9999970245363,8|0,0:0|0:0,0:0:0:0:
118,106,14226,2,0,P|149:100|181:106,1,64.9999970245363,2|0,0:0|0:0,0:0:0:0:
196,12,14579,2,0,P|226:22|250:44,1,64.9999970245363,8|0,0:0|0:0,0:0:0:0:
311,120,14932,6,0,L|431:118,1,97.4999955368044,6|0,0:0|0:0,0:0:0:0:
457,117,15285,2,0,P|468:149|466:193,1,64.9999970245363,8|0,0:0|0:0,0:0:0:0:
393,242,15638,2,0,L|273:240,1,97.4999955368044,2|0,0:0|0:0,0:0:0:0:
247,239,15991,2,0,P|236:271|238:315,1,64.9999970245363,8|0,0:0|0:0,0:0:0:0:
162,366,16344,6,0,P|147:301|161:220,1,129.999994049073,6|8,0:0|0:0,0:0:0:0:
199,151,16873,1,0,0:0:0:0:
247,239,17050,1,2,0:0:0:0:
295,154,17226,1,8,0:0:0:0:
295,154,17314,1,8,0:0:0:0:
295,154,17403,2,0,P|297:95|290:60,1,64.9999970245363,8|0,0:0|0:0,0:0:0:0:
220,26,17756,6,0,L|67:31,1,129.999994049073,6|8,0:0|0:0,0:0:0:0:
28,106,18285,1,0,0:0:0:0:
99,172,18462,2,0,P|124:228|93:311,1,129.999994049073,2|8,0:0|0:0,0:0:0:0:
26,238,18991,1,0,0:0:0:0:
99,172,19167,6,0,L|177:168,1,64.9999970245363,2|0,0:0|0:0,0:0:0:0:
233,100,19520,1,8,0:0:0:0:
302,169,19697,1,0,0:0:0:0:
302,169,19785,1,0,0:0:0:0:
302,169,19873,2,0,P|318:260|300:321,1,129.999994049073,2|8,0:0|0:0,0:0:0:0:
233,100,20579,6,0,P|290:70|360:89,1,139.999995727539,6|8,0:0|0:0,0:0:0:0:
426,172,21109,2,0,P|459:122|461:81,1,69.9999978637696,2|0,0:0|0:0,0:0:0:0:
329,189,21462,2,0,P|341:221|363:247,1,69.9999978637696,2|0,0:0|0:0,0:0:0:0:
443,343,21814,6,0,P|375:326|354:331,1,69.9999978637696,12|0,0:0|0:0,0:0:0:0:
285,355,22167,1,8,0:0:0:0:
285,355,22256,1,8,0:0:0:0:
285,355,22344,2,0,L|213:358,1,69.9999978637696,8|2,0:0|0:0,0:0:0:0:
178,238,22697,2,0,L|106:235,1,69.9999978637696,8|2,0:0|0:0,0:0:0:0:
34,310,23050,1,2,0:0:0:0:
145,109,23403,6,0,P|84:77|18:96,1,139.999995727539,4|0,2:0|2:0,0:0:0:0:
78,174,23932,1,4,2:0:0:0:
78,174,24109,2,0,L|84:259,1,69.9999978637696,0|0,2:0|0:0,0:0:0:0:
136,326,24462,1,0,2:0:0:0:
188,243,24638,1,0,2:0:0:0:
188,243,24726,1,0,2:0:0:0:
188,243,24814,2,0,L|192:173,1,69.9999978637696,4|0,2:0|2:0,0:0:0:0:
288,150,25167,6,0,L|278:289,2,139.999995727539,0|0|0,2:0|2:0|2:0,2:2:0:0:
232,68,26050,1,0,2:0:0:0:
232,68,26226,6,0,P|289:50|362:86,1,139.999995727539,4|0,2:0|2:0,0:0:0:0:
431,150,26756,2,0,L|425:231,1,69.9999978637696,4|0,2:0|2:0,0:0:0:0:
332,249,27109,2,0,L|336:179,1,69.9999978637696,0|0,2:0|2:0,0:0:0:0:
426,219,27462,2,0,P|417:302|358:347,1,139.999995727539,0|0,2:0|2:0,0:0:0:0:
294,328,27991,1,0,2:0:0:0:
332,249,28167,1,4,2:0:0:0:
3,260,28697,5,0,2:0:0:0:
85,274,28873,1,0,2:0:0:0:
83,189,29050,6,0,L|57:36,1,139.999995727539,4|0,2:0|2:0,0:0:0:0:
151,92,29579,2,0,B|168:196|168:196|155:256,1,139.999995727539,4|0,2:0|2:0,0:0:0:0:
239,289,30109,2,0,B|253:220|253:220,1,69.9999978637696,0|0,2:0|2:0,0:0:0:0:
349,198,30462,6,0,B|326:300|326:300|336:361,1,139.999995727539,4|0,2:0|2:0,0:0:0:0:
421,295,30991,2,0,B|435:226,1,69.9999978637696,4|0,2:0|2:0,0:0:0:0:
498,150,31344,2,0,B|483:81,1,69.9999978637696,0|0,2:0|2:0,0:0:0:0:
402,137,31697,6,0,B|351:162|300:137|300:137|249:111|198:137,1,209.999993591309,0|0,2:0|2:0,0:0:0:0:
105,164,32403,2,0,L|47:158,2,34.9999989318848,4|0|0,2:0|2:0|2:0,0:0:0:0:
152,258,32756,1,0,2:0:0:0:
152,258,32932,2,0,L|80:251,1,69.9999978637696,0|0,2:0|2:0,0:0:0:0:
139,343,33285,5,4,2:0:0:0:
139,343,33462,2,0,L|211:350,1,69.9999978637696,0|0,2:0|2:0,0:0:0:0:
302,321,33814,1,4,2:0:0:0:
318,224,33991,2,0,L|315:124,1,69.9999978637696,0|0,2:0|2:0,0:0:0:0:
402,200,34344,2,0,L|399:269,1,69.9999978637696,0|0,2:0|2:0,0:0:0:0:
482,217,34697,6,0,L|487:43,1,139.999995727539,4|0,2:0|2:0,0:0:0:0:
386,126,35226,2,0,P|281:148|235:115,1,139.999995727539,4|0,2:0|2:0,0:0:0:0:
313,54,35756,1,0,2:0:0:0:
386,126,35932,6,0,B|410:180|410:180|405:352,1,209.999993591309,0|0,2:0|2:0,0:0:0:0:
319,285,36638,1,4,2:0:0:0:
319,285,36814,2,0,L|322:216,1,69.9999978637696,0|0,2:0|2:0,0:0:0:0:
233,257,37167,2,0,L|230:326,1,69.9999978637696,0|0,2:0|2:0,0:0:0:0:
138,290,37520,6,0,L|143:116,1,139.999995727539,4|0,2:0|2:0,0:0:0:0:
238,172,38050,2,0,P|301:178|368:126,1,139.999995727539,4|0,2:0|2:0,0:0:0:0:
279,82,38579,1,0,2:0:0:0:
238,172,38756,6,0,L|239:321,1,139.999995727539,0|0,2:0|2:0,0:0:0:0:
320,367,39285,2,0,L|319:292,1,69.9999978637696,0|4,2:0|2:0,0:0:0:0:
402,245,39638,2,0,L|402:314,1,69.9999978637696,0|0,2:0|2:0,0:0:0:0:
493,278,39991,1,0,2:0:0:0:
493,278,40167,1,0,2:0:0:0:
468,182,40344,6,0,P|407:154|333:183,1,139.999995727539,4|0,2:0|2:0,0:0:0:0:
263,236,40873,2,0,P|242:173|281:98,1,139.999995727539,4|0,2:0|2:0,0:0:0:0:
340,175,41403,2,0,P|359:220|358:252,1,69.9999978637696,0|0,2:0|2:0,0:0:0:0:
309,326,41756,6,0,P|244:336|180:291,1,139.999995727539,4|0,2:0|2:0,0:0:0:0:
226,208,42285,2,0,P|158:198|101:236,1,139.999995727539,4|0,2:0|2:0,0:0:0:0:
17,288,42814,2,0,P|3:241|7:215,1,69.9999978637696,0|0,2:0|2:0,0:0:0:0:
31,126,43167,5,12,0:0:0:0:
122,89,43344,1,0,0:0:0:0:
224,109,43520,2,0,L|238:208,1,75.0000028610231,8|0,0:0|0:0,0:0:0:0:
279,278,43873,5,8,0:0:0:0:
370,315,44050,1,0,0:0:0:0:
472,295,44226,2,0,L|486:196,1,75.0000028610231,8|0,0:0|0:0,0:0:0:0:
391,166,44579,6,0,L|368:327,1,150.000005722046,8|0,0:0|0:0,0:0:0:0:
283,375,45109,1,8,0:0:0:0:
304,166,45462,1,8,0:0:0:0:
171,327,45814,1,8,0:0:0:0:
246,253,45991,6,0,L|241:157,1,75.0000028610231,6|0,0:0|0:0,0:0:0:0:
137,162,46344,2,0,L|140:236,1,75.0000028610231,8|0,0:0|0:0,0:0:0:0:
58,303,46697,1,2,0:0:0:0:
25,206,46873,1,2,0:0:0:0:
49,103,47050,2,0,P|101:64|133:57,1,75.0000028610231,8|0,0:0|0:0,0:0:0:0:
128,164,47403,6,0,L|131:238,1,75.0000028610231,2|0,0:0|0:0,0:0:0:0:
219,180,47756,2,0,L|209:5,2,150.000005722046,8|2|10,0:0|0:0|0:0,0:0:0:0:
261,276,48638,1,0,0:0:0:0:
261,276,48814,6,0,P|307:234|312:137,1,150.000005722046,2|8,0:0|0:0,0:0:0:0:
283,49,49344,2,0,L|385:50,1,75.0000028610231,0|2,0:0|0:0,0:0:0:0:
391,150,49697,2,0,L|316:149,1,75.0000028610231,2|8,0:0|0:0,0:0:0:0:
215,116,50050,6,0,L|50:114,1,150.000005722046,0|0,0:0|0:0,0:0:0:0:
124,201,50579,2,0,L|198:201,1,75.0000028610231,10|2,0:0|0:0,0:0:0:0:
257,289,50932,2,0,L|182:288,1,75.0000028610231,0|0,0:0|0:0,0:0:0:0:
76,289,51285,1,8,0:0:0:0:
76,289,51462,1,0,0:0:0:0:
31,194,51638,6,0,P|35:98|77:55,1,150.000005722046,2|8,0:0|0:0,0:0:0:0:
126,148,52167,2,0,P|214:173|320:133,1,150.000005722046,0|2,0:0|0:0,0:0:0:0:
347,89,52697,1,8,0:0:0:0:
347,89,52873,1,0,0:0:0:0:
391,184,53050,6,0,L|374:339,1,150.000005722046,2|8,0:0|0:0,0:0:0:0:
298,260,53579,2,0,L|306:178,1,75.0000028610231,0|2,0:0|0:0,0:0:0:0:
218,190,53932,2,0,L|210:264,1,75.0000028610231,2|8,0:0|0:0,0:0:0:0:
359,89,54285,6,0,B|304:61|249:89|249:89|194:116|139:89,1,225.000008583069,0|8,0:0|0:0,0:0:0:0:
32,96,54991,1,0,0:0:0:0:
32,96,55079,1,0,0:0:0:0:
32,96,55167,6,0,P|26:140|38:191,1,75.0000028610231,2|2,0:0|0:0,0:0:0:0:
31,275,55520,2,0,P|70:294|122:301,1,75.0000028610231,8|0,0:0|0:0,0:0:0:0:
177,372,55873,2,0,P|209:341|233:295,1,75.0000028610231,2|0,0:0|0:0,0:0:0:0:
258,215,56226,1,8,0:0:0:0:
199,127,56403,1,0,0:0:0:0:
162,225,56579,5,2,0:0:0:0:
225,315,56756,1,8,0:0:0:0:
225,315,56844,1,8,0:0:0:0:
225,315,56932,2,0,L|299:313,1,75.0000028610231,8|0,0:0|0:0,0:0:0:0:
337,222,57285,6,0,L|189:226,1,112.500004291535,6|0,0:0|0:0,0:0:0:0:
175,227,57638,1,8,0:0:0:0:
185,130,57814,2,0,P|247:81|332:97,1,150.000005722046,0|2,0:0|0:0,0:0:0:0:
400,132,58344,1,8,0:0:0:0:
494,108,58520,6,0,L|480:274,1,150.000005722046
465,355,59050,1,8,0:0:0:0:
465,355,59226,1,0,0:0:0:0:
389,293,59403,2,0,P|354:278|317:276,1,75.0000028610231,2|2,0:0|0:0,0:0:0:0:
242,338,59756,2,0,P|188:355|152:352,1,75.0000028610231,8|0,0:0|0:0,0:0:0:0:
98,287,60109,6,0,P|81:215|107:133,1,150.000005722046,2|8,0:0|0:0,0:0:0:0:
168,73,60638,2,0,B|222:45|276:73|276:73|331:100|385:73,1,225.000008583069,0|8,0:0|0:0,0:0:0:0:
471,29,61344,6,0,P|480:96|426:165,1,150.000005722046
362,226,61873,2,0,P|336:169|337:144,1,75.0000028610231,8|0,0:0|0:0,0:0:0:0:
326,57,62226,2,0,P|362:63|394:83,1,75.0000028610231,2|2,0:0|0:0,0:0:0:0:
474,170,62579,2,0,L|465:256,1,75.0000028610231,8|0,0:0|0:0,0:0:0:0:
378,312,62932,6,0,P|289:325|213:300,1,150.000005722046,6|8,0:0|0:0,0:0:0:0:
145,241,63462,2,0,P|138:165|160:74,2,150.000005722046,2|2|2,0:0|0:0|0:0,0:0:0:0:
98,352,64344,6,0,P|172:353|233:311,1,150.000005722046,2|8,0:0|0:0,0:0:0:0:
293,234,64873,2,0,P|393:244|449:211,1,150.000005722046,0|2,0:0|0:0,0:0:0:0:
445,130,65403,1,8,0:0:0:0:
445,130,65579,1,0,0:0:0:0:
346,139,65756,6,0,L|352:62,1,75.0000028610231,6|0,0:0|0:0,0:0:0:0:
254,134,66109,2,0,L|260:57,1,75.0000028610231,8|0,0:0|0:0,0:0:0:0:
162,129,66462,2,0,L|167:65,2,37.5000014305115,10|10|2,0:0|0:0|0:0,0:0:0:0:
74,127,66814,1,8,0:0:0:0:
74,127,67167,38,0,P|117:88|186:92,1,112.500004291535,2|0,0:0|0:0,0:0:0:0:
169,85,67520,2,0,P|233:93|287:64,1,112.500004291535,2|0,0:0|0:0,0:0:0:0:
275,74,67873,2,0,P|326:53|381:63,1,112.500004291535,2|0,0:0|0:0,0:0:0:0:
381,63,68226,6,0,B|415:96|415:160|415:160|351:128|286:160|286:160|221:193|148:168,1,375.000014305115,6|12,0:0|0:0,0:0:0:0:
62,118,69638,6,0,P|47:161|113:271,2,150.000005722046,8|2|2,0:0|0:0|0:0,0:0:0:0:
128,32,70520,2,0,L|285:25,1,150.000005722046,8|2,0:0|0:0,0:0:0:0:
380,33,71050,1,8,0:0:0:0:
341,122,71226,1,0,0:0:0:0:
438,115,71403,6,0,L|425:277,1,150.000005722046,6|2,0:0|0:0,0:0:0:0:
411,361,71932,1,0,0:0:0:0:
411,361,72109,2,0,P|341:338|251:361,1,150.000005722046,8|0,0:0|0:0,0:0:0:0:
171,371,72638,1,2,0:0:0:0:
171,371,72726,1,2,0:0:0:0:
171,371,72814,6,0,L|155:280,1,75.0000028610231,6|2,0:0|0:0,0:0:0:0:
236,238,73167,2,0,L|248:311,2,75.0000028610231,2|2|10,0:0|0:0|0:0,0:0:0:0:
285,152,73697,1,2,0:0:0:0:
347,226,73873,2,0,L|341:337,1,75.0000028610231,4|0,0:0|0:0,0:0:0:0:
440,261,74226,6,0,P|441:191|381:131,1,150.000005722046,4|2,0:0|0:0,0:0:0:0:
284,117,74756,2,0,L|134:103,1,150.000005722046,8|0,0:0|0:0,0:0:0:0:
30,90,75285,1,8,0:0:0:0:
139,269,75638,6,0,P|168:177|144:122,1,150.000005722046,4|2,0:0|0:0,0:0:0:0:
67,195,76167,2,0,L|216:208,1,150.000005722046,8|0,0:0|0:0,0:0:0:0:
322,209,76697,1,2,0:0:0:0:
269,299,76873,1,2,0:0:0:0:
216,208,77050,5,8,0:0:0:0:
264,115,77226,2,0,L|269:7,2,75.0000028610231,2|8|2,0:0|0:0|0:0,0:0:0:0:
322,209,77756,1,8,0:0:0:0:
370,116,77932,2,0,L|375:8,2,80,2|8|2,0:0|0:0|0:0,0:0:0:0:
427,213,78462,5,12,0:0:0:0:
387,296,78638,1,2,0:0:0:0:
297,318,78814,1,12,0:0:0:0:
221,266,78991,1,2,0:0:0:0:
141,202,79167,1,12,0:0:0:0:
43,225,79343,1,2,0:0:0:0:
0,317,79519,1,12,0:0:0:0:
83,378,79697,1,2,0:0:0:0:
150,303,79873,5,12,0:0:0:0:
150,303,80050,1,8,0:0:0:0:
150,303,80226,1,8,0:0:0:0:
153,106,81285,6,0,L|263:92,1,80,6|0,0:0|0:0,0:0:0:0:
328,64,81638,2,0,P|330:123|309:163,1,80,8|0,0:0|0:0,0:0:0:0:
273,230,81991,2,0,P|263:342|301:384,1,160,2|8,0:0|0:0,0:0:0:0:
350,294,82520,1,0,0:0:0:0:
419,220,82697,2,0,L|425:114,1,80
429,39,83050,1,8,0:0:0:0:
429,39,83226,1,0,0:0:0:0:
340,87,83403,6,0,P|278:114|225:108,1,120,2|0,0:0|0:0,0:0:0:0:
179,90,83756,2,0,P|130:81|95:89,1,80,12|0,0:0|0:0,0:0:0:0:
43,169,84109,2,0,P|34:227|61:306,1,120,2|0,0:0|0:0,0:0:0:0:
88,318,84462,2,0,P|133:333|179:323,1,80,12|0,0:0|0:0,0:0:0:0:
254,283,84814,2,0,P|306:260|391:285,1,120,2|0,0:0|0:0,0:0:0:0:
409,296,85167,1,12,0:0:0:0:
427,196,85344,6,0,P|429:126|375:38,1,160,0|0,0:0|0:0,0:0:0:0:
289,23,85873,2,0,L|280:118,1,80,12|2,0:0|0:0,0:0:0:0:
261,201,86226,1,2,0:0:0:0:
160,192,86403,1,10,0:0:0:0:
141,194,86491,1,0,0:0:0:0:
123,198,86579,2,0,P|112:267|127:313,1,120,14|0,0:0|0:0,0:0:0:0:
160,352,86932,6,0,B|224:320|288:352|288:352|352:384|416:352,1,240,2|0,0:0|0:0,0:0:0:0:
490,339,87638,2,0,P|461:289|414:262,1,80,2|0,0:0|0:0,0:0:0:0:
350,236,87991,1,12,0:0:0:0:
261,201,88167,6,0,P|234:147|267:53,1,160,0|0,0:0|0:0,0:0:0:0:
333,129,88697,1,12,0:0:0:0:
333,129,88873,1,0,0:0:0:0:
350,236,89050,2,0,P|316:286|243:298,1,120,2|0,0:0|0:0,0:0:0:0:
212,285,89403,1,12,0:0:0:0:
111,110,89756,6,0,L|89:281,1,160,8|0,0:0|0:0,0:0:0:0:
9,208,90285,1,2,0:0:0:0:
17,107,90462,2,0,P|49:41|140:23,1,160,12|0,0:0|0:0,0:0:0:0:
335,104,91167,6,0,L|352:195,1,80,8|0,0:0|0:0,0:0:0:0:
244,257,91520,2,0,L|258:178,1,80,8|0,0:0|0:0,0:0:0:0:
327,266,91873,1,8,0:0:0:0:
153,291,92226,6,0,L|184:122,1,160,4|0,0:0|0:0,0:0:0:0:
202,30,92756,1,0,0:0:0:0:
328,14,92932,1,8,0:0:0:0:
328,14,93109,1,2,0:0:0:0:
406,110,93285,2,0,P|412:159|392:214,1,80,12|0,0:0|0:0,0:0:0:0:
456,279,93638,2,0,P|408:294|351:283,1,80,8|0,0:0|0:0,0:0:0:0:
301,362,93991,6,0,P|277:317|278:259,1,80,12|0,0:0|0:0,0:0:0:0:
188,229,94344,2,0,P|227:198|285:189,1,80,8|0,0:0|0:0,0:0:0:0:
308,99,94697,2,0,P|345:132|364:187,1,80,12|0,0:0|0:0,0:0:0:0:
454,199,95050,2,0,P|427:241|376:269,1,80,8|0,0:0|0:0,0:0:0:0:
388,362,95403,6,0,P|341:343|304:297,1,80,12|0,0:0|0:0,0:0:0:0:
215,325,95756,2,0,P|225:276|263:232,1,80,8|0,0:0|0:0,0:0:0:0:
312,175,96109,2,0,P|335:118|316:42,2,120,12|8|0,0:0|0:0|0:0,0:0:0:0:
233,107,96814,6,0,P|166:92|84:137,1,160,6|8,0:0|0:0,0:0:0:0:
53,231,97344,2,0,L|60:317,1,80,2|0,0:0|0:0,0:0:0:0:
144,249,97697,2,0,L|151:335,1,80,8|0,0:0|0:0,0:0:0:0:
246,286,98050,1,2,0:0:0:0:
273,185,98226,6,0,P|334:230|345:312,2,160,6|8|2,0:0|0:0|0:0,0:0:0:0:
168,178,99109,1,2,0:0:0:0:
228,93,99285,2,0,L|338:83,1,80,8|0,0:0|0:0,0:0:0:0:
245,2,99638,6,0,P|178:14|134:92,1,160,6|8,0:0|0:0,0:0:0:0:
168,178,100167,2,0,B|232:210|296:178|296:178|360:146|424:178,1,247.500002360344,0|12,0:0|0:0,0:0:0:0:
493,242,101050,6,0,P|444:274|334:258,1,165.000001573563,8|2,0:0|0:0,0:0:0:0:
406,170,101579,1,8,0:0:0:0:
242,254,101932,1,8,0:0:0:0:
228,215,102108,1,2,0:0:0:0:
231,174,102284,1,8,0:0:0:0:
148,248,102638,5,8,0:0:0:0:
137,220,102814,1,8,0:0:0:0:
140,190,102990,1,8,0:0:0:0:
52,241,103344,1,2,0:0:0:0:
54,218,103520,1,2,0:0:0:0:
175,172,103873,6,0,L|10:195,1,150.000005722046,0|0,2:0|2:0,2:0:0:0:
55,94,104932,1,0,2:0:0:0:
154,67,105285,6,0,P|211:71|261:112,2,112.500004291535,0|0|0,2:0|2:0|2:0,2:0:0:0:
175,172,106520,5,8,0:0:0:0:
175,172,106609,1,8,0:0:0:0:
175,172,106697,2,0,L|185:260,1,64.9999970245363,12|2,0:0|0:0,0:0:0:0:
258,175,107050,2,0,L|268:263,1,64.9999970245363,12|2,0:0|0:0,0:0:0:0:
341,178,107403,2,0,L|351:266,1,64.9999970245363,12|2,0:0|0:0,0:0:0:0:
431,191,107756,1,8,0:0:0:0:
442,287,107932,6,0,P|411:326|271:314,1,194.999991073609,12|14,0:0|0:0,0:0:0:0:
269,223,108638,1,0,0:0:0:0:
186,274,108814,2,0,P|176:318|183:357,1,64.9999970245363,2|0,0:0|0:0,0:0:0:0:
286,384,109167,2,0,P|286:351|277:320,1,64.9999970245363,8|0,0:0|0:0,0:0:0:0:
186,274,109520,6,0,P|169:207|180:142,1,129.999994049073,6|8,0:0|0:0,0:0:0:0:
238,70,110050,1,0,0:0:0:0:
307,137,110226,2,0,P|359:162|443:133,1,129.999994049073,2|8,0:0|0:0,0:0:0:0:
373,64,110756,1,0,0:0:0:0:
307,137,110932,6,0,P|294:179|299:216,1,64.9999970245363,6|0,0:0|0:0,0:0:0:0:
374,256,111285,2,0,P|387:298|382:335,1,64.9999970245363,8|0,0:0|0:0,0:0:0:0:
304,372,111638,2,0,P|273:383|241:384,1,64.9999970245363,2|2,0:0|0:0,0:0:0:0:
185,305,111991,2,0,P|154:293|122:292,1,64.9999970245363,8|0,0:0|0:0,0:0:0:0:
43,350,112344,6,0,P|23:289|41:234,1,97.4999955368044,6|0,0:0|0:0,0:0:0:0:
51,214,112697,2,0,P|65:173|62:139,1,64.9999970245363,8|0,0:0|0:0,0:0:0:0:
5,73,113050,2,0,P|70:57|113:69,1,97.4999955368044,6|0,0:0|0:0,0:0:0:0:
144,81,113403,2,0,P|195:91|232:77,1,64.9999970245363,8|0,0:0|0:0,0:0:0:0:
256,4,113756,6,0,L|249:142,1,129.999994049073,6|8,0:0|0:0,0:0:0:0:
277,227,114285,1,0,0:0:0:0:
331,146,114462,1,2,0:0:0:0:
371,234,114638,1,8,0:0:0:0:
371,234,114726,1,8,0:0:0:0:
371,234,114814,2,0,P|377:283|373:328,1,64.9999970245363,8|0,0:0|0:0,0:0:0:0:
290,344,115167,6,0,L|142:338,1,129.999994049073,6|8,0:0|0:0,0:0:0:0:
73,292,115697,1,0,0:0:0:0:
12,215,115873,2,0,P|-6:142|9:84,1,129.999994049073,2|8,0:0|0:0,0:0:0:0:
85,31,116403,1,0,0:0:0:0:
169,78,116579,6,0,L|252:75,1,64.9999970245363,6|0,0:0|0:0,0:0:0:0:
309,13,116932,1,8,0:0:0:0:
375,84,117109,1,0,0:0:0:0:
375,84,117197,1,2,0:0:0:0:
375,84,117285,2,0,P|389:148|372:233,1,129.999994049073,2|8,0:0|0:0,0:0:0:0:
219,311,117991,6,0,L|70:323,1,129.999994049073,6|2,0:0|0:0,0:0:0:0:
53,244,118520,2,0,L|117:238,1,64.9999970245363,8|0,0:0|0:0,0:0:0:0:
84,160,118873,2,0,L|148:154,1,64.9999970245363,8|0,0:0|0:0,0:0:0:0:
116,76,119226,6,0,L|245:65,1,129.999994049073,12|8,0:0|0:0,0:0:0:0:
348,52,119756,2,0,P|368:88|366:131,1,64.9999970245363,8|2,0:0|0:0,0:0:0:0:
298,178,120109,2,0,P|278:214|280:257,1,64.9999970245363,8|2,0:0|0:0,0:0:0:0:
354,295,120462,1,6,0:0:0:0:
161,319,120814,6,0,L|11:307,1,129.999994049073,12|2,0:0|0:0,0:0:0:0:
7,226,121344,2,0,L|71:230,1,64.9999970245363,14|2,0:0|0:0,0:0:0:0:
51,148,121697,2,0,L|115:152,1,64.9999970245363,14|2,0:0|0:0,0:0:0:0:
96,70,122050,6,0,L|232:80,1,129.999994049073,12|2,0:0|0:0,0:0:0:0:
303,47,122579,2,0,P|308:98|296:127,1,64.9999970245363,2|2,0:0|0:0,0:0:0:0:
258,181,122932,2,0,P|253:232|265:261,1,64.9999970245363,2|2,0:0|0:0,0:0:0:0:
319,310,123285,1,2,0:0:0:0:
319,310,123373,1,2,0:0:0:0:
319,310,123462,6,0,P|262:334|193:304,1,129.999994049073,2|2,0:0|0:0,0:0:0:0:
125,260,123991,2,0,P|109:308|140:385,2,129.999994049073,10|8|8,0:0|0:0|0:0,0:0:0:0:
168,172,124873,1,2,0:0:0:0:
168,172,125498,6,12,B|105:163|63:207|63:207|56:268|56:268|98:310|98:310|158:318|203:275|203:275|246:230|246:230|288:188|288:188|331:143|331:143|374:100|434:107|434:107|478:150|478:150|469:211|469:211|427:255|366:246,1,879.999973144532,0|0,0:0|2:0,0:0:0:0:
