osu file format v14

[General]
AudioFilename: audio.mp3
AudioLeadIn: 0
PreviewTime: 80226
Countdown: 0
SampleSet: Soft
StackLeniency: 0.5
Mode: 0
LetterboxInBreaks: 0
WidescreenStoryboard: 1

[Editor]
Bookmarks: 815,6462,12109,23403,45991,67167,81285,92932,103873,106697,109520,120814,125498,130675
DistanceSpacing: 1.8
BeatDivisor: 4
GridSize: 32
TimelineZoom: 2.1

[Metadata]
Title:HAPPY PARTY TRAIN
TitleUnicode:HAPPY PARTY TRAIN
Artist:Aqours
ArtistUnicode:Aqours
Creator:- Tatan -
Version:Crissa's Insane
Source:ラブライブ!サンシャイン!!
Tags:3rd Single Love Live! Sunshine!! Second Live School Idol Project Single Crissa [-Crissaegrim-] TheShadowOfDark Chika Takami You Watanabe Riko Sakurauchi Hanamaru Kunikida Yoshiko Tsushima Ruby Dia Kurosawa Mari Ohara Kanan Matsuura Ai Furihata Aika Kobayashi Aina Suzuki Anju Inami Arisa Komiya Kanako Takatsuki Nanaka Suwa Rikako Aida Shuka Saito 伊波杏樹 逢田梨香子 諏訪ななか 小宮有紗 斉藤朱夏 小林愛香 高槻かなこ 鈴木愛奈 降幡愛
BeatmapID:1431153
BeatmapSetID:676193

[Difficulty]
HPDrainRate:6.5
CircleSize:4
OverallDifficulty:8.4
ApproachRate:9
SliderMultiplier:1.5
SliderTickRate:1

[Events]
//Background and Video events
0,0,"67930986_p0.jpg",0,0
//Break Periods
//Storyboard Layer 0 (Background)
//Storyboard Layer 1 (Fail)
//Storyboard Layer 2 (Pass)
//Storyboard Layer 3 (Foreground)
//Storyboard Sound Samples

[TimingPoints]
815,352.941176470588,4,2,1,20,1,0
6109,-200,4,1,1,25,0,0
6373,-200,4,2,1,5,0,0
6462,-83.3333333333333,4,1,1,35,0,0
9285,-66.6666666666667,4,1,1,30,0,0
9991,-66.6666666666667,4,1,1,40,0,0
10697,-66.6666666666667,4,1,1,50,0,0
11050,-66.6666666666667,4,1,1,5,0,0
11403,-66.6666666666667,4,1,1,50,0,0
12020,-66.6666666666667,4,1,1,5,0,0
12109,-83.3333333333333,4,1,1,50,0,0
12373,-83.3333333333333,4,1,1,5,0,0
12462,-83.3333333333333,4,1,1,50,0,0
12726,-83.3333333333333,4,1,1,5,0,0
12814,-83.3333333333333,4,1,1,50,0,0
13432,-83.3333333333333,4,1,1,5,0,0
13520,-83.3333333333333,4,1,1,50,0,0
13785,-83.3333333333333,4,1,1,5,0,0
13873,-83.3333333333333,4,1,1,50,0,0
15197,-83.3333333333333,4,1,1,5,0,0
15285,-83.3333333333333,4,1,1,50,0,0
15550,-83.3333333333333,4,1,1,5,0,0
15638,-83.3333333333333,4,1,1,50,0,0
16256,-83.3333333333333,4,1,1,5,0,0
16344,-83.3333333333333,4,1,1,50,0,0
16609,-83.3333333333333,4,1,1,5,0,0
16697,-83.3333333333333,4,1,1,50,0,0
18020,-83.3333333333333,4,1,1,5,0,0
18109,-83.3333333333333,4,1,1,50,0,0
18373,-83.3333333333333,4,1,1,5,0,0
18462,-83.3333333333333,4,1,1,50,0,0
19079,-83.3333333333333,4,1,1,5,0,0
19167,-83.3333333333333,4,1,1,50,0,0
19432,-83.3333333333333,4,1,1,5,0,0
19520,-83.3333333333333,4,1,1,50,0,0
20491,-83.3333333333333,4,1,1,5,0,0
20579,-83.3333333333333,4,1,1,50,0,0
21109,-66.6666666666667,4,1,1,50,0,0
23050,-200,4,1,1,20,0,0
23314,-100,4,1,1,5,0,0
23403,-100,4,2,1,35,0,0
44226,-200,4,2,1,40,0,0
44491,-200,4,2,1,5,0,0
44579,-66.6666666666667,4,2,1,50,0,0
44844,-66.6666666666667,4,2,1,5,0,0
44932,-66.6666666666667,4,2,1,50,0,0
45991,-83.3333333333333,4,1,1,45,0,0
49079,-83.3333333333333,4,1,1,5,0,0
49167,-83.3333333333333,4,1,1,45,0,0
50491,-83.3333333333333,4,1,1,5,0,0
50579,-83.3333333333333,4,1,1,45,0,0
51903,-83.3333333333333,4,1,1,5,0,0
51991,-83.3333333333333,4,1,1,45,0,0
53314,-83.3333333333333,4,1,1,5,0,0
53403,-83.3333333333333,4,1,1,45,0,0
54726,-83.3333333333333,4,1,1,5,0,0
54814,-83.3333333333333,4,1,1,45,0,0
56138,-83.3333333333333,4,1,1,5,0,0
56226,-83.3333333333333,4,1,1,45,0,0
57550,-83.3333333333333,4,1,1,5,0,0
57638,-83.3333333333333,4,1,1,45,0,0
58962,-83.3333333333333,4,1,1,5,0,0
59050,-83.3333333333333,4,1,1,45,0,0
60373,-83.3333333333333,4,1,1,5,0,0
60462,-83.3333333333333,4,1,1,45,0,0
61785,-83.3333333333333,4,1,1,5,0,0
61873,-83.3333333333333,4,1,1,45,0,0
62932,-71.4285714285714,4,1,1,45,0,0
63197,-71.4285714285714,4,1,1,5,0,0
63285,-71.4285714285714,4,1,1,45,0,0
64344,-83.3333333333333,4,1,1,45,0,0
64609,-83.3333333333333,4,1,1,5,0,0
64697,-83.3333333333333,4,1,1,45,0,0
65667,-83.3333333333333,4,1,1,5,0,0
65756,-83.3333333333333,4,1,1,45,0,0
67167,-76.9230769230769,4,1,1,45,0,0
67520,-71.4285714285714,4,1,1,50,0,0
67873,-66.6666666666667,4,1,1,55,0,0
68226,-100,4,1,1,55,0,0
68579,-66.6666666666667,4,1,1,45,0,0
69285,-83.3333333333333,4,1,1,45,0,0
74491,-83.3333333333333,4,1,1,5,0,0
74579,-83.3333333333333,4,1,1,45,0,0
75550,-83.3333333333333,4,1,1,5,0,0
75638,-83.3333333333333,4,1,1,45,0,0
75903,-83.3333333333333,4,1,1,5,0,0
75991,-83.3333333333333,4,1,1,45,0,0
77050,-66.6666666666667,4,1,1,45,0,0
78462,-66.6666666666667,4,1,1,55,0,0
79873,-66.6666666666667,4,1,1,65,0,0
80226,-83.3333333333333,4,1,1,65,0,0
80403,-83.3333333333333,4,1,1,40,0,0
80579,-66.6666666666667,4,1,1,60,0,0
80932,-58.8235294117647,4,1,1,50,0,0
81109,-58.8235294117647,4,1,1,5,0,0
81285,-57.1428571428571,4,1,1,65,0,1
81550,-57.1428571428571,4,1,1,5,0,1
81638,-57.1428571428571,4,1,1,65,0,1
84373,-57.1428571428571,4,1,1,5,0,1
84462,-57.1428571428571,4,1,1,65,0,1
87197,-57.1428571428571,4,1,1,5,0,1
87285,-57.1428571428571,4,1,1,65,0,1
90726,-57.1428571428571,4,1,1,5,0,1
90814,-57.1428571428571,4,1,1,65,0,1
91167,-66.6666666666667,4,1,1,65,0,1
91873,-58.8235294117647,4,1,1,65,0,1
92226,-83.3333333333333,4,1,1,65,0,1
92932,-57.1428571428571,4,1,1,65,0,1
97079,-57.1428571428571,4,1,1,5,0,1
97167,-57.1428571428571,4,1,1,65,0,1
97697,-100,4,1,1,65,0,1
98226,-83.3333333333333,4,1,1,65,0,1
98491,-83.3333333333333,4,1,1,5,0,1
98579,-83.3333333333333,4,1,1,65,0,1
99550,-83.3333333333333,4,1,1,5,0,1
99638,-83.3333333333333,4,1,1,65,0,1
100432,-83.3333333333333,4,1,1,5,0,1
100520,-83.3333333333333,4,1,1,65,0,1
100697,-200,4,1,1,65,0,1
100962,-200,4,1,1,5,0,1
101050,-83.3333333333333,4,1,1,65,0,1
102285,-133.333333333333,4,1,1,60,0,1
102550,-133.333333333333,4,1,1,5,0,1
102638,-133.333333333333,4,1,1,60,0,1
102903,-133.333333333333,4,1,1,5,0,1
102991,-133.333333333333,4,1,1,60,0,1
103256,-133.333333333333,4,1,1,5,0,1
103344,-133.333333333333,4,1,1,60,0,1
103520,-100,4,1,1,60,0,1
103873,-100,4,2,1,55,0,0
106697,-83.3333333333333,4,1,1,55,0,0
107932,-66.6666666666667,4,1,1,55,0,0
108197,-66.6666666666667,4,1,1,5,0,0
108285,-66.6666666666667,4,1,1,55,0,0
109167,-83.3333333333333,4,1,1,55,0,0
109432,-83.3333333333333,4,1,1,5,0,0
109520,-83.3333333333333,4,1,1,55,0,0
109785,-83.3333333333333,4,1,1,5,0,0
109873,-83.3333333333333,4,1,1,55,0,0
110138,-83.3333333333333,4,1,1,5,0,0
110226,-83.3333333333333,4,1,1,55,0,0
110844,-83.3333333333333,4,1,1,5,0,0
110932,-83.3333333333333,4,1,1,55,0,0
111197,-83.3333333333333,4,1,1,5,0,0
111285,-83.3333333333333,4,1,1,55,0,0
112256,-83.3333333333333,4,1,1,5,0,0
112344,-83.3333333333333,4,1,1,55,0,0
112609,-83.3333333333333,4,1,1,5,0,0
112697,-83.3333333333333,4,1,1,55,0,0
112962,-83.3333333333333,4,1,1,5,0,0
113050,-83.3333333333333,4,1,1,55,0,0
113314,-83.3333333333333,4,1,1,5,0,0
113402,-83.3333333333333,4,1,1,55,0,0
113667,-83.3333333333333,4,1,1,5,0,0
113755,-83.3333333333333,4,1,1,55,0,0
114020,-83.3333333333333,4,1,1,5,0,0
114108,-83.3333333333333,4,1,1,55,0,0
115432,-83.3333333333333,4,1,1,5,0,0
115520,-83.3333333333333,4,1,1,55,0,0
115785,-83.3333333333333,4,1,1,5,0,0
115873,-83.3333333333333,4,1,1,55,0,0
116491,-83.3333333333333,4,1,1,5,0,0
116579,-83.3333333333333,4,1,1,55,0,0
116844,-83.3333333333333,4,1,1,5,0,0
116932,-83.3333333333333,4,1,1,55,0,0
117903,-83.3333333333333,4,1,1,5,0,0
117991,-83.3333333333333,4,1,1,55,0,0
120814,-58.8235294117647,4,1,1,55,0,0
121079,-83.3333333333333,4,1,1,5,0,0
121167,-83.3333333333333,4,1,1,55,0,0
121344,-66.6666666666667,4,1,1,55,0,0
121609,-66.6666666666667,4,1,1,5,0,0
121697,-66.6666666666667,4,1,1,55,0,0
123726,-66.6666666666667,4,1,1,5,0,0
123814,-66.6666666666667,4,1,1,55,0,0
125381,352.941176470588,4,2,1,25,1,0
125381,-100,4,2,1,25,0,0
125498,-100,4,2,1,55,0,0
126439,-58.8235294117647,4,2,1,40,0,0
127145,-58.8235294117647,4,2,1,35,0,0
128204,-58.8235294117647,4,2,1,25,0,0
128910,-58.8235294117647,4,2,1,15,0,0
129969,-58.8235294117647,4,2,1,5,0,0

[Colours]
Combo1 : 36,146,255
Combo2 : 128,128,255
Combo3 : 128,255,255
Combo4 : 0,255,255

[HitObjects]
157,156,638,6,0,L|169:192,1,37.5
169,192,815,6,0,P|205:185|244:190,1,75,2|0,0:0|0:0,0:0:0:0:
363,281,1167,1,0,0:0:0:0:
363,281,1344,2,0,P|339:252|334:139,1,150
445,72,1873,2,0,P|408:78|369:73,1,75
192,14,2226,6,0,L|199:98,1,75,2|0,0:0|0:0,0:0:0:0:
136,228,2579,1,0,0:0:0:0:
136,228,2756,2,0,L|121:56,1,150
36,160,3285,1,0,0:0:0:0:
36,160,3462,1,0,0:0:0:0:
221,159,3638,6,0,P|239:198|241:236,1,75,2|0,0:0|0:0,0:0:0:0:
117,319,3991,1,0,0:0:0:0:
117,319,4167,2,0,P|191:300|268:324,1,150
381,381,4697,2,0,P|422:388|461:380,1,75
502,201,5050,6,0,L|419:195,1,75,2|0,0:0|0:0,0:0:0:0:
294,185,5403,1,0,0:0:0:0:
368,74,5579,1,0,0:0:0:0:
368,74,5756,1,0,0:0:0:0:
293,73,5932,1,0,0:0:0:0:
218,72,6109,6,0,L|224:132,1,56.25
154,186,6462,6,0,P|247:215|310:150,1,179.999994506836,4|0,0:0|0:0,0:0:0:0:
386,31,6991,2,0,P|382:115|391:214,1,179.999994506836
502,296,7520,2,0,P|459:284|411:288,1,89.9999972534181
322,351,7785,1,0,0:0:0:0:
322,351,7873,6,0,P|279:363|231:359,1,89.9999972534181,4|0,0:0|0:0,0:0:0:0:
78,266,8226,1,0,0:0:0:0:
121,370,8403,1,0,0:0:0:0:
147,177,8579,1,0,0:0:0:0:
190,281,8756,1,0,0:0:0:0:
35,162,8932,1,0,0:0:0:0:
78,266,9109,1,0,0:0:0:0:
216,88,9285,6,0,B|273:77|273:77|329:88,1,112.500004291535,4|0,0:0|0:0,0:0:0:0:
464,272,9638,1,8,0:0:0:0:
464,112,9814,1,0,0:0:0:0:
419,336,9991,1,8,0:0:0:0:
419,176,10167,1,0,0:0:0:0:
250,340,10344,1,8,0:0:0:0:
464,272,10520,1,0,0:0:0:0:
266,91,10697,6,0,P|211:75|271:129,1,225.000008583069,8|0,0:0|0:0,0:0:0:0:
265,139,11403,1,8,0:0:0:0:
263,150,11491,1,8,0:0:0:0:
261,161,11579,2,0,L|270:235,1,56.2500021457673
383,321,11756,2,0,B|301:296|303:350|214:315,1,168.750006437302,4|0,0:0|0:0,0:0:0:0:
140,230,12109,6,0,P|201:203|266:215,1,134.999995880127,4|0,0:0|0:0,0:0:0:0:
449,279,12462,2,0,P|383:291|322:264,1,134.999995880127,8|0,0:0|0:0,0:0:0:0:
393,184,12814,1,0,0:0:0:0:
322,264,12991,1,0,0:0:0:0:
360,83,13167,2,0,L|212:75,1,134.999995880127,8|0,0:0|0:0,0:0:0:0:
30,24,13520,6,0,P|96:29|157:88,1,134.999995880127
53,131,13873,1,8,0:0:0:0:
147,71,14050,1,0,0:0:0:0:
151,182,14226,2,0,L|141:284,1,89.9999972534181
32,342,14579,2,0,L|42:240,1,89.9999972534181,8|0,0:0|0:0,0:0:0:0:
232,133,14932,6,0,P|296:157|359:211,1,134.999995880127,4|0,0:0|0:0,0:0:0:0:
427,351,15285,2,0,P|416:283|431:201,1,134.999995880127,8|0,0:0|0:0,0:0:0:0:
512,80,15638,1,0,0:0:0:0:
425,218,15814,1,0,0:0:0:0:
346,64,15991,2,0,P|276:45|205:62,1,134.999995880127,8|0,0:0|0:0,0:0:0:0:
33,128,16344,6,0,P|103:109|174:126,1,134.999995880127,4|0,0:0|0:0,0:0:0:0:
309,213,16697,1,8,0:0:0:0:
163,120,16873,1,0,0:0:0:0:
274,105,17050,1,0,0:0:0:0:
233,298,17226,1,8,0:0:0:0:
224,298,17314,1,8,0:0:0:0:
214,298,17403,1,8,0:0:0:0:
138,213,17579,1,0,0:0:0:0:
385,128,17756,6,0,P|392:197|386:281,1,134.999995880127,4|0,0:0|0:0,0:0:0:0:
299,374,18109,2,0,P|302:306|295:239,1,134.999995880127,8|0,0:0|0:0,0:0:0:0:
236,132,18462,1,0,0:0:0:0:
295,239,18638,1,0,0:0:0:0:
300,28,18814,2,0,L|166:26,1,134.999995880127,8|0,0:0|0:0,0:0:0:0:
23,129,19167,6,0,L|157:131,1,134.999995880127
315,131,19520,1,8,0:0:0:0:
168,141,19697,1,0,0:0:0:0:
168,141,19785,1,0,0:0:0:0:
168,141,19873,6,0,L|174:199,1,44.999998626709
123,282,20050,2,0,L|129:340,1,44.999998626709
258,285,20226,2,0,P|318:267|411:299,1,134.999995880127,8|0,0:0|0:0,0:0:0:0:
461,338,20579,5,4,0:0:0:0:
478,124,20756,2,0,P|434:107|380:111,1,89.9999972534181,0|2,0:0|0:0,0:0:0:0:
171,305,21109,6,0,P|221:260|236:212,1,112.500004291535,0|2,0:0|0:0,0:0:0:0:
155,44,21462,2,0,P|168:109|203:146,1,112.500004291535,0|2,0:0|0:0,0:0:0:0:
389,160,21814,2,0,P|325:139|275:150,1,112.500004291535,0|2,0:0|0:0,0:0:0:0:
318,310,22167,1,8,0:0:0:0:
340,313,22256,1,8,0:0:0:0:
362,316,22344,1,0,0:0:0:0:
448,253,22520,1,0,0:0:0:0:
238,294,22697,6,0,L|243:335,1,28.1250010728836,8|8,0:0|0:0,0:0:0:0:
152,231,22873,1,0,0:0:0:0:
152,231,23050,2,0,P|151:200|146:164,1,56.25
78,133,23403,6,0,P|140:138|210:76,1,150,4|2,0:0|0:0,0:0:0:0:
115,38,23932,1,0,0:0:0:0:
205,85,24109,1,0,0:0:0:0:
301,54,24285,1,0,0:0:0:0:
332,150,24462,1,2,0:0:0:0:
400,76,24638,1,0,0:0:0:0:
205,85,24814,5,0,0:0:0:0:
205,85,25167,2,0,P|212:126|212:167,1,75,2|0,0:0|0:0,0:0:0:0:
285,228,25520,2,0,P|278:269|278:310,1,75
364,163,25873,2,0,P|363:125|356:88,1,75,2|0,0:0|0:0,0:0:0:0:
285,228,26226,6,0,P|346:265|428:244,1,150,4|2,0:0|0:0,0:0:0:0:
371,88,26756,2,0,P|364:124|363:162,1,75
419,250,27109,2,0,P|425:286|426:324,1,75,0|2,0:0|0:0,0:0:0:0:
315,301,27462,1,0,0:0:0:0:
315,301,27638,6,0,P|263:285|165:304,1,150,4|2,0:0|0:0,0:0:0:0:
29,340,28167,2,0,P|68:302|101:208,1,150,0|4,0:0|0:0,0:0:0:0:
138,73,28697,1,2,0:0:0:0:
210,198,28873,1,0,0:0:0:0:
298,50,29050,6,0,P|374:40|450:49,1,150,4|2,0:0|0:0,0:0:0:0:
512,184,29579,2,0,P|436:194|360:185,1,150
363,185,30109,1,2,0:0:0:0:
225,109,30285,1,0,0:0:0:0:
228,268,30462,6,0,P|167:289|82:281,1,150,4|2,0:0|0:0,0:0:0:0:
11,116,30991,2,0,P|48:121|89:114,1,75
184,63,31344,2,0,P|221:58|262:65,1,75,0|2,0:0|0:0,0:0:0:0:
385,190,31697,1,0,0:0:0:0:
385,190,31873,6,0,P|336:166|235:200,1,150,4|2,0:0|0:0,0:0:0:0:
315,294,32403,1,0,0:0:0:0:
329,294,32491,1,0,0:0:0:0:
343,294,32579,1,0,0:0:0:0:
385,190,32756,1,0,0:0:0:0:
342,96,32932,1,2,0:0:0:0:
283,181,33109,1,0,0:0:0:0:
283,181,33285,6,0,P|208:169|129:184,1,150,4|2,0:0|0:0,0:0:0:0:
135,181,33814,1,0,0:0:0:0:
43,330,33991,1,0,0:0:0:0:
18,157,34167,1,4,0:0:0:0:
187,303,34344,1,2,0:0:0:0:
32,326,34520,1,0,0:0:0:0:
167,154,34697,6,0,P|234:158|309:208,1,150,4|2,0:0|0:0,0:0:0:0:
414,337,35226,2,0,P|383:276|389:187,1,150
449,32,35756,1,2,0:0:0:0:
386,195,35932,1,0,0:0:0:0:
386,195,36109,6,0,P|329:183|230:196,1,150,4|2,0:0|0:0,0:0:0:0:
238,193,36638,1,0,0:0:0:0:
176,97,36814,1,0,0:0:0:0:
187,296,36991,1,0,0:0:0:0:
27,113,37167,1,2,0:0:0:0:
187,105,37344,1,0,0:0:0:0:
44,254,37520,6,0,P|62:315|135:362,1,150,4|2,0:0|0:0,0:0:0:0:
262,337,38050,2,0,P|305:290|310:204,1,150
152,94,38579,1,2,0:0:0:0:
193,205,38756,1,0,0:0:0:0:
228,3,38932,5,4,0:0:0:0:
269,114,39109,1,0,0:0:0:0:
314,35,39285,1,2,0:0:0:0:
355,146,39462,2,0,P|391:183|488:200,1,150,0|4,0:0|0:0,0:0:0:0:
461,72,39991,1,2,0:0:0:0:
269,114,40167,1,0,0:0:0:0:
269,114,40344,6,0,P|219:128|126:94,1,150,4|2,0:0|0:0,0:0:0:0:
321,54,40873,2,0,P|370:39|463:73,1,150
412,273,41403,1,2,0:0:0:0:
379,159,41579,1,0,0:0:0:0:
379,159,41756,6,0,L|227:154,1,150,4|2,0:0|0:0,0:0:0:0:
92,240,42285,2,0,L|244:245,1,150
229,154,42814,1,2,0:0:0:0:
216,63,42991,1,0,0:0:0:0:
315,188,43167,6,0,B|335:262|293:263|316:337,2,150,4|6|4,0:0|0:0|0:0,0:0:0:0:
215,222,44050,1,0,0:0:0:0:
410,293,44226,6,0,P|439:297|468:292,1,56.25,12|0,0:0|0:0,0:0:0:0:
436,209,44579,6,0,P|407:132|420:38,1,168.750006437302,8|0,0:0|0:0,0:0:0:0:
432,11,44932,1,8,0:1:0:0:
251,83,45109,2,0,L|112:74,1,112.500004291535,0|8,0:0|0:0,0:0:0:0:
323,216,45462,2,0,L|462:207,1,112.500004291535,0|8,0:0|0:0,0:0:0:0:
204,194,45814,1,8,0:1:0:0:
205,210,45903,1,8,0:1:0:0:
206,223,45991,6,0,L|214:314,1,89.9999972534181,4|0,0:0|0:0,0:0:0:0:
323,216,46344,2,0,L|315:125,1,89.9999972534181,8|0,0:0|0:0,0:0:0:0:
135,128,46697,1,0,0:0:0:0:
224,99,46873,1,0,0:0:0:0:
17,68,47050,1,8,0:0:0:0:
106,39,47226,1,0,0:0:0:0:
45,156,47403,6,0,L|39:255,1,89.9999972534181
219,198,47756,2,0,P|175:189|132:199,1,89.9999972534181,8|0,0:0|0:0,0:0:0:0:
285,263,48109,2,0,P|299:305|329:338,1,89.9999972534181
308,174,48462,2,0,P|337:140|351:97,1,89.9999972534181,8|0,0:0|0:0,0:0:0:0:
102,101,48814,6,0,P|162:121|237:98,1,134.999995880127
248,90,49167,1,8,0:0:0:0:
173,222,49344,2,0,L|66:220,1,89.9999972534181
217,313,49697,2,0,L|324:311,1,89.9999972534181,0|8,0:0|0:0,0:0:0:0:
426,208,50050,1,0,0:0:0:0:
426,208,50226,6,0,P|445:158|435:68,1,134.999995880127
429,57,50579,1,8,0:0:0:0:
309,160,50756,2,0,P|246:185|135:160,1,179.999994506836
222,21,51285,1,8,0:0:0:0:
30,72,51462,1,0,0:0:0:0:
30,72,51638,6,0,P|42:136|35:211,1,134.999995880127
29,226,51991,1,8,0:0:0:0:
107,325,52167,2,0,P|170:350|281:325,1,179.999994506836
194,186,52697,1,8,0:0:0:0:
386,237,52874,1,0,0:0:0:0:
386,237,53050,6,0,L|392:98,1,134.999995880127
392,79,53403,1,8,0:0:0:0:
288,215,53579,2,0,L|292:326,1,89.9999972534181
194,186,53932,1,0,0:0:0:0:
261,45,54109,2,0,P|219:29|160:30,1,89.9999972534181,8|0,0:0|0:0,0:0:0:0:
11,186,54462,6,0,P|66:190|131:253,1,134.999995880127
134,260,54814,1,8,0:0:0:0:
270,162,54991,1,0,0:0:0:0:
286,328,55167,1,0,0:0:0:0:
375,335,55344,1,0,0:0:0:0:
204,231,55520,1,8,0:0:0:0:
293,238,55697,1,0,0:0:0:0:
197,320,55873,6,0,P|144:297|116:219,1,134.999995880127
116,206,56226,1,8,0:0:0:0:
277,120,56403,2,0,L|375:123,1,89.9999972534181,4|0,0:0|0:0,0:0:0:0:
240,231,56756,1,8,0:0:0:0:
222,231,56844,1,8,0:0:0:0:
204,231,56932,1,8,0:0:0:0:
160,120,57109,1,0,0:0:0:0:
157,342,57285,6,0,B|222:324|228:362|297:335,1,134.999995880127,4|0,0:0|0:0,0:0:0:0:
306,331,57638,1,8,0:0:0:0:
246,217,57814,2,0,P|234:172|286:50,1,179.999994506836
392,167,58344,1,8,0:0:0:0:
362,318,58520,1,0,0:0:0:0:
362,318,58697,6,0,B|296:300|290:338|221:311,1,134.999995880127
213,305,59050,1,8,0:0:0:0:
267,203,59226,1,0,0:0:0:0:
43,233,59403,1,0,0:0:0:0:
172,218,59579,1,0,0:0:0:0:
36,113,59756,1,8,0:0:0:0:
51,242,59932,1,0,0:0:0:0:
168,83,60109,6,0,P|232:64|309:82,1,134.999995880127
312,87,60462,1,8,0:0:0:0:
437,186,60638,2,0,L|434:301,1,89.9999972534181
434,275,60991,1,0,0:0:0:0:
305,336,61167,1,8,0:0:0:0:
323,211,61344,1,0,0:0:0:0:
194,272,61520,6,0,P|123:288|54:269,1,134.999995880127
45,260,61873,1,8,0:0:0:0:
189,111,62050,1,4,0:0:0:0:
194,272,62226,1,0,0:0:0:0:
191,191,62403,1,0,0:0:0:0:
266,310,62579,1,8,0:0:0:0:
122,154,62756,1,0,0:0:0:0:
122,154,62932,6,0,L|125:320,1,157.499995193482,4|0,0:0|0:0,0:0:0:0:
126,337,63285,1,8,0:0:0:0:
256,228,63462,2,0,P|326:211|437:288,1,209.999993591309
314,349,63991,1,8,0:0:0:0:
434,283,64167,1,0,0:0:0:0:
434,283,64344,6,0,P|447:215|435:145,1,134.999995880127
426,130,64697,1,8,0:0:0:0:
297,214,64873,2,0,L|199:210,1,89.9999972534181
207,210,65226,1,0,0:0:0:0:
112,72,65403,2,0,P|169:41|259:52,1,134.999995880127,8|0,0:0|0:0,0:0:0:0:
258,52,65756,5,4,0:0:0:0:
302,248,65932,1,0,0:0:0:0:
379,17,66109,5,8,0:0:0:0:
423,213,66285,1,0,0:0:0:0:
205,166,66462,1,8,0:0:0:0:
178,163,66550,1,8,0:0:0:0:
151,161,66638,2,0,L|106:158,1,44.999998626709
42,327,66814,1,8,0:0:0:0:
22,151,66991,1,0,0:0:0:0:
192,317,67167,6,0,P|253:311|290:284,1,97.4999955368044,4|0,0:0|0:0,0:0:0:0:
312,97,67520,2,0,P|286:143|285:195,1,104.999996795654,4|0,0:0|0:0,0:0:0:0:
438,315,67873,2,0,P|411:267|365:237,1,112.500004291535,4|0,0:0|0:0,0:0:0:0:
97,261,68226,6,0,P|110:190|105:109,1,150,4|0,0:0|0:0,0:0:0:0:
217,193,68932,1,0,0:0:0:0:
353,165,69109,1,8,0:0:0:0:
217,193,69285,1,0,0:0:0:0:
217,193,69638,2,0,L|223:292,1,89.9999972534181
291,132,69991,6,0,P|220:98|132:149,1,179.999994506836
42,293,70520,2,0,L|227:282,1,179.999994506836,8|0,0:0|0:0,0:0:0:0:
383,277,71050,1,0,0:0:0:0:
221,282,71226,1,0,0:0:0:0:
221,282,71403,6,0,P|208:239|213:189,1,89.9999972534181,4|0,0:0|0:0,0:0:0:0:
289,32,71756,2,0,P|302:75|297:125,1,89.9999972534181
117,89,72109,2,0,L|207:86,1,89.9999972534181,4|0,0:0|0:0,0:0:0:0:
399,77,72462,1,0,0:0:0:0:
301,219,72638,2,0,L|308:253,2,29.9999990844727,8|8|0,0:0|0:0|0:0,0:0:0:0:
290,208,72814,6,0,P|243:197|194:204,1,89.9999972534181
60,113,73167,2,0,P|73:159|104:198,1,89.9999972534181
93,360,73520,1,8,0:0:0:0:
115,359,73609,1,8,0:0:0:0:
137,359,73697,2,0,L|225:359,1,44.999998626709
377,357,73873,1,8,0:0:0:0:
250,261,74050,1,0,0:0:0:0:
250,261,74226,6,0,P|224:217|239:116,1,134.999995880127,4|0,0:0|0:0,0:0:0:0:
251,107,74579,1,8,0:0:0:0:
505,195,74756,2,0,P|418:175|329:184,1,179.999994506836
250,261,75285,2,0,P|174:271|102:258,1,134.999995880127,8|0,0:0|0:0,0:0:0:0:
59,180,75638,6,0,P|50:117|104:46,1,134.999995880127
118,42,75991,1,8,0:0:0:0:
323,141,76167,2,0,L|144:136,1,179.999994506836
170,263,76697,1,8,0:0:0:0:
144,136,76873,1,0,0:0:0:0:
50,358,77050,6,0,P|111:365|165:354,1,112.500004291535,4|0,0:0|0:0,0:0:0:0:
439,297,77403,2,0,P|378:304|324:293,1,112.500004291535,8|0,0:0|0:0,0:0:0:0:
103,209,77756,1,4,0:0:0:0:
323,185,77932,1,0,0:0:0:0:
42,128,78109,5,8,0:0:0:0:
262,104,78285,1,0,0:0:0:0:
166,343,78462,5,4,0:0:0:0:
156,184,78638,1,0,0:0:0:0:
346,343,78814,5,8,0:0:0:0:
357,168,78990,1,0,0:0:0:0:
146,357,79167,5,8,0:0:0:0:
134,166,79343,1,0,0:0:0:0:
370,359,79520,5,8,0:0:0:0:
383,152,79696,1,0,0:0:0:0:
102,259,79873,5,8,0:0:0:0:
344,248,80050,1,8,0:0:0:0:
214,44,80226,1,8,0:0:0:0:
214,44,80756,2,0,P|224:68|228:99,1,56.2500021457673
214,161,80932,6,0,P|238:101|220:35,1,127.50000243187,4|0,0:0|0:0,0:0:0:0:
36,268,81285,6,0,B|129:310|134:232|238:283,1,196.875001877546,4|0,0:0|0:0,0:0:0:0:
246,312,81638,2,0,P|310:334|388:304,1,131.250001251698,8|0,0:0|0:0,0:0:0:0:
302,86,81991,2,0,L|312:217,1,131.250001251698
407,129,82344,1,8,0:0:0:0:
204,142,82520,1,0,0:0:0:0:
201,15,82697,6,0,P|217:91|198:151,1,131.250001251698
142,357,83050,2,0,P|126:281|145:221,1,131.250001251698,8|0,0:0|0:0,0:0:0:0:
362,298,83403,2,0,L|231:292,1,131.250001251698
72,147,83756,2,0,L|203:140,1,131.250001251698,8|0,0:0|0:0,0:0:0:0:
374,9,84109,6,0,B|372:88|372:88|387:124|387:124|381:213,1,196.875001877546
358,280,84462,2,0,L|367:141,1,131.250001251698,8|0,0:0|0:0,0:0:0:0:
158,131,84814,2,0,P|238:151|296:135,1,131.250001251698
112,20,85167,1,8,0:0:0:0:
85,227,85344,1,0,0:0:0:0:
212,236,85520,6,0,P|152:219|80:228,1,131.250001251698
261,313,85873,2,0,P|321:330|393:321,1,131.250001251698,8|0,0:0|0:0,0:0:0:0:
494,170,86226,1,0,0:0:0:0:
244,142,86403,1,8,0:0:0:0:
210,140,86492,1,8,0:0:0:0:
177,138,86580,1,8,0:0:0:0:
323,59,86756,1,0,0:0:0:0:
314,289,86932,6,0,B|225:249|217:317|119:279,1,196.875001877546,4|0,0:0|0:0,0:0:0:0:
82,284,87285,2,0,P|34:253|6:178,1,131.250001251698,8|0,0:0|0:0,0:0:0:0:
170,35,87638,2,0,L|176:176,1,131.250001251698
70,112,87991,1,8,0:0:0:0:
275,105,88167,1,0,0:0:0:0:
284,228,88344,6,0,P|261:167|279:97,1,131.250001251698
489,163,88697,2,0,L|357:160,1,131.250001251698,8|0,0:0|0:0,0:0:0:0:
156,71,89050,2,0,L|288:68,1,131.250001251698
437,63,89403,1,8,0:0:0:0:
370,260,89579,1,0,0:0:0:0:
337,253,89667,1,0,0:0:0:0:
307,238,89756,6,0,B|269:227|231:246|231:246|202:229|202:229|138:272|56:233,1,262.500002503395,4|8,0:0|0:0,0:0:0:0:
116,28,90285,1,0,0:0:0:0:
132,139,90462,2,0,P|199:112|329:150,1,196.875001877546
339,163,90814,1,8,0:0:0:0:
396,63,90991,1,0,0:0:0:0:
398,263,91167,6,0,P|338:275|272:258,1,112.500004291535,4|0,0:0|0:0,0:0:0:0:
175,96,91520,2,0,P|215:141|233:207,1,112.500004291535,4|0,0:0|0:0,0:0:0:0:
123,377,91873,2,0,P|147:319|194:276,1,127.50000243187,4|0,0:0|0:0,0:0:0:0:
366,161,92226,6,0,P|388:113|320:148,1,179.999994506836,4|0,0:0|0:0,0:0:0:0:
398,263,92756,1,0,0:0:0:0:
397,285,92844,1,0,0:0:0:0:
396,307,92932,6,0,P|332:286|265:297,1,131.250001251698,8|0,0:0|0:0,0:0:0:0:
51,333,93285,2,0,P|115:354|182:343,1,131.250001251698,8|0,0:0|0:0,0:0:0:0:
208,335,93550,1,0,0:0:0:0:
208,335,93638,1,8,0:0:0:0:
122,238,93814,1,0,0:0:0:0:
304,98,93991,6,0,L|302:232,1,131.250001251698,12|0,0:0|0:0,0:0:0:0:
206,131,94344,2,0,L|208:-3,1,131.250001251698,8|0,0:0|0:0,0:0:0:0:
402,65,94697,2,0,L|400:199,1,131.250001251698,8|0,0:0|0:0,0:0:0:0:
404,228,94962,1,0,0:0:0:0:
404,228,95050,1,8,0:0:0:0:
304,98,95226,1,0,0:0:0:0:
330,293,95403,6,0,P|261:306|189:284,1,131.250001251698,12|0,0:0|0:0,0:0:0:0:
2,239,95756,2,0,P|71:252|143:230,1,131.250001251698,8|0,0:0|0:0,0:0:0:0:
330,185,96109,1,8,0:0:0:0:
186,81,96285,1,0,0:0:0:0:
153,78,96373,1,0,0:0:0:0:
119,76,96462,2,0,L|51:71,1,65.6250006258488,8|8,0:0|0:0,0:0:0:0:
64,160,96638,1,0,0:0:0:0:
272,35,96814,6,0,P|343:23|450:91,1,196.875001877546,4|0,0:0|0:0,0:0:0:0:
459,114,97167,1,8,0:0:0:0:
328,286,97344,2,0,L|327:155,1,131.250001251698
183,97,97697,2,0,L|185:229,1,112.5
195,220,98050,1,0,0:0:0:0:
195,220,98138,1,0,0:0:0:0:
195,220,98226,6,0,P|251:192|333:199,1,134.999995880127,4|0,0:0|0:0,0:0:0:0:
334,214,98579,2,0,P|386:232|435:227,1,89.9999972534181,8|0,0:0|0:0,0:0:0:0:
395,116,98932,1,0,0:0:0:0:
395,116,99109,1,0,0:0:0:0:
414,322,99285,2,0,L|265:311,1,134.999995880127,8|0,0:0|0:0,0:0:0:0:
263,327,99638,6,0,L|156:319,1,89.9999972534181
30,312,99991,1,8,0:0:0:0:
98,165,100167,2,0,P|158:145|244:167,1,134.999995880127
249,160,100520,2,0,P|266:185|275:210,1,44.999998626709
277,299,100697,6,0,L|348:292,1,56.25,8|0,0:0|0:0,0:0:0:0:
361,290,101050,5,4,0:0:0:0:
420,210,101226,2,0,L|419:116,1,89.9999972534181,0|8,0:0|0:0,0:0:0:0:
417,0,101579,1,0,0:0:0:0:
417,0,101932,5,0,0:0:0:0:
242,45,102108,1,8,0:0:0:0:
369,174,102285,6,0,P|368:220|334:269,1,84.3750032186509
345,295,102638,2,0,P|304:317|245:312,1,84.3750032186509
228,334,102991,2,0,P|188:310|163:256,1,84.3750032186509,8|0,0:0|0:0,0:0:0:0:
159,236,103344,1,0,0:0:0:0:
267,231,103520,1,0,0:0:0:0:
267,231,103697,2,0,P|268:205|265:180,1,37.5,0|0,2:0|2:0,2:0:0:0:
210,84,103873,6,0,P|252:79|289:58,3,75,2|0|0|0,0:0|0:0|0:0|0:0,0:0:0:0:
395,57,105285,2,0,P|323:37|379:112,1,225,2|0,0:0|0:0,0:0:0:0:
372,115,106520,2,0,L|371:87,2,25,8|8|0,1:0|1:0|1:0,1:0:0:0:
368,133,106697,6,0,P|328:156|259:151,1,89.9999972534181,4|0,0:0|0:0,0:0:0:0:
104,151,107050,2,0,P|144:128|213:133,1,89.9999972534181
290,243,107403,1,8,0:0:0:0:
262,78,107579,1,0,0:0:0:0:
215,291,107756,1,8,0:0:0:0:
311,154,107932,6,0,P|362:138|446:211,1,168.750006437302
458,241,108285,1,8,0:0:0:0:
458,241,108373,1,8,0:0:0:0:
458,241,108462,2,0,L|394:243,1,56.2500021457673
290,243,108638,1,0,0:0:0:0:
237,73,108814,5,8,0:0:0:0:
237,73,108903,1,8,0:0:0:0:
237,73,108991,1,0,0:0:0:0:
175,271,109167,2,0,L|20:262,1,134.999995880127,4|0,0:0|0:0,0:0:0:0:
16,153,109520,6,0,P|67:111|148:118,1,134.999995880127,4|0,0:0|0:0,0:0:0:0:
315,112,109873,2,0,P|264:154|183:147,1,134.999995880127,8|0,0:0|0:0,0:0:0:0:
237,73,110226,1,0,0:0:0:0:
237,73,110403,1,0,0:0:0:0:
250,255,110579,2,0,L|403:247,1,134.999995880127,8|0,0:0|0:0,0:0:0:0:
509,294,110932,6,0,P|472:239|478:167,1,134.999995880127
490,149,111285,1,8,0:0:0:0:
326,70,111462,2,0,L|222:73,1,89.9999972534181
236,72,111814,1,0,0:0:0:0:
117,178,111991,2,0,P|181:157|256:174,1,134.999995880127,8|0,0:0|0:0,0:0:0:0:
320,354,112344,6,0,L|306:217,1,134.999995880127,4|0,0:0|0:0,0:0:0:0:
383,148,112697,2,0,L|397:285,1,134.999995880127,8|0,0:0|0:0,0:0:0:0:
225,326,113050,2,0,P|205:254|214:182,1,134.999995880127
349,46,113403,2,0,P|296:99|229:127,1,134.999995880127,8|0,0:0|0:0,0:0:0:0:
45,79,113756,6,0,P|117:97|175:141,1,134.999995880127,4|0,0:0|0:0,0:0:0:0:
180,155,114109,1,8,0:0:0:0:
66,196,114285,1,0,0:0:0:0:
66,196,114462,1,0,0:0:0:0:
259,251,114638,1,8,0:0:0:0:
281,253,114726,1,8,0:0:0:0:
303,256,114814,1,8,0:0:0:0:
420,153,114991,1,0,0:0:0:0:
398,155,115079,1,0,0:0:0:0:
376,158,115167,6,0,P|326:137|230:158,1,134.999995880127,4|0,0:0|0:0,0:0:0:0:
62,184,115520,2,0,P|112:205|208:184,1,134.999995880127,8|0,0:0|0:0,0:0:0:0:
154,89,115873,1,0,0:0:0:0:
154,89,116050,1,0,0:0:0:0:
159,306,116226,2,0,L|303:301,1,134.999995880127,8|0,0:0|0:0,0:0:0:0:
442,353,116579,6,0,P|415:293|424:218,1,134.999995880127
430,204,116932,1,8,0:0:0:0:
487,69,117109,1,0,0:0:0:0:
464,67,117197,1,0,0:0:0:0:
441,65,117285,2,0,L|395:62,1,44.999998626709,8|0,0:0|0:0,0:0:0:0:
312,113,117462,2,0,L|266:110,1,44.999998626709
155,41,117638,2,0,P|175:89|162:183,1,134.999995880127
156,189,117991,5,4,0:0:0:0:
42,282,118167,2,0,L|149:278,1,89.9999972534181,0|8,0:0|0:0,0:0:0:0:
329,189,118520,2,0,P|376:169|428:178,1,89.9999972534181
226,186,118873,2,0,P|185:155|166:105,1,89.9999972534181,0|8,0:0|0:0,0:0:0:0:
275,277,119226,6,0,P|268:327|235:368,1,89.9999972534181
169,120,119579,1,8,0:0:0:0:
171,97,119667,1,8,0:0:0:0:
173,74,119756,2,0,L|178:24,1,44.999998626709
283,21,119932,1,0,0:0:0:0:
279,231,120109,5,8,0:0:0:0:
277,254,120197,1,0,0:0:0:0:
275,277,120286,2,0,L|270:327,1,44.999998626709
403,313,120462,2,0,P|446:290|474:224,1,89.9999972534181,12|0,0:0|0:0,0:0:0:0:
484,177,120726,1,0,0:0:0:0:
484,177,120814,6,0,B|394:137|394:208|297:173,1,191.250003647804,4|0,0:0|0:0,0:0:0:0:
268,162,121167,1,8,0:0:0:0:
143,39,121344,6,0,P|173:116|146:195,1,168.750006437302
123,222,121697,1,0,0:0:0:0:
284,78,121873,1,8,0:0:0:0:
328,289,122050,6,0,P|282:252|363:271,1,225.000008583069,0|8,0:0|0:0,0:0:0:0:
169,273,122579,1,0,0:0:0:0:
372,252,122756,1,0,0:0:0:0:
159,155,122932,1,8,0:0:0:0:
276,320,123109,1,0,0:0:0:0:
361,134,123285,1,8,0:0:0:0:
91,253,123462,6,0,P|106:329|206:346,1,168.750006437302
276,320,123814,1,8,0:0:0:0:
295,318,123903,1,8,0:0:0:0:
314,316,123991,2,0,L|383:311,1,56.2500021457673
477,304,124167,1,0,0:0:0:0:
309,157,124344,5,8,0:0:0:0:
290,155,124433,1,8,0:0:0:0:
271,153,124521,2,0,L|202:148,1,56.2500021457673
93,255,124697,2,0,L|162:260,1,56.2500021457673,8|0,0:0|0:0,0:0:0:0:
72,117,124873,1,0,0:0:0:0:
256,192,125381,6,0,L|260:220,2,25
256,192,125645,12,0,130675,2:0:0:0:
