osu file format v14

[General]
AudioFilename: audio.ogg
AudioLeadIn: 0
PreviewTime: 61812
Countdown: 0
SampleSet: Soft
StackLeniency: 0.7
Mode: 3
LetterboxInBreaks: 0
EpilepsyWarning: 1
SpecialStyle: 0
WidescreenStoryboard: 1

[Editor]
DistanceSpacing: 1
BeatDivisor: 2
GridSize: 4
TimelineZoom: 2.1

[Metadata]
Title:Future flight (Cut Ver.)
TitleUnicode:Future flight (Cut Ver.)
Artist:Aqours
ArtistUnicode:Aqours
Creator:ML-ysg
Version:Easy
Source:ラブライブ!サンシャイン!!
Tags:IAmWayneKing Inami Anju 伊波杏樹 Aida Rikako 逢田梨香子 Suwa Nanaka 諏訪ななか Komiya Arisa 小宮有紗 Saito Shuka 斉藤朱夏 Kobayashi Aika 小林愛香 Takatsuki Kanako 高槻かなこ Suzuki Aina 鈴木愛奈 Furihata Ai 降幡 愛 Takami Chika 高海千歌 Sakurauchi Riko 桜内梨子 Matsuura Kanan 松浦果南 Kurosawa Dia 黒澤ダイヤ Watanabe You 渡辺 曜 Tsushima Yoshiko 津島善子 Kunikida Hanamaru 国木田花丸 Ohara Mari 小原鞠莉 Ruby 黒澤ルビィ love live sunshine lovelive japanese j-pop jpop pop female vocal CHRONICLE BCXM-1709 LACA-9783 EMOTION Lantis BANDAI NAMCO Arts Inc Special MV Collection Colorful Party カラフルパーティー
BeatmapID:3827831
BeatmapSetID:1861699

[Difficulty]
HPDrainRate:6.5
CircleSize:4
OverallDifficulty:6.5
ApproachRate:5
SliderMultiplier:1.4
SliderTickRate:1

[Events]
//Background and Video events
0,0,"Aqours_CHRONICLE.jpg",0,0
//Break Periods
//Storyboard Layer 0 (Background)
//Storyboard Layer 1 (Fail)
//Storyboard Layer 2 (Pass)
//Storyboard Layer 3 (Foreground)
//Storyboard Layer 4 (Overlay)
//Storyboard Sound Samples
Sample,5084,0,"Tom2.wav",60
Sample,5562,0,"Tom3.wav",60
Sample,6041,0,"Tom3.wav",60
Sample,6520,0,"Tom3.wav",60
Sample,6998,0,"Tom3.wav",60
Sample,7318,0,"Tom3.wav",60
Sample,25509,0,"Tom2.wav",60
Sample,25988,0,"Tom3.wav",60
Sample,28062,0,"Tom1.wav",60
Sample,30296,0,"Rim.wav",60
Sample,30615,0,"Rim.wav",60
Sample,31573,0,"Rim.wav",60
Sample,31892,0,"Rim.wav",60
Sample,33169,0,"Rim.wav",60
Sample,34126,0,"Rim.wav",60
Sample,34445,0,"Rim.wav",60
Sample,35403,0,"Rim.wav",60
Sample,35722,0,"Rim.wav",60
Sample,36679,0,"Rim.wav",60
Sample,36998,0,"Rim.wav",60
Sample,37956,0,"Rim.wav",60
Sample,39871,0,"Tom1.wav",60
Sample,40190,0,"Tom1.wav",60
Sample,41147,0,"Tom1.wav",60
Sample,44977,0,"Tom1.wav",60
Sample,45296,0,"Tom1.wav",60
Sample,50881,0,"Hat Close.wav",70
Sample,59658,0,"Tom3.wav",60
Sample,76732,0,"Hat Open.wav",60
Sample,77211,0,"Tom2.wav",60
Sample,78488,0,"Hat Open.wav",60
Sample,79764,0,"Hat Open.wav",60
Sample,80084,0,"Hat Open.wav",60
Sample,81041,0,"Hat Open.wav",60
Sample,81679,0,"Hat Open.wav",60
Sample,83913,0,"Tom3.wav",60
Sample,84073,0,"Tom3.wav",60
Sample,84232,0,"Tom1.wav",60
Sample,84711,0,"Tom2.wav",60
Sample,93169,0,"Tom2.wav",60
Sample,93647,0,"Tom3.wav",60
Sample,94445,0,"Tom3.wav",60

[TimingPoints]
5084,319.148936170213,4,2,1,60,1,0
62371,-100.0,4,2,1,60,0,1
82956,-100.0,4,2,1,60,0,0

[HitObjects]
64,192,5084,128,0,5562:0:0:0:40:Clap.wav
192,192,5562,128,0,6041:0:0:0:40:Clap.wav
320,192,6041,128,0,6520:0:0:0:40:Clap.wav
448,192,6520,128,0,6998:0:0:0:40:Clap.wav
192,192,6998,128,0,7318:0:0:0:40:Clap.wav
320,192,7318,1,0,0:0:0:40:Clap.wav
64,192,7477,1,0,0:0:0:40:Clap.wav
192,192,7637,1,4,0:0:0:0:
448,192,7637,128,2,8275:0:0:0:0:
64,192,8275,128,0,8913:0:0:0:40:Clap.wav
320,192,8913,1,0,0:0:0:40:Clap.wav
192,192,9073,1,2,0:0:0:0:
448,192,9232,1,2,0:0:0:0:
64,192,9552,1,0,0:0:0:40:Clap.wav
320,192,9552,1,0,0:0:0:0:
448,192,9871,1,0,0:0:0:0:
192,192,10190,128,2,10828:0:0:0:0:
320,192,10828,128,0,11466:0:0:0:40:Clap.wav
64,192,11466,1,0,0:0:0:40:Clap.wav
448,192,11626,1,2,0:0:0:0:
192,192,11786,1,2,0:0:0:0:
320,192,12105,1,0,0:0:0:40:Clap.wav
448,192,12105,1,0,0:0:0:0:
192,192,12424,1,0,0:0:0:0:
64,192,12743,128,2,13381:0:0:0:0:
320,192,13381,128,0,14020:0:0:0:40:Clap.wav
192,192,14020,1,0,0:0:0:40:Clap.wav
448,192,14179,1,2,0:0:0:0:
64,192,14339,1,2,0:0:0:0:
192,192,14658,1,0,0:0:0:40:Clap.wav
320,192,14658,1,0,0:0:0:0:
448,192,14977,1,0,0:0:0:0:
64,192,15296,128,2,15935:0:0:0:0:
448,192,15935,1,0,0:0:0:0:
192,192,16254,1,0,0:0:0:0:
64,192,16413,1,0,0:0:0:0:
320,192,16573,128,2,17052:0:0:0:0:
192,192,17052,128,2,17530:0:0:0:0:
64,192,17530,128,2,18169:0:0:0:0:
448,192,17530,1,4,0:0:0:0:
320,192,18169,128,10,18488:0:0:0:0:
192,192,18488,128,2,18807:0:0:0:0:
64,192,18807,1,10,0:0:0:0:
448,192,19126,1,2,0:0:0:0:
64,192,19286,1,0,0:0:0:60:Hat Open.wav
192,192,19445,1,10,0:0:0:0:
448,192,19605,1,0,0:0:0:60:Hat Open.wav
320,192,19764,1,2,0:0:0:0:
64,192,20084,1,10,0:0:0:0:
448,192,20403,1,2,0:0:0:0:
192,192,20722,128,10,21041:0:0:0:0:
320,192,21041,128,2,21360:0:0:0:0:
64,192,21360,1,10,0:0:0:0:
448,192,21679,1,2,0:0:0:0:
192,192,21839,1,0,0:0:0:60:Hat Open.wav
320,192,21998,1,10,0:0:0:0:
64,192,22158,1,0,0:0:0:60:Hat Open.wav
448,192,22318,1,2,0:0:0:0:
192,192,22637,1,10,0:0:0:0:
320,192,22796,1,8,0:0:0:0:
64,192,22956,128,2,23275:0:0:0:0:
448,192,23275,128,10,23594:0:0:0:0:
192,192,23594,128,2,23913:0:0:0:0:
320,192,23913,1,10,0:0:0:0:
64,192,24232,1,2,0:0:0:0:
448,192,24392,1,0,0:0:0:60:Hat Open.wav
192,192,24552,1,10,0:0:0:0:
320,192,24711,1,0,0:0:0:60:Hat Open.wav
64,192,24871,1,2,0:0:0:0:
448,192,25190,1,10,0:0:0:0:
192,192,25349,1,8,0:0:0:0:
320,192,25509,128,0,25828:0:0:0:60:Tom1.wav
64,192,25988,128,2,26307:0:0:0:0:
448,192,26466,128,2,26786:0:0:0:0:
192,192,26786,128,2,28062:0:0:0:0:
448,192,28062,1,0,0:0:0:40:soft-hitclap.wav
320,192,28541,1,0,0:0:0:60:Tom1.wav
192,192,28701,1,0,0:0:0:60:Tom1.wav
64,192,29020,1,2,0:0:0:0:
320,192,29339,1,2,0:0:0:0:
448,192,29339,1,4,0:0:0:0:
192,192,29658,1,0,0:0:0:70:Hat Close.wav
320,192,29818,1,0,0:0:0:60:Rim.wav
448,192,29977,1,2,0:0:0:0:
192,192,30296,1,0,0:0:0:70:Hat Close.wav
64,192,30615,1,2,0:0:0:0:
320,192,30935,1,0,0:0:0:70:Hat Close.wav
192,192,31094,1,0,0:0:0:60:Rim.wav
64,192,31254,1,2,0:0:0:0:
320,192,31573,1,0,0:0:0:70:Hat Close.wav
192,192,31892,1,2,0:0:0:0:
320,192,32211,1,0,0:0:0:70:Hat Close.wav
64,192,32371,1,0,0:0:0:60:Rim.wav
448,192,32530,1,2,0:0:0:0:
192,192,32849,1,0,0:0:0:70:Hat Close.wav
320,192,33169,1,2,0:0:0:0:
192,192,33488,1,0,0:0:0:70:Hat Close.wav
448,192,33647,1,0,0:0:0:60:Rim.wav
64,192,33807,1,2,0:0:0:0:
320,192,34126,1,0,0:0:0:70:Hat Close.wav
64,192,34445,1,2,0:0:0:0:
192,192,34764,1,0,0:0:0:70:Hat Close.wav
320,192,34924,1,0,0:0:0:60:Rim.wav
448,192,35084,1,2,0:0:0:0:
192,192,35403,1,0,0:0:0:70:Hat Close.wav
448,192,35722,1,2,0:0:0:0:
320,192,36041,1,0,0:0:0:70:Hat Close.wav
192,192,36201,1,0,0:0:0:60:Rim.wav
64,192,36360,1,2,0:0:0:0:
320,192,36679,1,0,0:0:0:70:Hat Close.wav
192,192,36998,1,2,0:0:0:0:
448,192,37318,1,0,0:0:0:70:Hat Close.wav
64,192,37477,1,0,0:0:0:60:Rim.wav
192,192,37637,1,2,0:0:0:0:
448,192,37956,1,0,0:0:0:70:Hat Close.wav
64,192,38275,128,2,38594:0:0:0:0:
320,192,38594,1,0,0:0:0:60:Hat Open.wav
192,192,38754,1,0,0:0:0:0:
448,192,38913,1,2,0:0:0:0:
64,192,39073,1,8,0:0:0:0:
320,192,39232,128,0,39552:0:0:0:60:Tom2.wav
64,192,39552,1,2,0:0:0:0:
192,192,39552,128,4,39871:0:0:0:0:
448,192,39871,1,2,0:0:0:0:
64,192,40030,1,8,0:0:0:0:
448,192,40190,1,2,0:0:0:0:
192,192,40509,1,8,0:0:0:0:
320,192,40828,128,2,41147:0:0:0:0:
64,192,41147,1,2,0:0:0:0:
448,192,41307,1,8,0:0:0:0:
64,192,41466,1,2,0:0:0:0:
320,192,41786,1,8,0:0:0:0:
64,192,42105,1,2,0:0:0:0:
192,192,42105,128,4,42424:0:0:0:0:
448,192,42424,1,2,0:0:0:0:
64,192,42584,1,8,0:0:0:0:
320,192,42743,1,2,0:0:0:0:
192,192,43062,1,8,0:0:0:0:
320,192,43381,128,2,43701:0:0:0:0:
64,192,43701,1,2,0:0:0:0:
448,192,43860,1,8,0:0:0:0:
192,192,44020,1,2,0:0:0:0:
320,192,44339,1,8,0:0:0:0:
64,192,44658,1,2,0:0:0:0:
448,192,44658,128,4,44977:0:0:0:0:
192,192,44977,1,2,0:0:0:0:
320,192,45137,1,8,0:0:0:0:
64,192,45296,1,2,0:0:0:0:
320,192,45615,1,8,0:0:0:0:
64,192,45935,128,2,46254:0:0:0:0:
448,192,46254,1,2,0:0:0:0:
192,192,46413,1,8,0:0:0:0:
320,192,46573,1,2,0:0:0:0:
192,192,46892,128,8,47211:0:0:0:0:
320,192,47211,128,8,47530:0:0:0:0:
64,192,47530,1,2,0:0:0:0:
448,192,47690,1,8,0:0:0:0:
192,192,48009,1,2,0:0:0:0:
320,192,48169,1,8,0:0:0:0:
64,192,48328,1,0,0:0:0:60:Tom1.wav
448,192,48488,128,2,49126:0:0:0:0:
192,192,49126,1,2,0:0:0:0:
320,192,49286,1,8,0:0:0:0:
64,192,49445,1,0,0:0:0:60:Tom2.wav
448,192,49605,1,0,0:0:0:60:Tom3.wav
192,192,49764,1,4,0:0:0:0:
320,192,49764,128,2,50084:0:0:0:0:
64,192,50084,1,0,0:0:0:70:Hat Close.wav
448,192,50243,1,0,0:0:0:0:
192,192,50562,1,0,0:0:0:70:Hat Close.wav
448,192,50881,128,2,51201:0:0:0:0:
64,192,51201,1,0,0:0:0:70:Hat Close.wav
320,192,51360,1,0,0:0:0:0:
192,192,51679,1,0,0:0:0:70:Hat Close.wav
320,192,51998,1,0,0:0:0:70:Hat Close.wav
64,192,52318,128,2,52637:0:0:0:0:
448,192,52637,1,0,0:0:0:70:Hat Close.wav
192,192,52796,1,0,0:0:0:0:
320,192,53115,1,0,0:0:0:70:Hat Close.wav
192,192,53435,128,0,53754:0:0:0:70:Hat Close.wav
448,192,53754,1,0,0:0:0:70:Hat Close.wav
64,192,53913,1,0,0:0:0:70:Hat Close.wav
320,192,54232,1,0,0:0:0:70:Hat Close.wav
192,192,54552,1,0,0:0:0:70:Hat Close.wav
64,192,54871,1,2,0:0:0:0:
448,192,54871,1,4,0:0:0:0:
320,192,55190,1,8,0:0:0:0:
192,192,55349,1,8,0:0:0:0:
448,192,55509,128,2,55828:0:0:0:0:
64,192,55828,128,8,56147:0:0:0:0:
320,192,56147,128,2,56466:0:0:0:0:
64,192,56466,128,0,56786:0:0:0:0:
320,192,56786,128,2,57105:0:0:0:0:
192,192,57105,128,8,57424:0:0:0:0:
64,192,57424,1,4,0:0:0:0:
448,192,57424,128,2,57903:0:0:0:0:
320,192,57903,128,2,58381:0:0:0:0:
64,192,58381,1,2,0:0:0:0:
448,192,58541,1,0,0:0:0:0:
192,192,58701,128,2,59179:0:0:0:0:
64,192,59179,128,2,59658:0:0:0:0:
448,192,59658,1,2,0:0:0:0:
192,192,59977,128,2,60296:0:0:0:0:
448,192,60296,1,0,0:0:0:0:
64,192,60456,1,0,0:0:0:0:
320,192,60615,1,0,0:0:0:40:Snare.wav
192,192,60935,128,0,61254:0:0:0:0:
448,192,61254,1,8,0:0:0:0:
64,192,61413,1,8,0:0:0:0:
320,192,61573,1,8,0:0:0:0:
192,192,61732,1,8,0:0:0:0:
448,192,61892,128,8,62371:0:0:0:0:
64,192,62371,128,2,62849:0:0:0:0:
192,192,62371,1,4,0:0:0:0:
320,192,62849,1,10,0:0:0:0:
64,192,63169,1,2,0:0:0:0:
448,192,63488,1,10,0:0:0:0:
192,192,63647,128,0,64126:0:0:0:60:Hat Open.wav
320,192,64126,1,10,0:0:0:0:
64,192,64445,1,2,0:0:0:0:
192,192,64764,1,10,0:0:0:0:
448,192,64924,128,0,65403:0:0:0:60:Hat Open.wav
64,192,65403,1,10,0:0:0:0:
448,192,65722,1,2,0:0:0:0:
192,192,66041,1,10,0:0:0:0:
320,192,66201,128,0,66679:0:0:0:60:Hat Open.wav
64,192,66679,1,10,0:0:0:0:
192,192,66998,1,2,0:0:0:0:
320,192,67318,1,10,0:0:0:0:
64,192,67477,1,8,0:0:0:0:
192,192,67637,1,4,0:0:0:0:
448,192,67637,1,2,0:0:0:0:
320,192,67956,1,10,0:0:0:0:
64,192,68275,1,2,0:0:0:0:
192,192,68594,1,10,0:0:0:0:
448,192,68913,1,2,0:0:0:0:
64,192,69232,1,10,0:0:0:0:
320,192,69552,128,2,69871:0:0:0:0:
192,192,69871,1,10,0:0:0:0:
448,192,70030,1,8,0:0:0:0:
64,192,70190,1,8,0:0:0:0:
320,192,70509,1,2,0:0:0:0:
192,192,70669,1,0,0:0:0:60:Tom2.wav
448,192,70988,1,2,0:0:0:0:
64,192,71147,1,8,0:0:0:0:
192,192,71307,1,2,0:0:0:0:
320,192,71307,1,4,0:0:0:0:
64,192,71626,1,8,0:0:0:0:
448,192,71786,1,8,0:0:0:0:
192,192,72105,1,8,0:0:0:0:
320,192,72264,1,0,0:0:0:60:Tom2.wav
64,192,72424,1,0,0:0:0:60:Tom3.wav
192,192,72584,1,2,0:0:0:0:
448,192,72584,128,4,73062:0:0:0:0:
64,192,73062,1,10,0:0:0:0:
320,192,73381,1,2,0:0:0:0:
448,192,73701,1,10,0:0:0:0:
192,192,73860,128,0,74339:0:0:0:60:Hat Open.wav
320,192,74339,1,10,0:0:0:0:
192,192,74658,1,2,0:0:0:0:
448,192,74977,1,10,0:0:0:0:
64,192,75137,128,0,75615:0:0:0:60:Hat Open.wav
320,192,75615,1,10,0:0:0:0:
192,192,75935,1,2,0:0:0:0:
64,192,76254,1,10,0:0:0:0:
320,192,76413,128,0,76732:0:0:0:60:Hat Open.wav
192,192,76732,1,8,0:0:0:0:
448,192,76892,1,8,0:0:0:0:
64,192,77211,128,2,77530:0:0:0:0:
192,192,77530,128,8,77849:0:0:0:0:
320,192,77849,128,4,78328:0:0:0:0:
448,192,77849,1,2,0:0:0:0:
64,192,78328,1,2,0:0:0:0:
448,192,78488,1,8,0:0:0:0:
192,192,78647,1,2,0:0:0:0:
320,192,78966,1,8,0:0:0:0:
64,192,79126,1,2,0:0:0:0:
192,192,79365,1,2,0:0:0:0:
320,192,79605,1,2,0:0:0:0:
448,192,79764,1,8,0:0:0:0:
64,192,80084,1,8,0:0:0:0:
192,192,80243,1,8,0:0:0:0:
320,192,80403,128,2,80881:0:0:0:0:
448,192,80403,1,4,0:0:0:0:
64,192,80881,1,2,0:0:0:0:
448,192,81041,1,8,0:0:0:0:
192,192,81360,128,0,81679:0:0:0:0:
320,192,81679,128,2,82318:0:0:0:0:
64,192,82318,1,8,0:0:0:0:
448,192,82477,1,0,0:0:0:60:Tom2.wav
192,192,82637,1,0,0:0:0:60:Tom3.wav
320,192,82796,1,0,0:0:0:60:Tom2.wav
64,192,82956,128,4,83754:0:0:0:0:
448,192,82956,1,2,0:0:0:0:
448,192,83754,1,0,0:0:0:60:Tom2.wav
192,192,83913,1,8,0:0:0:0:
320,192,84073,1,8,0:0:0:0:
64,192,84232,1,8,0:0:0:0:
448,192,84552,1,8,0:0:0:0:
192,192,84711,1,8,0:0:0:0:
320,192,85030,128,2,85509:0:0:0:0:
64,192,85509,128,2,85828:0:0:0:0:
448,192,85509,1,4,0:0:0:0:
192,192,85828,128,10,86147:0:0:0:0:
320,192,86147,128,2,86466:0:0:0:0:
64,192,86466,1,10,0:0:0:0:
448,192,86786,1,2,0:0:0:0:
64,192,86945,1,0,0:0:0:60:Hat Open.wav
320,192,87105,1,10,0:0:0:0:
192,192,87264,1,0,0:0:0:60:Hat Open.wav
448,192,87424,1,2,0:0:0:0:
64,192,87743,1,10,0:0:0:0:
320,192,88062,1,2,0:0:0:0:
192,192,88381,128,10,88701:0:0:0:0:
448,192,88701,128,2,89020:0:0:0:0:
64,192,89020,1,10,0:0:0:0:
320,192,89339,1,2,0:0:0:0:
64,192,89498,1,0,0:0:0:60:Hat Open.wav
448,192,89658,1,10,0:0:0:0:
192,192,89818,1,0,0:0:0:60:Hat Open.wav
320,192,89977,1,2,0:0:0:0:
64,192,90296,1,10,0:0:0:0:
192,192,90456,1,8,0:0:0:0:
320,192,90615,1,4,0:0:0:0:
448,192,90615,128,2,90935:0:0:0:0:
192,192,90935,128,10,91254:0:0:0:0:
320,192,91254,128,2,91573:0:0:0:0:
64,192,91573,1,10,0:0:0:0:
448,192,91892,1,2,0:0:0:0:
320,192,92052,1,0,0:0:0:60:Hat Open.wav
64,192,92211,1,10,0:0:0:0:
192,192,92371,1,0,0:0:0:60:Hat Open.wav
320,192,92530,1,2,0:0:0:0:
64,192,92849,1,10,0:0:0:0:
448,192,93169,128,0,93647:0:0:0:60:Tom1.wav
192,192,93647,128,2,94126:0:0:0:0:
320,192,94126,128,2,94445:0:0:0:0:
64,192,94445,128,2,95722:0:0:0:0:
320,192,95084,1,0,0:0:0:60:Tom3.wav
448,192,95722,1,0,0:0:0:60:Tom1.wav
192,192,95881,1,0,0:0:0:60:Tom1.wav
320,192,96201,1,0,0:0:0:60:Tom1.wav
64,192,96520,1,0,0:0:0:60:Tom1.wav
448,192,96679,1,0,0:0:0:60:Tom3.wav
192,192,96998,128,4,99552:0:0:0:0:
320,192,96998,1,2,0:0:0:0:
