osu file format v14

[General]
AudioFilename: audio.mp3
AudioLeadIn: 0
PreviewTime: 91549
Countdown: 0
SampleSet: Soft
StackLeniency: 0.5
Mode: 0
LetterboxInBreaks: 0
WidescreenStoryboard: 1

[Editor]
DistanceSpacing: 2.4
BeatDivisor: 4
GridSize: 32
TimelineZoom: 2.799999

[Metadata]
Title:Dance with Minotaurus
TitleUnicode:Dance with Minotaurus
Artist:Aqours
ArtistUnicode:Aqours
Creator:Sotarks
Version:SMOKELIND's Insane
Source:ラブライブ!サンシャイン!!
Tags:Love Live! Sunshine!! 未体験HORIZON Chika Takami 高海千歌 Anju Inami 伊波杏樹 Riko Sakurauchi 桜内梨子 Rikako Aida 逢田梨香子 Kanan Matsuura 松浦果南 Nanaka Suwa 諏訪ななか Dia Kurosawa 黒澤ダイヤ Arisa Komiya 小宮有紗 You Watanabe 渡辺 曜 Shuka Saitou 斉藤朱夏 Yoshiko Tsushima Yohane 津島善子 Aika Kobayashi 小林愛香 Hanamaru Kunikida 国木田花丸 Kanako Takatsuki 高槻かなこ Mari Ohara 小原鞠莉 Aina Suzuki 鈴木愛奈 Ruby 黒澤ルビィ Ai Furihata 降幡 愛 school idol project kowari smokelind akitoshi -laura- corinn japanese pop
BeatmapID:2276915
BeatmapSetID:1088997

[Difficulty]
HPDrainRate:4.7
CircleSize:3.7
OverallDifficulty:7.7
ApproachRate:9
SliderMultiplier:1.77
SliderTickRate:1

[Events]
//Background and Video events
0,0,"bg.jpg",0,0
//Break Periods
//Storyboard Layer 0 (Background)
//Storyboard Layer 1 (Fail)
//Storyboard Layer 2 (Pass)
//Storyboard Layer 3 (Foreground)
//Storyboard Layer 4 (Overlay)
//Storyboard Sound Samples

[TimingPoints]
-710,361.44578313253,4,2,22,82,1,0
735,-175.438596491229,4,2,22,62,0,0
3627,-149.253731343284,4,2,22,62,0,0
9410,-149.253731343284,4,2,22,72,0,0
12302,-129.87012987013,4,2,22,72,0,0
16458,-212.765957446809,4,2,22,62,0,0
17723,-212.765957446809,4,2,22,72,0,0
17904,-103.092783505155,4,2,22,82,0,0
26759,-114.942528735633,4,2,22,82,0,0
29470,-103.092783505155,4,2,22,82,0,0
41217,-114.942528735633,4,2,22,72,0,0
47000,-129.87012987013,4,2,22,62,0,0
70133,-103.092783505155,4,2,22,62,0,0
70494,-103.092783505155,4,2,22,82,0,0
70856,-103.092783505155,4,2,22,62,0,0
71217,-103.092783505155,4,2,22,82,0,0
71579,-103.092783505155,4,2,22,62,0,0
71940,-103.092783505155,4,2,22,82,0,0
72302,-103.092783505155,4,2,22,72,0,0
72844,-114.942528735633,4,2,22,72,0,0
75916,-103.092783505155,4,2,22,62,0,0
76277,-103.092783505155,4,2,22,82,0,0
76639,-103.092783505155,4,2,22,62,0,0
77000,-103.092783505155,4,2,22,82,0,0
77362,-103.092783505155,4,2,22,62,0,0
77723,-103.092783505155,4,2,22,82,0,0
78085,-103.092783505155,4,2,22,72,0,0
78627,-114.942528735633,4,2,22,72,0,0
87482,-103.092783505155,4,2,22,72,0,0
87753,-103.092783505155,4,2,22,5,0,0
87844,-103.092783505155,4,2,22,72,0,0
88115,-103.092783505155,4,2,22,5,0,0
88205,-103.092783505155,4,2,22,72,0,0
88476,-103.092783505155,4,2,22,5,0,0
88567,-103.092783505155,4,2,22,72,0,0
88838,-103.092783505155,4,2,22,5,0,0
88928,-103.092783505155,4,2,22,72,0,0
89199,-103.092783505155,4,2,22,5,0,0
89289,-103.092783505155,4,2,22,72,0,0
91657,361.44578313253,4,2,22,82,1,0
91657,-93.4579439252339,4,2,22,82,0,0
91837,361.44578313253,4,2,22,82,1,0
92559,-93.4579439252336,4,2,22,82,0,0
114969,-103.092783505155,4,2,22,72,0,0
121114,-93.4579439252339,4,2,22,72,0,0
123644,-114.942528735633,4,2,22,72,0,0

[Colours]
Combo1 : 58,203,164
Combo2 : 176,214,48

[HitObjects]
53,53,735,6,0,L|66:113,1,50.6467793842163,4|0,3:2|3:2,2:0:0:0:
168,164,1097,1,8,2:0:0:0:
168,164,1458,6,0,L|178:114,1,50.6467793842163,0|0,3:2|3:2,2:0:0:0:
287,60,1820,1,8,2:0:0:0:
287,60,2181,5,0,3:2:0:0:
362,93,2362,1,0,3:2:0:0:
268,215,2543,2,0,L|197:226,1,50.6467793842163,8|0,2:0|3:2,2:0:0:0:
121,143,2904,1,0,3:2:0:0:
79,217,3085,1,0,3:2:0:0:
183,317,3265,2,0,L|232:309,1,50.6467793842163,8|0,2:0|2:0,2:0:0:0:
415,292,3627,6,0,P|446:250|446:196,1,88.9701667928202,6|0,3:2|2:0,2:0:0:0:
424,188,3988,2,0,P|392:194|352:175,1,59.5321771952135,10|0,2:0|2:0,2:0:0:0:
286,88,4350,1,2,3:2:0:0:
286,88,4530,1,0,3:2:0:0:
313,215,4711,2,0,P|331:176|331:136,1,59.5321771952135,10|0,2:0|2:0,2:0:0:0:
194,240,5073,6,0,P|212:279|212:319,1,59.5321771952135,2|0,3:2|3:2,2:0:0:0:
99,216,5434,1,10,2:0:0:0:
99,216,5615,1,0,3:0:0:0:
211,128,5796,2,0,P|251:141|281:168,1,59.5321771952135,2|0,3:2|3:2,2:0:0:0:
359,258,6157,2,0,P|387:250|412:235,1,59.5321771952135,10|0,2:0|3:2,2:0:0:0:
451,79,6518,5,6,3:2:0:0:
451,79,6699,1,2,3:2:0:0:
373,164,6880,2,0,P|367:136|355:107,1,59.5321771952135,10|0,2:0|2:0,2:0:0:0:
220,67,7241,1,0,3:2:0:0:
220,67,7422,1,2,3:2:0:0:
298,152,7603,2,0,P|303:124|315:95,1,59.5321771952135,10|2,2:0|2:0,2:0:0:0:
186,57,7964,5,0,3:2:0:0:
186,57,8145,1,2,3:2:0:0:
152,227,8326,1,8,2:0:0:0:
152,227,8506,2,0,P|118:252|45:233,1,118.736255390427,2|0,2:0|3:2,2:0:0:0:
173,142,9049,1,10,2:0:0:0:
173,142,9229,1,4,2:3:0:0:
262,310,9410,6,0,P|299:340|356:340,1,88.9701667928202,6|0,3:2|2:0,2:0:0:0:
360,318,9771,2,0,P|350:285|348:252,1,59.5321771952135,10|0,2:0|2:0,2:0:0:0:
460,145,10133,1,2,3:2:0:0:
460,145,10314,1,0,3:2:0:0:
369,251,10494,2,0,P|365:221|356:193,1,59.5321771952135,10|0,2:0|2:0,2:0:0:0:
264,80,10856,5,2,3:2:0:0:
264,80,11036,1,0,3:2:0:0:
186,206,11217,2,0,P|163:226|121:233,1,59.5321771952135,10|0,2:0|3:2,2:0:0:0:
50,115,11579,2,0,P|78:123|100:142,1,59.5321771952135,2|0,2:0|3:2,2:0:0:0:
12,262,11940,2,0,P|28:222|29:183,1,59.5321771952135,8|4,2:0|2:3,2:0:0:0:
176,69,12302,6,0,P|206:51|249:51,2,68.2290441482468,12|0|0,2:0|3:2|3:2,2:0:0:0:
145,264,12844,1,12,2:0:0:0:
230,139,13024,1,0,3:2:0:0:
303,298,13205,1,0,3:2:0:0:
157,181,13386,6,0,P|123:183|94:201,2,68.2290441482468,12|0|0,2:0|3:2|3:2,2:0:0:0:
321,308,13928,1,12,2:0:0:0:
362,152,14109,1,0,3:2:0:0:
470,262,14289,1,0,3:2:0:0:
274,137,14470,6,0,L|284:219,1,68.4175786482468,12|0,2:0|3:2,2:0:0:0:
196,242,14741,1,0,3:2:0:0:
196,242,14832,2,0,L|204:174,1,68.4175786482468,8|0,2:0|3:2,2:0:0:0:
312,16,15193,5,12,2:0:0:0:
96,127,15374,1,8,2:0:0:0:
96,127,15735,5,12,2:0:0:0:
360,93,15916,1,8,2:0:0:0:
360,93,16277,5,12,2:0:0:0:
362,313,16458,2,0,B|198:260|349:183|155:142,1,270.528329874519,12|0,2:0|3:2,2:0:0:0:
103,190,17723,5,8,2:0:0:0:
103,190,17814,1,8,2:0:0:0:
103,190,17904,2,0,P|129:141|151:20,1,171.214995060661,6|2,3:2|3:2,2:0:0:0:
301,214,18446,1,10,2:0:0:0:
168,106,18627,1,2,2:0:0:0:
266,288,18808,2,0,P|305:311|364:303,1,85.8450020303307,2|0,3:2|3:0,2:0:0:0:
274,110,19169,2,0,P|231:111|196:137,1,85.8450020303307,8|2,2:0|3:2,2:0:0:0:
157,272,19530,5,2,2:0:0:0:
222,165,19711,1,2,3:2:0:0:
267,354,19892,1,10,2:0:0:0:
203,196,20073,1,2,2:0:0:0:
289,356,20253,1,2,3:2:0:0:
361,171,20434,5,2,3:1:0:0:
182,354,20615,1,10,2:1:0:0:
167,103,20796,6,0,P|120:65|25:105,1,171.690004060661,4|2,3:2|3:2,2:0:0:0:
132,243,21338,1,10,2:0:0:0:
242,133,21518,1,2,2:0:0:0:
43,202,21699,2,0,P|40:251|72:299,1,85.8450020303307,2|0,3:2|3:0,2:0:0:0:
261,218,22061,2,0,P|276:178|273:135,1,85.8450020303307,8|2,2:0|3:2,2:0:0:0:
409,54,22422,5,2,2:0:0:0:
308,148,22603,1,2,3:2:0:0:
490,215,22783,1,10,2:0:0:0:
406,93,22964,1,2,2:0:0:0:
359,300,23145,1,2,3:2:0:0:
207,113,23326,5,2,3:1:0:0:
414,187,23506,1,10,2:1:0:0:
193,320,23687,6,0,P|151:323|101:284,2,85.8450020303307,6|2|2,3:2|2:0|3:2,2:0:0:0:
219,139,24229,2,0,P|177:136|128:169,1,85.8450020303307,10|2,2:0|2:0,2:0:0:0:
200,298,24591,1,2,3:2:0:0:
330,158,24771,2,0,P|367:137|409:140,1,85.8450020303307,2|8,3:2|2:0,2:0:0:0:
389,328,25133,6,0,P|367:287|362:246,2,85.8450020303307,2|2|2,3:2|2:0|3:2,2:0:0:0:
424,159,25675,1,10,2:0:0:0:
256,125,25856,1,2,2:0:0:0:
446,132,26036,1,2,3:2:0:0:
274,144,26217,1,2,3:2:0:0:
399,5,26398,1,10,2:0:0:0:
360,225,26579,1,6,3:2:0:0:
194,64,26759,6,0,P|157:41|90:47,1,77.3029806461678,0|0,3:0|3:2,2:0:0:0:
45,225,27121,2,0,P|82:202|149:208,1,77.3029806461678,8|0,2:0|3:2,2:0:0:0:
198,56,27482,2,0,P|161:33|94:39,1,77.3029806461678,0|0,3:2|3:2,2:0:0:0:
49,217,27844,2,0,P|86:194|153:200,1,77.3029806461678,8|0,2:0|2:0,2:0:0:0:
258,287,28205,5,0,3:2:0:0:
258,287,28386,1,0,3:2:0:0:
346,133,28567,2,0,P|337:171|332:224,1,76.9950006461678,8|0,2:0|3:2,2:0:0:0:
191,335,28928,1,8,2:3:0:0:
191,335,29109,1,0,3:2:0:0:
103,181,29289,1,8,2:0:0:0:
264,372,29470,6,0,B|366:350|294:290|412:264,1,171.690004060661,6|2,3:2|3:2,2:0:0:0:
236,274,30012,1,10,2:0:0:0:
407,353,30193,1,2,2:0:0:0:
345,188,30374,2,0,P|334:218|329:279,1,86.1883820303307,2|0,3:2|3:0,2:0:0:0:
135,153,30735,2,0,P|131:110|118:69,1,86.1883820303307,8|2,2:0|3:2,2:0:0:0:
284,17,31097,5,2,2:0:0:0:
164,136,31277,1,2,3:2:0:0:
352,158,31458,1,10,2:0:0:0:
247,98,31639,1,2,2:0:0:0:
302,277,31820,1,2,3:2:0:0:
395,51,32000,5,2,3:1:0:0:
309,263,32181,1,10,2:1:0:0:
177,52,32362,6,0,P|209:116|225:235,1,171.901755060661,6|2,3:2|3:2,2:0:0:0:
83,351,32904,1,10,2:0:0:0:
186,218,33085,1,2,2:0:0:0:
52,357,33265,2,0,P|71:307|81:255,1,86.1883820303307,2|0,3:2|3:0,2:0:0:0:
284,163,33627,2,0,P|294:204|310:244,1,86.1883820303307,8|2,2:0|3:2,2:0:0:0:
419,335,33988,5,2,2:0:0:0:
291,260,34169,1,2,3:2:0:0:
466,161,34350,1,10,2:0:0:0:
377,256,34530,1,2,2:0:0:0:
308,89,34711,1,2,3:2:0:0:
280,341,34892,5,2,3:1:0:0:
391,126,35073,1,10,2:1:0:0:
210,292,35253,6,0,P|162:284|133:247,2,85.9508775303307,6|2|2,3:2|2:0|3:2,2:0:0:0:
133,162,35796,2,0,P|85:170|56:205,1,85.8450020303307,10|2,2:0|2:0,2:0:0:0:
238,223,36157,1,2,3:2:0:0:
230,45,36338,2,0,P|211:83|210:140,1,86.1883820303307,2|8,3:2|2:0,2:0:0:0:
335,280,36699,6,0,P|376:275|413:251,2,85.9508775303307,2|2|2,3:2|2:0|3:2,2:0:0:0:
295,110,37241,2,0,P|314:148|315:205,1,86.1883820303307,10|2,2:0|2:0,2:0:0:0:
201,91,37603,1,2,3:2:0:0:
357,199,37783,2,0,P|338:237|337:294,1,86.1883820303307,2|10,3:2|2:0,2:0:0:0:
410,89,38145,5,4,3:2:0:0:
247,207,38326,2,0,L|137:190,1,85.8450020303307,0|0,3:0|3:2,2:0:0:0:
316,88,38687,2,0,L|401:76,1,86.1883820303307,8|8,2:0|2:3,2:0:0:0:
242,223,39049,2,0,L|132:206,1,85.8450020303307,0|0,3:2|3:2,2:0:0:0:
311,104,39410,2,0,L|396:92,1,86.1883820303307,8|0,2:0|2:0,2:0:0:0:
486,278,39771,5,0,3:2:0:0:
486,278,39952,1,0,3:2:0:0:
422,108,40133,2,0,P|412:150|408:203,1,86.1883820303307,8|0,2:0|2:0,2:0:0:0:
266,376,40494,1,8,2:0:0:0:
450,265,40675,1,8,2:0:0:0:
222,245,40856,1,8,2:0:0:0:
441,293,41036,1,8,2:0:0:0:
200,238,41217,6,0,P|186:281|186:333,2,77.0899611461678,6|0|2,3:2|3:2|3:2,2:0:0:0:
76,127,41759,2,0,P|104:205|108:307,1,154.179922292336,2|0,3:2|3:2,2:0:0:0:
190,149,42302,1,2,3:2:0:0:
190,149,42482,1,2,3:2:0:0:
269,269,42663,5,2,3:2:0:0:
317,122,42844,1,8,2:0:0:0:
263,284,43024,2,0,P|231:308|177:304,2,77.0899611461678,2|2|10,3:2|3:2|2:0,2:0:0:0:
359,197,43567,1,0,3:2:0:0:
359,197,43657,1,0,3:2:0:0:
359,197,43747,2,0,P|394:208|417:238,1,77.3029806461678,2|10,3:2|2:0,2:0:0:0:
206,223,44109,6,0,P|192:180|192:128,2,77.0899611461678,6|2|0,3:2|3:2|3:2,2:0:0:0:
82,334,44651,2,0,P|110:256|114:154,1,154.179922292336,2|0,3:2|3:2,2:0:0:0:
227,63,45193,1,2,3:2:0:0:
227,63,45374,1,2,3:2:0:0:
290,223,45555,5,14,2:0:0:0:
334,106,45735,1,0,3:2:0:0:
334,106,45826,1,0,3:2:0:0:
334,106,45916,2,0,P|365:77|420:80,1,77.3029806461678,10|2,2:0|3:2,2:0:0:0:
493,240,46277,2,0,P|455:233|428:206,1,77.3029806461678,10|4,2:0|2:3,2:0:0:0:
449,134,46549,1,8,2:0:0:0:
449,134,46639,2,0,P|465:115|471:91,3,38.5094773230839,10|8|10|8,2:0|2:0|2:0|2:0,2:0:0:0:
390,59,47000,6,0,P|352:66|326:93,1,68.4175786482468,6|2,3:2|3:2,2:0:0:0:
269,200,47362,2,0,P|231:193|204:166,1,68.4175786482468,10|2,2:0|2:0,2:0:0:0:
110,94,47723,1,2,3:2:0:0:
110,94,47904,2,0,P|125:130|125:175,1,68.4175786482468,2|8,3:2|2:0,2:0:0:0:
13,252,48265,6,0,P|52:218|136:242,1,136.458088296494,2|0,2:0|3:2,2:0:0:0:
203,371,48808,2,0,P|239:371|270:346,1,68.1449986482468,10|0,2:0|2:0,2:0:0:0:
298,208,49169,2,0,P|283:263|276:352,1,136.458088296494,2|8,3:2|2:0,2:0:0:0:
208,223,49711,1,0,3:2:0:0:
389,192,49892,5,6,3:2:0:0:
389,192,50073,1,2,3:2:0:0:
191,149,50253,2,0,P|211:181|220:222,1,68.4175786482468,10|2,2:0|2:0,2:0:0:0:
331,96,50615,1,2,3:2:0:0:
331,96,50796,2,0,P|311:128|303:165,1,68.1449986482468,2|8,3:2|2:0,2:0:0:0:
210,42,51157,6,0,P|136:51|101:114,1,136.458088296494,2|2,2:0|3:2,2:0:0:0:
124,236,51699,2,0,P|146:199|151:156,1,68.1449986482468,10|0,2:0|2:0,2:0:0:0:
21,112,52061,2,0,P|29:144|47:173,2,68.1449986482468,2|0|8,3:2|3:2|2:0,2:0:0:0:
110,31,52603,1,0,3:2:0:0:
203,174,52783,5,6,3:2:0:0:
203,174,52964,1,2,3:2:0:0:
298,62,53145,1,10,2:0:0:0:
298,62,53326,1,2,2:0:0:0:
347,200,53506,1,2,3:2:0:0:
347,200,53687,2,0,P|376:230|423:236,1,68.4175786482468,2|8,3:2|2:0,2:0:0:0:
497,143,54049,6,0,P|482:176|478:217,1,68.1449986482468,2|0,2:0|3:2,2:0:0:0:
364,307,54410,2,0,P|378:337|383:375,1,68.1449986482468,2|8,3:2|2:0,2:0:0:0:
275,255,54771,2,0,P|260:285|255:320,1,68.1449986482468,2|0,2:0|3:2,2:0:0:0:
196,193,55133,2,0,P|171:166|117:150,1,68.4175786482468,2|8,3:2|2:0,2:0:0:0:
79,248,55494,1,2,3:2:0:0:
133,70,55675,6,0,P|100:81|75:103,2,68.2290441482468,6|0|10,3:2|3:2|2:0,2:0:0:0:
274,302,56398,2,0,P|307:291|332:269,2,68.2290441482468,2|0|10,3:2|3:2|2:0,2:0:0:0:
360,42,57121,6,0,L|349:127,2,68.2290441482468,2|0|10,3:2|3:2|2:0,2:0:0:0:
257,156,57663,1,0,2:0:0:0:
257,156,57844,2,0,L|268:241,2,68.2290441482468,2|0|10,3:2|3:2|2:0,2:0:0:0:
173,115,58386,1,0,3:2:0:0:
102,299,58567,6,0,P|78:326|21:339,1,68.1449986482468,6|2,3:2|3:2,2:0:0:0:
89,167,58928,2,0,P|119:181|141:207,1,68.4175786482468,10|0,2:0|2:0,2:0:0:0:
254,339,59289,1,2,3:2:0:0:
254,339,59470,2,0,P|287:332|314:312,1,68.4175786482468,2|8,3:2|2:0,2:0:0:0:
368,170,59832,6,0,L|360:257,1,68.1449986482468,2|0,2:0|3:2,2:0:0:0:
269,165,60193,1,2,3:2:0:0:
255,262,60374,2,0,L|248:194,1,68.1449986482468,10|0,2:0|3:2,2:0:0:0:
367,68,60735,2,0,P|440:91|459:179,1,136.458088296494,2|8,3:2|2:0,2:0:0:0:
425,271,61277,1,0,3:2:0:0:
297,138,61458,6,0,L|202:123,1,68.4175786482468,6|0,3:2|3:2,2:0:0:0:
129,272,61820,2,0,L|223:258,1,68.1449986482468,10|0,2:0|2:0,2:0:0:0:
75,195,62181,1,2,3:2:0:0:
75,195,62362,2,0,P|46:224|36:278,1,68.4175786482468,2|8,3:2|2:0,2:0:0:0:
178,166,62723,2,0,P|164:134|139:112,1,68.4175786482468,2|0,2:0|3:2,2:0:0:0:
42,54,63085,1,2,3:2:0:0:
189,49,63265,6,0,P|125:73|40:73,1,136.458088296494,10|2,2:0|3:2,2:0:0:0:
178,166,63808,1,0,3:2:0:0:
286,64,63988,2,0,P|272:98|266:143,1,68.4175786482468,8|0,2:0|3:2,2:0:0:0:
385,226,64350,6,0,L|462:202,2,68.2290441482468,6|2|10,3:2|3:2|2:0,2:0:0:0:
309,344,64892,1,2,2:0:0:0:
222,238,65073,1,2,3:2:0:0:
222,238,65253,2,0,L|145:214,1,68.4175786482468,2|8,3:2|2:0,2:0:0:0:
294,325,65615,6,0,P|308:288|308:248,1,68.4175786482468,2|0,2:0|3:2,2:0:0:0:
266,114,65976,2,0,P|268:147|281:179,1,68.4175786482468,2|8,3:2|2:0,2:0:0:0:
304,323,66338,2,0,P|318:286|318:246,1,68.4175786482468,2|0,2:0|3:2,2:0:0:0:
276,112,66699,2,0,P|278:145|291:177,1,68.4175786482468,2|8,3:2|2:0,2:0:0:0:
462,227,67061,1,2,3:2:0:0:
468,86,67241,6,0,P|434:86|391:123,1,68.4175786482468,6|0,3:2|3:0,2:0:0:0:
349,268,67603,2,0,P|319:284|286:284,1,68.4175786482468,10|0,2:0|3:2,2:0:0:0:
176,172,67964,1,2,3:2:0:0:
176,172,68145,1,0,3:2:0:0:
94,307,68326,2,0,L|84:221,1,68.1449986482468,10|0,2:0|3:2,2:0:0:0:
164,82,68687,6,0,P|207:82|244:114,1,68.4175786482468,6|0,3:2|3:2,2:0:0:0:
303,241,69049,2,0,P|336:243|367:228,1,68.1449986482468,14|0,2:0|2:0,2:0:0:0:
384,150,69320,1,8,2:0:0:0:
384,150,69410,2,0,L|389:103,1,34.2087893241234,10|8,2:0|2:0,2:0:0:0:
269,57,69591,2,0,L|272:90,1,34.2087893241234,10|8,2:0|2:0,2:0:0:0:
170,189,69771,2,0,L|173:155,3,34.0830996574567,8|8|4|4,2:3|2:3|2:3|2:3,2:0:0:0:
123,97,70133,6,0,P|88:74|24:81,1,86.1883820303307,6|0,3:2|2:0,2:0:0:0:
217,261,70494,2,0,P|259:259|294:236,1,86.1883820303307,10|0,2:0|2:0,2:0:0:0:
50,157,70856,2,0,P|72:207|76:258,1,86.1883820303307,2|0,3:2|2:0,2:0:0:0:
255,163,71217,2,0,P|262:120|281:82,1,86.1883820303307,10|0,2:0|2:0,2:0:0:0:
124,88,71579,2,0,P|89:65|27:72,1,85.8450020303307,2|0,3:2|2:0,2:0:0:0:
218,252,71940,2,0,P|260:250|295:227,1,86.1883820303307,10|0,2:0|2:0,2:0:0:0:
400,49,72302,5,2,3:2:0:0:
444,256,72482,1,2,3:2:0:0:
381,75,72663,1,10,2:0:0:0:
366,304,72844,6,0,P|457:340|505:306,1,154.179922292336,6|0,3:2|3:2,2:0:0:0:
359,184,73386,2,0,P|319:192|273:242,1,77.3029806461678,10|0,2:0|2:0,2:0:0:0:
243,343,73747,1,0,3:2:0:0:
233,156,73928,2,0,P|211:190|216:258,1,77.3029806461678,2|8,3:2|2:0,2:0:0:0:
266,345,74289,1,0,3:2:0:0:
122,224,74470,2,0,P|132:263|185:305,1,77.3029806461678,2|0,3:2|3:2,2:0:0:0:
277,173,74832,1,8,2:0:0:0:
115,138,75012,2,0,P|75:148|33:201,1,77.3029806461678,2|2,3:2|3:2,2:0:0:0:
207,226,75374,1,2,3:2:0:0:
260,29,75555,1,10,2:0:0:0:
296,201,75735,1,8,2:3:0:0:
131,30,75916,6,0,L|29:57,1,86.1883820303307,6|0,3:2|2:0,2:0:0:0:
290,171,76277,2,0,L|392:198,1,86.1883820303307,10|0,2:0|2:0,2:0:0:0:
137,47,76639,2,0,L|35:74,1,86.1883820303307,2|0,3:2|2:0,2:0:0:0:
296,188,77000,2,0,L|398:215,1,86.1883820303307,10|0,2:0|2:0,2:0:0:0:
141,67,77362,2,0,L|39:94,1,86.1883820303307,2|0,3:2|2:0,2:0:0:0:
300,208,77723,2,0,L|402:235,1,86.1883820303307,10|0,2:0|2:0,2:0:0:0:
229,95,78085,5,2,3:2:0:0:
175,315,78265,1,2,3:2:0:0:
242,120,78446,1,10,2:0:0:0:
377,340,78627,6,0,P|455:306|472:211,1,154.179922292336,6|0,3:2|3:2,2:0:0:0:
423,73,79169,2,0,P|381:80|346:114,1,77.3029806461678,10|0,2:0|2:0,2:0:0:0:
296,258,79530,1,0,3:2:0:0:
169,112,79711,2,0,P|211:119|246:153,1,77.3029806461678,2|8,3:2|2:0,2:0:0:0:
308,247,80073,1,0,3:2:0:0:
435,101,80253,2,0,P|393:108|358:142,1,77.7290196461678,2|0,3:2|3:2,2:0:0:0:
285,267,80615,1,8,2:0:0:0:
158,121,80796,2,0,P|200:128|235:161,1,76.9950006461678,2|2,3:2|3:2,2:0:0:0:
288,295,81157,1,2,3:2:0:0:
346,132,81338,1,10,2:0:0:0:
248,181,81518,1,8,2:3:0:0:
456,276,81699,6,0,P|442:196|439:131,1,115.528431969252,6|0,3:2|2:0,2:0:0:0:
420,84,82061,1,10,2:0:0:0:
360,224,82241,1,2,2:0:0:0:
271,100,82422,1,2,3:2:0:0:
271,100,82603,2,0,P|243:78|199:74,1,77.3029806461678,2|10,3:2|2:0,2:0:0:0:
122,245,82964,1,2,2:0:0:0:
212,152,83145,5,2,3:2:0:0:
241,307,83326,1,2,3:2:0:0:
112,158,83506,2,0,P|69:162|29:193,1,77.3029806461678,10|2,2:0|2:0,2:0:0:0:
162,265,83868,1,2,3:2:0:0:
227,119,84049,1,0,3:2:0:0:
339,287,84229,2,0,P|382:283|422:252,1,77.3029806461678,10|2,2:0|3:2,2:0:0:0:
440,50,84591,5,12,2:0:0:0:
359,205,84771,1,2,3:2:0:0:
313,33,84952,1,2,3:2:0:0:
232,214,85133,5,12,2:0:0:0:
375,165,85314,1,0,3:2:0:0:
209,99,85494,1,0,3:2:0:0:
248,318,85675,5,12,2:0:0:0:
253,180,85856,1,0,3:2:0:0:
111,246,86036,1,0,3:2:0:0:
334,349,86217,6,0,L|415:323,1,77.3029806461678,12|2,2:0|3:2,2:0:0:0:
455,133,86579,1,8,2:0:0:0:
351,310,86759,1,10,2:0:0:0:
351,310,86850,1,8,2:0:0:0:
351,310,86940,2,0,L|344:258,1,38.6514903230839,0|0,3:2|2:0,2:0:0:0:
326,86,87121,2,0,P|287:45|220:45,1,115.528431969252,10|0,2:0|2:0,2:0:0:0:
175,99,87482,6,0,P|191:152|191:257,1,128.807564045496,14|0,3:2|2:0,2:0:0:0:
166,298,87844,2,0,P|203:246|300:247,1,128.807564045496,14|0,3:2|2:0,2:0:0:0:
310,299,88205,2,0,P|364:331|453:291,1,128.807564045496,14|0,3:2|2:0,2:0:0:0:
458,248,88567,2,0,L|436:110,1,129.282573045496,14|0,3:2|2:0,2:0:0:0:
418,41,88928,2,0,P|409:101|328:144,1,128.807564045496,12|0,3:2|2:0,2:0:0:0:
294,84,89289,5,8,2:0:0:0:
240,252,89470,1,8,2:0:0:0:
166,55,89651,1,8,2:0:0:0:
245,231,89832,1,10,2:0:0:0:
299,67,90012,1,10,2:0:0:0:
93,185,90193,2,0,P|131:153|276:157,1,171.901755060661,14|0,2:0|3:2,2:0:0:0:
300,203,90645,1,0,3:2:0:0:
300,203,90735,2,0,P|290:227|286:252,3,42.9358546818321,8|8|8|8,2:0|2:0|2:3|2:3,2:0:0:0:
386,331,91097,1,8,2:0:0:0:
386,331,91187,1,8,2:0:0:0:
386,331,91277,2,0,P|377:311|372:290,2,43.0941910151654,8|8|0,2:0|2:0|3:2,2:0:0:0:
350,91,91657,6,0,P|318:63|243:68,1,95.073777110138,6|0,3:2|2:0,2:0:0:0:
184,246,92017,1,2,3:2:0:0:
405,178,92198,1,10,2:0:0:0:
224,149,92379,1,2,3:2:0:0:
442,255,92559,2,0,L|545:238,1,95.597756110138,10|0,2:0|3:2,2:0:0:0:
252,154,92921,2,0,L|158:169,1,95.073777110138,8|2,2:0|3:2,2:0:0:0:
29,325,93282,5,10,2:0:0:0:
80,157,93463,1,2,3:2:0:0:
172,335,93644,1,10,2:0:0:0:
73,188,93824,1,2,3:2:0:0:
145,338,94005,1,10,2:0:0:0:
220,69,94186,5,2,3:1:0:0:
179,314,94367,1,10,2:1:0:0:
89,66,94547,6,0,P|4:118|7:215,1,189.623575220276,6|2,3:2|3:2,2:0:0:0:
227,247,95090,1,10,2:0:0:0:
98,155,95270,1,2,3:2:0:0:
260,321,95451,2,0,P|312:306|345:255,1,95.073777110138,10|0,2:0|3:2,2:0:0:0:
320,90,95812,2,0,P|295:138|295:199,1,95.597756110138,8|2,2:0|3:2,2:0:0:0:
449,299,96174,5,10,2:0:0:0:
377,162,96355,1,2,3:2:0:0:
296,359,96535,1,10,2:0:0:0:
431,262,96716,1,2,3:2:0:0:
239,205,96897,1,10,2:0:0:0:
384,356,97077,5,2,3:1:0:0:
388,131,97258,1,10,2:1:0:0:
273,373,97439,6,0,P|175:328|83:308,1,189.623575220276,6|2,3:2|3:2,2:0:0:0:
8,109,97981,2,0,P|32:149|39:212,1,95.073777110138,10|2,2:0|3:2,2:0:0:0:
158,58,98343,1,10,2:0:0:0:
164,250,98523,2,0,P|129:276|54:270,1,95.073777110138,2|8,3:2|2:0,2:0:0:0:
164,86,98885,1,2,3:2:0:0:
265,255,99065,5,10,2:0:0:0:
287,92,99246,1,2,3:2:0:0:
173,277,99427,1,10,2:0:0:0:
357,235,99608,1,2,3:2:0:0:
161,157,99788,1,10,2:0:0:0:
346,212,99969,1,2,3:2:0:0:
149,287,100150,1,10,2:0:0:0:
294,111,100330,6,0,P|397:119|439:202,1,190.147554220276,6|0,3:2|3:2,2:0:0:0:
289,367,100873,2,0,P|245:345|172:335,1,95.073777110138,10|0,2:0|3:2,2:0:0:0:
66,180,101234,1,10,2:0:0:0:
116,319,101415,1,0,3:2:0:0:
201,133,101596,2,0,P|245:111|317:100,1,94.694997110138,10|0,2:0|3:2,2:0:0:0:
446,248,101957,6,0,P|418:202|409:129,1,95.073777110138,10|0,2:0|3:2,2:0:0:0:
225,310,102318,2,0,P|253:264|262:191,1,95.597756110138,10|0,2:0|3:2,2:0:0:0:
142,52,102680,1,10,2:0:0:0:
337,140,102861,1,0,3:2:0:0:
111,175,103041,1,10,2:0:0:0:
340,47,103222,6,0,P|296:135|296:251,1,189.623575220276,6|2,3:2|3:2,2:0:0:0:
121,44,103764,1,10,2:0:0:0:
273,126,103945,1,2,2:0:0:0:
116,266,104126,2,0,P|66:261|20:216,1,95.073777110138,2|0,3:2|3:0,2:0:0:0:
171,110,104487,2,0,P|217:113|255:141,1,95.073777110138,8|2,2:0|3:2,2:0:0:0:
312,347,104849,5,2,3:2:0:0:
349,189,105029,1,2,3:2:0:0:
173,289,105210,1,10,2:0:0:0:
343,216,105391,1,2,3:2:0:0:
157,147,105571,1,2,3:2:0:0:
317,323,105752,5,2,3:1:0:0:
377,89,105933,1,10,2:1:0:0:
192,271,106114,6,0,P|194:167|180:70,1,189.623575220276,6|2,3:2|3:2,2:0:0:0:
336,247,106656,1,10,2:0:0:0:
217,153,106837,1,2,3:2:0:0:
407,79,107017,2,0,P|386:126|386:185,1,95.073777110138,2|0,3:2|3:0,2:0:0:0:
236,354,107379,2,0,P|232:307|212:264,1,95.073777110138,8|2,2:0|3:2,2:0:0:0:
64,117,107740,5,2,3:2:0:0:
217,153,107921,1,2,3:2:0:0:
57,285,108102,1,10,2:0:0:0:
136,158,108282,1,2,3:2:0:0:
228,342,108463,1,2,3:2:0:0:
206,73,108644,5,2,3:1:0:0:
151,310,108824,1,10,2:1:0:0:
64,117,109005,5,4,3:2:0:0:
225,246,109186,2,0,L|332:221,1,95.073777110138,0|8,2:0|2:0,2:0:0:0:
493,180,109547,1,8,2:0:0:0:
254,98,109728,2,0,L|132:109,1,95.073777110138,12|0,2:0|2:0,2:0:0:0:
317,224,110090,1,8,2:0:0:0:
270,5,110270,1,8,2:0:0:0:
426,240,110451,6,0,P|466:270|539:258,1,95.073777110138,12|0,2:0|2:0,2:0:0:0:
349,142,110812,1,8,2:0:0:0:
275,340,110993,1,8,2:0:0:0:
193,147,111174,2,0,P|157:116|81:116,1,95.073777110138,12|0,2:0|2:0,2:0:0:0:
234,246,111535,1,8,2:0:0:0:
262,43,111716,1,8,2:0:0:0:
106,216,111897,1,12,2:0:0:0:
299,131,112077,5,8,3:2:0:0:
299,131,112168,1,8,2:0:0:0:
299,131,112258,2,0,L|291:192,1,47.536888555069,8|8,3:2|2:0,2:0:0:0:
417,253,112439,1,8,3:2:0:0:
417,253,112529,1,8,2:0:0:0:
417,253,112620,2,0,L|425:314,1,47.012909555069,8|8,2:0|2:0,2:0:0:0:
468,184,112800,2,0,P|443:166|391:165,3,47.3622288884023,8|8|8|8,2:0|2:0|3:2|2:0,2:0:0:0:
328,261,113162,2,0,P|305:267|281:265,3,47.3622288884023,8|8|8|8,2:0|2:0|2:0|2:0,2:0:0:0:
184,184,113523,5,8,3:2:0:0:
184,184,113614,1,8,2:0:0:0:
184,184,113704,2,0,P|197:212|197:246,1,47.536888555069,8|8,3:2|2:0,2:0:0:0:
119,100,113885,1,8,2:0:0:0:
146,81,113975,1,8,2:0:0:0:
178,74,114065,1,8,3:2:0:0:
210,78,114156,1,8,2:0:0:0:
239,94,114246,2,0,L|301:87,1,47.536888555069,8|8,2:3|2:3,2:0:0:0:
385,174,114427,2,0,L|323:166,1,47.536888555069,4|4,2:3|2:3,2:0:0:0:
435,45,114608,1,8,2:0:0:0:
358,255,114788,1,4,2:3:0:0:
421,69,114969,6,0,L|429:171,2,85.9508775303307,6|2|10,3:2|3:2|2:0,2:0:0:0:
272,30,115511,1,0,2:0:0:0:
272,30,115692,2,0,L|264:132,1,86.1883820303307,0|2,3:2|3:2,2:0:0:0:
154,270,116053,1,8,2:0:0:0:
154,270,116234,2,0,P|110:225|-12:201,1,171.901755060661,2|2,2:0|3:2,2:0:0:0:
215,143,116776,2,0,P|183:171|103:171,1,86.1883820303307,8|2,2:0|3:2,2:0:0:0:
72,141,117047,1,8,2:0:0:0:
72,141,117138,2,0,L|82:90,1,43.0941910151654,0|8,3:2|2:0,2:0:0:0:
205,33,117318,1,2,3:2:0:0:
217,240,117499,2,0,P|264:272|321:262,1,86.1883820303307,10|2,2:0|3:2,2:0:0:0:
392,119,117861,6,0,P|324:151|320:249,1,171.901755060661,6|10,3:2|2:0,2:0:0:0:
459,321,118403,1,0,2:0:0:0:
459,321,118583,1,0,3:2:0:0:
354,186,118764,1,2,3:2:0:0:
311,344,118945,2,0,P|275:367|213:367,1,86.1883820303307,10|2,2:0|2:0,2:0:0:0:
146,207,119306,5,0,3:2:0:0:
146,207,119487,2,0,P|174:246|176:291,1,86.1883820303307,2|8,3:2|2:0,2:0:0:0:
285,162,119849,1,2,3:2:0:0:
285,162,119939,1,8,2:0:0:0:
285,162,120029,2,0,P|257:201|255:246,1,86.1883820303307,0|2,3:2|3:2,2:0:0:0:
189,81,120391,2,0,P|152:59|79:68,1,86.1883820303307,10|0,2:0|3:2,2:0:0:0:
41,271,120752,5,14,2:0:0:0:
97,132,120933,1,0,3:2:0:0:
143,341,121114,2,0,L|245:320,1,95.073777110138,10|0,2:0|3:2,2:0:0:0:
383,161,121475,5,14,2:0:0:0:
312,304,121656,1,0,3:2:0:0:
266,95,121836,2,0,L|164:116,1,95.597756110138,10|0,2:0|3:2,2:0:0:0:
406,262,122198,5,10,2:0:0:0:
352,50,122379,1,0,3:2:0:0:
308,290,122559,5,10,2:0:0:0:
362,78,122740,1,0,3:2:0:0:
362,78,122830,1,8,2:0:0:0:
362,78,122921,2,0,L|464:99,1,95.073777110138,2|0,3:2|3:2,2:0:0:0:
512,266,123282,2,0,L|410:287,1,95.073777110138,8|0,2:0|3:2,2:0:0:0:
211,301,123644,6,0,P|175:269|162:215,2,77.0899611461678,12|8|4,2:0|2:3|2:3,2:0:0:0:
239,181,124186,1,0,3:2:0:0:
239,181,124367,2,0,P|204:151|140:152,1,77.3029806461678,0|8,3:2|2:0,2:0:0:0:
282,274,124728,5,0,3:2:0:0:
336,73,124909,1,8,2:0:0:0:
336,73,125270,5,8,2:0:0:0:
397,307,125451,1,12,2:0:0:0:
