osu file format v14

[General]
AudioFilename: audio.mp3
AudioLeadIn: 0
PreviewTime: 91549
Countdown: 0
SampleSet: Soft
StackLeniency: 0.7
Mode: 0
LetterboxInBreaks: 0
WidescreenStoryboard: 1

[Editor]
DistanceSpacing: 1
BeatDivisor: 4
GridSize: 4
TimelineZoom: 2.799999

[Metadata]
Title:Dance with Minotaurus
TitleUnicode:Dance with Minotaurus
Artist:Aqours
ArtistUnicode:Aqours
Creator:Sotarks
Version:Kowari's Hard
Source:ラブライブ!サンシャイン!!
Tags:Love Live! Sunshine!! 未体験HORIZON Chika Takami 高海千歌 Anju Inami 伊波杏樹 Riko Sakurauchi 桜内梨子 Rikako Aida 逢田梨香子 Kanan Matsuura 松浦果南 Nanaka Suwa 諏訪ななか Dia Kurosawa 黒澤ダイヤ Arisa Komiya 小宮有紗 You Watanabe 渡辺 曜 Shuka Saitou 斉藤朱夏 Yoshiko Tsushima Yohane 津島善子 Aika Kobayashi 小林愛香 Hanamaru Kunikida 国木田花丸 Kanako Takatsuki 高槻かなこ Mari Ohara 小原鞠莉 Aina Suzuki 鈴木愛奈 Ruby 黒澤ルビィ Ai Furihata 降幡 愛 school idol project kowari smokelind akitoshi -laura- corinn japanese pop
BeatmapID:2276914
BeatmapSetID:1088997

[Difficulty]
HPDrainRate:4
CircleSize:3.5
OverallDifficulty:6.5
ApproachRate:8
SliderMultiplier:1.4
SliderTickRate:1

[Events]
//Background and Video events
0,0,"bg.jpg",0,0
//Break Periods
//Storyboard Layer 0 (Background)
//Storyboard Layer 1 (Fail)
//Storyboard Layer 2 (Pass)
//Storyboard Layer 3 (Foreground)
//Storyboard Layer 4 (Overlay)
//Storyboard Sound Samples

[TimingPoints]
-710,361.44578313253,4,2,22,82,1,0
735,-125,4,2,22,62,0,0
3627,-111.111111111111,4,2,22,62,0,0
9410,-111.111111111111,4,2,22,72,0,0
9951,-111.111111111111,4,2,22,62,0,0
10133,-111.111111111111,4,2,22,72,0,0
16458,-111.111111111111,4,2,22,62,0,0
17723,-111.111111111111,4,2,22,72,0,0
17904,-100,4,2,22,72,0,0
41217,-111.111111111111,4,2,22,72,0,0
47000,-125,4,2,22,62,0,0
70133,-111.111111111111,4,2,22,62,0,0
70494,-111.111111111111,4,2,22,82,0,0
70856,-111.111111111111,4,2,22,62,0,0
71217,-111.111111111111,4,2,22,82,0,0
71579,-111.111111111111,4,2,22,62,0,0
71940,-111.111111111111,4,2,22,82,0,0
72302,-111.111111111111,4,2,22,72,0,0
73024,-111.111111111111,4,2,22,62,0,0
73205,-111.111111111111,4,2,22,72,0,0
75916,-111.111111111111,4,2,22,62,0,0
76277,-111.111111111111,4,2,22,82,0,0
76639,-111.111111111111,4,2,22,62,0,0
77000,-111.111111111111,4,2,22,82,0,0
77362,-111.111111111111,4,2,22,62,0,0
77723,-111.111111111111,4,2,22,82,0,0
78085,-111.111111111111,4,2,22,72,0,0
78808,-111.111111111111,4,2,22,62,0,0
78988,-111.111111111111,4,2,22,72,0,0
91657,361.44578313253,4,2,22,82,1,0
91657,-90.9090909090909,4,2,22,82,0,0
91837,361.44578313253,4,2,22,82,1,0
92559,-90.9090909090909,4,2,22,82,0,0
93192,-90.9090909090909,4,2,22,62,0,0
93282,-90.9090909090909,4,2,22,82,0,0
109186,-90.9090909090909,4,2,22,62,0,0
109367,-90.9090909090909,4,2,22,82,0,0
111355,-90.9090909090909,4,2,22,62,0,0
111535,-90.9090909090909,4,2,22,82,0,0
114879,-90.9090909090909,4,2,22,62,0,0
114969,-111.111111111111,4,2,22,72,0,0
116867,-111.111111111111,4,2,22,62,0,0
116957,-111.111111111111,4,2,22,72,0,0
119758,-111.111111111111,4,2,22,62,0,0
119849,-111.111111111111,4,2,22,72,0,0

[Colours]
Combo1 : 58,203,164
Combo2 : 176,214,48

[HitObjects]
81,328,735,6,0,L|159:322,1,56,4|0,3:2|3:2,0:2:0:0:
197,273,1097,2,0,P|204:242|196:215,1,56,8|0,0:2|0:0,0:2:0:0:
130,178,1458,1,0,3:2:0:0:
130,178,1639,1,0,3:2:0:0:
190,128,1820,2,0,L|283:126,1,84,8|0,0:2|3:2,0:0:0:0:
306,105,2181,6,0,P|339:93|367:101,1,56,0|0,3:2|3:2,0:2:0:0:
420,146,2543,1,8,0:2:0:0:
420,146,2723,2,0,L|410:268,1,112,0|0,3:2|3:2,0:0:0:0:
397,335,3265,2,0,P|443:349|482:336,1,84,8|0,0:2|0:2,0:2:0:0:
505,305,3627,6,0,L|500:234,1,62.9999980773926,6|0,3:2|3:2,0:2:0:0:
423,199,3988,2,0,L|346:211,1,62.9999980773926,10|0,0:2|0:0,0:2:0:0:
302,275,4350,1,2,3:2:0:0:
302,275,4530,1,0,3:2:0:0:
237,214,4711,2,0,P|224:177|235:137,1,62.9999980773926,10|0,0:2|0:2,0:0:0:0:
294,96,5073,5,2,3:2:0:0:
294,96,5253,1,0,3:2:0:0:
223,43,5434,2,0,L|143:50,1,62.9999980773926,10|0,0:2|0:2,0:0:0:0:
71,55,5796,2,0,B|57:85|57:85|66:127,1,62.9999980773926,2|0,3:2|3:2,0:0:0:0:
133,167,6157,2,0,B|139:196|139:196|125:226,1,62.9999980773926,10|0,0:2|3:2,0:0:0:0:
9,249,6518,5,6,3:2:0:0:
12,344,6699,1,2,3:2:0:0:
111,343,6880,2,0,P|147:337|218:329,1,94.499997116089,10|0,0:2|0:0,0:2:0:0:
244,307,7241,2,0,P|302:316|323:319,1,62.9999980773926,0|2,3:2|3:2,0:0:0:0:
388,269,7603,1,10,0:2:0:0:
388,269,7783,6,0,P|410:229|373:156,1,125.999996154785,2|2,0:2|3:2,0:2:0:0:
309,107,8326,1,8,0:2:0:0:
309,107,8506,2,0,P|358:65|434:81,1,125.999996154785,2|0,0:2|3:2,0:2:0:0:
505,91,9049,1,10,0:2:0:0:
501,184,9229,1,4,0:3:0:0:
388,242,9410,6,0,P|371:275|377:315,1,62.9999980773926,6|0,3:2|3:2,0:0:0:0:
443,351,9771,2,0,P|460:318|454:278,1,62.9999980773926,10|0,0:2|0:0,0:2:0:0:
367,384,10133,1,2,3:2:0:0:
367,384,10314,1,0,3:2:0:0:
289,343,10494,2,0,L|217:349,1,62.9999980773926,10|0,0:2|0:2,0:0:0:0:
157,292,10856,5,2,3:2:0:0:
157,292,11036,1,0,3:2:0:0:
231,237,11217,2,0,P|239:203|226:170,1,62.9999980773926,10|0,0:2|3:2,0:0:0:0:
166,114,11579,2,0,L|93:121,1,62.9999980773926,2|0,0:0|3:2,0:0:0:0:
6,132,11940,1,8,0:2:0:0:
0,36,12121,1,4,0:3:0:0:
122,8,12302,6,0,L|193:18,1,62.9999980773926,12|0,0:2|3:2,0:0:0:0:
280,27,12663,1,0,3:2:0:0:
341,98,12844,2,0,P|344:139|318:170,1,62.9999980773926,12|0,0:2|3:2,0:0:0:0:
235,170,13205,1,0,3:2:0:0:
148,213,13386,2,0,P|146:256|162:283,1,62.9999980773926,12|0,0:2|3:2,0:0:0:0:
198,354,13747,5,0,3:2:0:0:
249,277,13928,2,0,L|323:271,1,62.9999980773926,12|0,0:2|3:2,0:0:0:0:
365,196,14289,1,0,3:2:0:0:
420,278,14470,2,0,P|426:309|415:353,1,62.9999980773926,12|0,0:2|3:2,0:0:0:0:
421,339,14741,1,0,3:2:0:0:
421,339,14832,2,0,L|504:352,1,62.9999980773926,8|0,0:2|3:2,0:0:0:0:
512,268,15193,5,12,0:2:0:0:
512,268,15374,1,8,0:2:0:0:
399,139,15735,1,12,0:2:0:0:
399,139,15916,1,8,0:2:0:0:
282,274,16277,1,12,0:2:0:0:
282,274,16458,2,0,B|216:274|235:234|156:240,1,125.999996154785,12|0,0:2|0:0,0:2:0:0:
75,247,17000,2,0,L|84:287,3,31.4999990386963,0|0|0|0,3:0|3:0|3:0|3:0,0:0:0:0:
31,228,17362,2,0,L|24:197,2,31.4999990386963,0|0|0,3:0|3:0|3:0,0:0:0:0:
82,121,17723,5,8,0:2:0:0:
82,121,17814,1,8,0:2:0:0:
82,121,17904,2,0,P|133:96|212:138,1,140,6|2,3:2|3:2,0:2:0:0:
177,221,18446,1,10,0:2:0:0:
177,221,18627,1,2,0:2:0:0:
258,274,18808,2,0,L|343:259,1,70,2|0,3:2|3:0,0:2:0:0:
406,319,19169,1,8,0:2:0:0:
481,256,19350,5,2,3:2:0:0:
481,256,19530,2,0,P|491:212|482:183,1,70,2|2,0:2|3:2,0:0:0:0:
415,118,19892,1,10,0:2:0:0:
336,176,20073,1,2,0:2:0:0:
254,123,20253,2,0,L|261:44,1,70,2|2,3:2|3:1,0:0:0:0:
173,0,20615,1,10,0:1:0:0:
76,89,20796,6,0,B|89:147|89:147|79:171|79:171|96:230,1,140,4|2,3:2|3:2,0:2:0:0:
48,310,21338,1,10,0:2:0:0:
48,310,21518,1,2,0:2:0:0:
130,359,21699,2,0,P|179:356|203:339,1,70,2|0,3:2|3:0,0:2:0:0:
246,255,22061,1,8,0:2:0:0:
322,315,22241,5,2,3:2:0:0:
322,315,22422,2,0,L|400:328,1,70,2|2,0:2|3:2,0:0:0:0:
466,263,22783,1,10,0:2:0:0:
397,193,22964,1,2,0:2:0:0:
446,108,23145,2,0,P|485:93|515:100,1,70,2|2,3:2|3:1,0:0:0:0:
397,193,23506,1,10,0:1:0:0:
295,141,23687,6,0,B|244:138|244:138|215:152|215:152|150:149,1,140,6|2,3:2|3:2,0:0:0:0:
78,105,24229,2,0,P|68:59|81:25,1,70,10|2,0:2|0:2,0:0:0:0:
170,11,24591,1,2,3:2:0:0:
257,54,24771,2,0,L|336:63,1,70,2|8,3:2|0:2,0:2:0:0:
417,100,25133,5,2,3:2:0:0:
417,100,25314,2,0,P|430:138|422:173,1,70,2|2,0:2|3:2,0:0:0:0:
335,207,25675,2,0,P|322:245|330:280,1,70,10|2,0:2|0:2,0:0:0:0:
395,344,26036,1,2,3:2:0:0:
312,375,26217,2,0,L|227:365,1,70,2|10,3:2|0:2,0:0:0:0:
131,289,26579,6,0,P|113:236|162:152,1,140,6|0,3:2|3:2,0:2:0:0:
248,136,27121,1,8,0:2:0:0:
193,59,27302,2,0,L|198:10,2,35,0|0|0,3:2|3:2|3:2,0:0:0:0:
100,104,27663,1,0,3:2:0:0:
100,104,27844,2,0,L|12:92,1,70,8|0,0:2|0:2,0:2:0:0:
0,184,28205,6,0,P|-9:223|5:252,1,70,0|0,3:2|3:2,0:2:0:0:
83,314,28567,1,8,0:2:0:0:
170,258,28747,1,0,3:2:0:0:
170,258,28838,1,0,3:2:0:0:
170,258,28928,2,0,L|241:271,1,70,8|0,0:3|3:2,0:2:0:0:
336,230,29289,1,8,0:2:0:0:
243,129,29470,6,0,B|221:46|221:46|280:8,1,140,6|2,3:2|3:2,0:2:0:0:
367,17,30012,1,10,0:2:0:0:
367,17,30193,1,2,0:2:0:0:
432,89,30374,2,0,P|426:134|422:175,1,70,2|0,3:2|3:0,0:2:0:0:
486,233,30735,1,8,0:2:0:0:
402,284,30916,5,2,3:2:0:0:
402,284,31097,2,0,P|365:263|332:264,1,70,2|2,0:2|3:2,0:0:0:0:
265,328,31458,1,10,0:2:0:0:
181,276,31639,1,2,0:2:0:0:
117,350,31820,2,0,L|41:357,1,70,2|2,3:2|3:1,0:0:0:0:
0,271,32181,1,10,0:1:0:0:
128,230,32362,6,0,P|151:183|128:93,1,140,6|2,3:2|3:2,0:2:0:0:
47,47,32904,1,10,0:2:0:0:
47,47,33085,1,2,0:2:0:0:
133,7,33265,2,0,L|217:17,1,70,2|0,3:2|3:0,0:2:0:0:
289,67,33627,1,8,0:2:0:0:
213,132,33808,5,2,3:2:0:0:
213,132,33988,2,0,P|196:170|205:203,1,70,2|2,0:2|3:2,0:0:0:0:
290,239,34350,1,10,0:2:0:0:
369,182,34530,1,2,0:2:0:0:
454,230,34711,2,0,L|443:311,1,70,2|2,3:2|3:1,0:0:0:0:
369,182,35073,1,10,0:1:0:0:
473,125,35253,6,0,P|495:58|451:-11,1,140,6|2,3:2|3:2,0:0:0:0:
354,13,35796,2,0,L|270:22,1,70,10|2,0:2|0:2,0:0:0:0:
204,82,36157,1,2,3:2:0:0:
280,143,36338,2,0,P|294:183|283:217,1,70,2|8,3:2|0:2,0:2:0:0:
201,256,36699,5,2,3:2:0:0:
201,256,36880,2,0,L|124:245,1,70,2|2,0:2|3:2,0:0:0:0:
37,273,37241,2,0,P|19:321|33:353,1,70,10|2,0:2|0:2,0:0:0:0:
113,378,37603,1,2,3:2:0:0:
205,348,37783,2,0,L|280:352,1,70,2|10,3:2|0:2,0:0:0:0:
382,285,38145,5,4,3:2:0:0:
382,285,38326,2,0,P|400:241|394:212,1,70,0|0,3:0|3:2,0:0:0:0:
302,177,38687,2,0,L|191:189,1,105,8|4,0:2|0:3,0:2:0:0:
149,198,39049,2,0,L|75:189,1,70,0|0,3:2|3:2,0:0:0:0:
19,111,39410,1,8,0:2:0:0:
95,49,39591,5,0,3:2:0:0:
95,49,39681,1,0,3:0:0:0:
95,49,39771,2,0,P|138:43|166:59,1,70,0|0,3:2|3:2,0:2:0:0:
238,115,40133,2,0,P|281:121|309:105,1,70,8|0,0:2|0:2,0:2:0:0:
413,45,40494,5,8,0:2:0:0:
496,96,40675,1,8,0:2:0:0:
420,158,40856,1,8,0:2:0:0:
512,190,41036,1,8,0:2:0:0:
430,263,41217,6,0,L|356:278,1,62.9999980773926,6|0,3:2|3:2,0:0:0:0:
294,324,41579,2,0,L|232:311,1,62.9999980773926,2|2,3:2|3:2,0:0:0:0:
171,247,41940,2,0,P|164:199|201:124,1,125.999996154785,8|2,0:2|3:2,0:0:0:0:
267,80,42482,1,2,3:2:0:0:
196,27,42663,6,0,L|126:37,1,62.9999980773926,2|8,3:2|0:2,0:0:0:0:
45,25,43024,1,2,3:2:0:0:
45,25,43205,1,2,3:2:0:0:
2,102,43386,2,0,P|-3:137|12:170,1,62.9999980773926,10|0,0:2|3:2,0:0:0:0:
39,192,43657,1,0,3:2:0:0:
39,192,43747,2,0,P|54:227|44:258,1,62.9999980773926,2|10,3:2|0:2,0:0:0:0:
0,362,44109,5,6,3:2:0:0:
89,384,44289,1,2,3:2:0:0:
153,314,44470,1,0,3:2:0:0:
225,357,44651,2,0,L|297:364,1,62.9999980773926,2|8,3:2|0:2,0:2:0:0:
364,320,45012,1,0,3:2:0:0:
364,320,45193,2,0,P|378:278|371:253,1,62.9999980773926,2|2,3:2|3:2,0:0:0:0:
274,199,45555,6,0,L|193:210,1,62.9999980773926,14|0,0:2|3:2,0:0:0:0:
168,216,45826,1,0,3:2:0:0:
168,216,45916,2,0,P|156:179|161:142,1,62.9999980773926,10|2,0:2|3:2,0:0:0:0:
227,89,46277,1,10,0:2:0:0:
315,88,46458,2,0,L|362:97,4,31.4999990386963,4|8|10|8|10,0:3|0:2|0:2|0:2|0:2,0:2:0:0:
434,74,47000,6,0,P|436:114|429:137,1,56,6|2,3:2|3:2,0:2:0:0:
373,181,47362,2,0,P|361:220|366:241,1,56,10|2,0:2|0:2,0:2:0:0:
418,289,47723,1,2,3:2:0:0:
348,326,47904,2,0,L|284:316,1,56,2|8,3:2|0:2,0:0:0:0:
241,257,48265,2,0,P|208:239|125:253,1,112,2|0,0:2|3:2,0:2:0:0:
79,300,48808,2,0,L|86:363,1,56,10|0,0:2|0:2,0:2:0:0:
12,249,49169,2,0,L|21:193,1,56,2|0,3:2|3:2,0:2:0:0:
30,115,49530,1,8,0:2:0:0:
30,115,49711,1,0,3:2:0:0:
113,55,49892,6,0,P|150:49|173:56,1,56,6|2,3:2|3:2,0:0:0:0:
205,131,50253,2,0,P|232:135|259:129,1,56,10|2,0:2|0:2,0:0:0:0:
325,85,50615,1,2,3:2:0:0:
368,150,50796,2,0,L|357:213,1,56,2|8,3:2|0:2,0:0:0:0:
375,289,51157,2,0,P|420:299|494:265,1,112,2|2,0:2|3:2,0:2:0:0:
500,199,51699,2,0,L|492:138,1,56,10|0,0:2|0:2,0:2:0:0:
450,76,52061,1,2,3:2:0:0:
450,76,52241,1,0,3:2:0:0:
387,124,52422,2,0,P|354:134|323:127,1,56,8|0,0:2|3:2,0:0:0:0:
241,72,52783,6,0,L|168:64,1,56,6|2,3:2|3:2,0:0:0:0:
164,142,53145,2,0,L|219:148,1,56,10|2,0:2|0:2,0:0:0:0:
276,206,53506,1,2,3:2:0:0:
284,287,53687,2,0,P|245:300|221:299,1,56,2|8,3:2|0:2,0:2:0:0:
164,342,54049,6,0,L|46:323,1,112,2|2,0:2|3:2,0:2:0:0:
13,256,54591,1,8,0:2:0:0:
13,256,54771,2,0,P|34:225|39:201,1,56,2|0,0:2|3:2,0:2:0:0:
107,169,55133,2,0,P|86:138|81:114,1,56,2|8,3:2|0:2,0:2:0:0:
129,57,55494,1,2,3:2:0:0:
129,57,55675,6,0,P|182:63|206:65,1,56,6|0,3:2|3:2,0:0:0:0:
239,119,56036,2,0,P|292:113|316:111,1,56,10|4,0:2|0:3,0:0:0:0:
355,62,56398,1,2,3:2:0:0:
355,62,56579,1,0,3:2:0:0:
400,125,56759,2,0,P|405:156|399:183,1,56,10|0,0:2|3:2,0:2:0:0:
340,231,57121,5,2,3:2:0:0:
340,231,57302,1,0,3:2:0:0:
397,283,57482,2,0,L|466:278,1,56,10|0,0:2|0:0,0:2:0:0:
498,214,57844,1,2,3:2:0:0:
498,214,58024,1,0,3:2:0:0:
453,145,58205,2,0,L|459:80,1,56,10|0,0:2|3:2,0:0:0:0:
359,31,58567,6,0,P|323:21|289:25,1,56,6|2,3:2|3:2,0:2:0:0:
269,91,58928,2,0,P|223:111|157:99,1,112,10|2,0:2|3:2,0:2:0:0:
97,59,59470,2,0,L|105:-2,1,56,2|8,3:2|0:2,0:2:0:0:
20,89,59832,6,0,L|30:211,1,112,2|2,0:2|3:2,0:2:0:0:
94,261,60374,2,0,L|83:326,1,56,10|0,0:2|3:2,0:2:0:0:
160,371,60735,1,2,3:2:0:0:
160,371,60916,1,0,3:2:0:0:
227,331,61097,2,0,P|236:296|231:270,1,56,8|0,0:2|3:2,0:2:0:0:
166,189,61458,6,0,L|176:122,1,56,6|0,3:2|3:2,0:2:0:0:
240,76,61820,2,0,P|290:53|352:67,1,112,10|2,0:2|3:2,0:2:0:0:
399,135,62362,2,0,L|392:198,1,56,2|8,3:2|0:2,0:2:0:0:
446,256,62723,2,0,L|439:319,1,56,2|0,0:2|3:2,0:2:0:0:
376,358,63085,1,2,3:2:0:0:
376,358,63265,2,0,P|341:359|314:346,1,56,10|0,0:2|3:2,0:2:0:0:
294,277,63627,1,2,3:2:0:0:
294,277,63808,1,0,3:2:0:0:
208,287,63988,2,0,L|142:289,1,56,8|0,0:2|3:2,0:2:0:0:
87,199,64350,6,0,P|73:167|79:137,1,56,6|2,3:2|3:2,0:0:0:0:
1,120,64711,2,0,P|13:87|39:70,1,56,10|2,0:2|0:2,0:0:0:0:
99,23,65073,1,2,3:2:0:0:
165,75,65253,2,0,L|236:86,1,56,2|8,3:2|0:2,0:2:0:0:
307,60,65615,2,0,P|355:39|418:56,1,112,2|2,0:2|3:2,0:2:0:0:
479,112,66157,1,8,0:2:0:0:
412,168,66338,2,0,L|404:238,1,56,2|0,0:0|3:2,0:2:0:0:
331,249,66699,2,0,L|323:319,1,56,2|8,3:2|0:2,0:0:0:0:
373,378,67061,1,2,3:2:0:0:
484,319,67241,6,0,P|499:281|495:247,1,56,6|0,3:2|3:0,0:2:0:0:
423,227,67603,2,0,P|410:202|407:174,1,56,10|0,0:2|3:2,0:0:0:0:
474,114,67964,1,2,3:2:0:0:
474,114,68145,1,0,3:2:0:0:
402,61,68326,2,0,L|299:74,1,84,10|0,0:2|3:2,0:2:0:0:
283,88,68687,2,0,L|220:79,1,56,6|0,3:2|3:2,0:2:0:0:
150,64,69049,1,14,0:2:0:0:
47,182,69410,6,0,L|38:222,3,28,10|8|10|8,0:2|0:2|0:2|0:2,0:2:0:0:
60,243,69771,2,0,L|51:283,3,28,8|8|4|4,0:3|0:3|0:3|0:3,0:0:0:0:
45,314,70133,5,6,3:2:0:0:
220,297,70494,1,10,0:2:0:0:
45,314,70856,1,2,3:2:0:0:
220,297,71217,1,10,0:2:0:0:
45,314,71579,1,2,3:2:0:0:
220,297,71940,1,10,0:2:0:0:
395,285,72302,5,2,3:2:0:0:
326,229,72482,1,2,3:2:0:0:
408,197,72663,1,10,0:2:0:0:
360,122,72844,6,0,P|323:113|292:122,1,62.9999980773926,6|0,3:2|0:0,0:2:0:0:
243,186,73205,1,0,3:2:0:0:
243,186,73386,2,0,L|234:253,1,62.9999980773926,10|0,0:2|0:2,0:2:0:0:
310,304,73747,1,0,3:2:0:0:
310,304,73928,2,0,L|319:237,1,62.9999980773926,2|8,3:2|0:2,0:2:0:0:
399,207,74289,5,0,3:2:0:0:
399,207,74470,2,0,L|392:140,1,62.9999980773926,2|0,3:2|3:2,0:2:0:0:
460,87,74832,1,8,0:2:0:0:
460,87,75012,1,2,3:2:0:0:
394,27,75193,2,0,P|357:13|319:26,1,62.9999980773926,2|2,3:2|3:2,0:0:0:0:
289,93,75555,2,0,P|326:107|364:94,1,62.9999980773926,10|8,0:2|0:3,0:0:0:0:
242,23,75916,5,6,3:2:0:0:
215,197,76277,1,10,0:2:0:0:
242,23,76639,1,2,3:2:0:0:
215,197,77000,1,10,0:2:0:0:
242,23,77362,1,2,3:2:0:0:
215,197,77723,1,10,0:2:0:0:
183,370,78085,5,2,3:2:0:0:
131,299,78265,1,2,3:2:0:0:
56,346,78446,1,10,0:2:0:0:
5,273,78627,6,0,P|3:227|17:203,1,62.9999980773926,6|0,3:2|0:0,0:2:0:0:
91,178,78988,1,0,3:2:0:0:
91,178,79169,2,0,L|81:108,1,62.9999980773926,10|0,0:2|0:2,0:2:0:0:
162,75,79530,1,0,3:2:0:0:
162,75,79711,2,0,L|172:145,1,62.9999980773926,2|8,3:2|0:2,0:2:0:0:
235,206,80073,5,0,3:2:0:0:
235,206,80253,2,0,L|225:276,1,62.9999980773926,2|0,3:2|3:2,0:2:0:0:
258,350,80615,1,8,0:2:0:0:
258,350,80796,1,2,3:2:0:0:
345,350,80976,2,0,P|364:318|362:282,1,62.9999980773926,2|2,3:2|3:2,0:0:0:0:
449,266,81338,2,0,P|439:229|412:205,1,62.9999980773926,10|8,0:2|0:3,0:0:0:0:
307,221,81699,5,6,3:2:0:0:
307,221,81880,1,0,3:2:0:0:
281,137,82061,2,0,L|289:66,1,62.9999980773926,10|2,0:2|0:2,0:0:0:0:
222,15,82422,1,2,3:2:0:0:
222,15,82603,1,2,3:2:0:0:
147,61,82783,2,0,P|132:96|136:127,1,62.9999980773926,10|2,0:2|0:2,0:0:0:0:
194,185,83145,5,2,3:2:0:0:
194,185,83326,1,2,3:2:0:0:
130,245,83506,2,0,L|57:238,1,62.9999980773926,10|2,0:2|0:2,0:0:0:0:
10,307,83868,1,2,3:2:0:0:
10,307,84049,1,0,3:2:0:0:
72,369,84229,2,0,L|148:363,1,62.9999980773926,10|2,0:2|3:2,0:0:0:0:
241,292,84591,5,12,0:2:0:0:
306,350,84771,2,0,P|346:361|379:351,1,62.9999980773926,2|2,3:2|3:2,0:0:0:0:
428,294,85133,1,12,0:2:0:0:
365,231,85314,2,0,L|363:156,1,62.9999980773926,0|0,3:2|3:2,0:0:0:0:
416,97,85675,1,12,0:2:0:0:
483,161,85856,2,0,P|493:197|482:229,1,62.9999980773926,0|0,3:2|3:2,0:0:0:0:
431,295,86217,5,12,0:2:0:0:
360,351,86398,2,0,L|297:350,1,62.9999980773926,0|10,3:2|0:2,0:2:0:0:
212,304,86759,2,0,L|153:314,2,31.4999990386963,10|8|0,0:2|0:2|3:2,0:0:0:0:
298,246,87121,2,0,P|306:201|294:173,1,62.9999980773926,10|0,0:2|0:2,0:2:0:0:
233,114,87482,5,14,0:2:0:0:
58,86,87844,1,14,0:2:0:0:
32,273,88205,1,14,0:2:0:0:
207,301,88567,1,14,0:2:0:0:
146,135,88928,5,0,3:2:0:0:
146,135,89109,1,0,3:2:0:0:
193,61,89289,2,0,P|229:47|261:52,1,62.9999980773926,8|8,0:2|0:2,0:0:0:0:
334,13,89651,2,0,P|369:28|388:54,1,62.9999980773926,8|10,0:2|0:2,0:0:0:0:
463,86,90012,1,10,0:2:0:0:
356,170,90193,6,0,B|294:164|309:124|226:129,1,125.999996154785,14|0,0:2|3:2,0:2:0:0:
167,180,90735,2,0,L|173:241,3,31.4999990386963,8|8|8|8,0:2|0:2|0:3|0:3,0:2:0:0:
139,243,91097,2,0,L|145:304,3,31.4999990386963,8|8|8|8,0:2|0:2|0:2|0:2,0:0:0:0:
110,305,91458,1,0,3:2:0:0:
254,356,91657,6,0,B|347:330|347:330|380:338|400:361,1,154.000004699707,6|2,3:2|3:2,0:2:0:0:
499,318,92198,1,10,0:2:0:0:
428,230,92379,1,2,3:2:0:0:
508,150,92559,2,0,P|512:108|487:60,1,77.0000023498536,10|0,0:2|3:2,0:0:0:0:
402,30,92921,2,0,L|313:46,1,77.0000023498536,8|2,0:2|3:2,0:0:0:0:
287,77,93192,5,0,3:0:0:0:
287,77,93282,2,0,L|203:63,1,77.0000023498536,10|2,0:2|3:2,0:0:0:0:
113,117,93644,1,10,0:2:0:0:
180,201,93824,1,2,3:2:0:0:
102,275,94005,2,0,P|57:288|15:265,1,77.0000023498536,10|2,0:2|3:1,0:0:0:0:
0,171,94367,1,10,0:1:0:0:
127,126,94547,6,0,B|211:120|178:172|284:166,1,154.000004699707,6|2,3:2|3:2,0:2:0:0:
356,106,95090,1,10,0:2:0:0:
448,152,95270,1,2,3:2:0:0:
368,225,95451,2,0,P|352:265|363:306,1,77.0000023498536,10|0,0:2|3:2,0:0:0:0:
264,364,95812,2,0,L|174:351,1,77.0000023498536,8|2,0:2|3:2,0:0:0:0:
93,287,96174,5,10,0:2:0:0:
173,214,96355,1,2,3:2:0:0:
116,122,96535,2,0,B|85:105|85:105|46:121,1,77.0000023498536,10|2,0:2|3:2,0:0:0:0:
173,214,96897,2,0,B|204:231|204:231|243:215,1,77.0000023498536,10|2,0:2|3:1,0:0:0:0:
287,112,97258,1,10,0:1:0:0:
408,78,97439,6,0,L|494:94,2,77.0000023498536,6|2|2,3:2|0:0|3:2,0:2:0:0:
316,23,97981,2,0,P|272:19|236:35,1,77.0000023498536,10|2,0:2|3:2,0:0:0:0:
195,128,98343,1,10,0:2:0:0:
250,218,98523,2,0,L|237:301,1,77.0000023498536,2|8,3:2|0:2,0:0:0:0:
333,358,98885,1,2,3:2:0:0:
432,303,99065,6,0,P|444:253|439:219,1,77.0000023498536,10|2,0:2|3:2,0:0:0:0:
338,195,99427,2,0,P|326:145|331:111,1,77.0000023498536,10|2,0:2|3:2,0:0:0:0:
288,19,99788,1,10,0:2:0:0:
202,85,99969,2,0,L|107:78,1,77.0000023498536,2|10,3:2|0:2,0:0:0:0:
17,146,100330,6,0,B|35:178|63:188|63:188|45:291,1,154.000004699707,6|0,3:2|3:2,0:2:0:0:
121,356,100873,2,0,P|178:368|205:358,1,77.0000023498536,10|0,0:2|3:2,0:0:0:0:
256,278,101234,2,0,L|246:194,1,77.0000023498536,10|0,0:2|3:2,0:0:0:0:
310,111,101596,1,10,0:2:0:0:
419,119,101776,1,0,3:2:0:0:
446,221,101957,6,0,P|411:247|365:244,1,77.0000023498536,10|0,0:2|3:2,0:0:0:0:
279,205,102318,2,0,P|241:208|211:232,1,77.0000023498536,10|0,0:2|3:2,0:0:0:0:
114,279,102680,2,0,L|101:197,1,77.0000023498536,10|0,0:2|3:2,0:0:0:0:
36,117,103041,1,10,0:2:0:0:
140,43,103222,6,0,B|202:53|202:53|229:81|229:81|293:90,1,154.000004699707,6|2,3:2|3:2,0:2:0:0:
379,49,103764,1,10,0:2:0:0:
410,147,103945,1,2,0:2:0:0:
312,190,104126,2,0,P|294:234|303:264,1,77.0000023498536,2|0,3:2|3:0,0:2:0:0:
384,330,104487,2,0,L|477:323,1,77.0000023498536,8|2,0:2|3:2,0:0:0:0:
500,218,104849,5,2,3:2:0:0:
406,164,105029,1,2,3:2:0:0:
483,88,105210,2,0,P|491:42|482:7,1,77.0000023498536,10|2,0:2|3:2,0:0:0:0:
376,0,105571,1,2,3:2:0:0:
316,89,105752,2,0,L|227:82,1,77.0000023498536,2|10,3:1|0:1,0:0:0:0:
137,175,106114,6,0,P|102:236|125:319,1,154.000004699707,6|2,3:2|3:2,0:2:0:0:
222,350,106656,1,10,0:2:0:0:
309,287,106837,1,2,3:2:0:0:
295,168,107017,2,0,L|288:88,1,77.0000023498536,2|0,3:2|3:0,0:2:0:0:
366,15,107379,2,0,P|419:1|450:9,1,77.0000023498536,8|2,0:2|3:2,0:0:0:0:
495,97,107740,5,2,3:2:0:0:
418,172,107921,1,2,3:2:0:0:
493,249,108102,2,0,L|499:337,1,77.0000023498536,10|2,0:2|3:2,0:0:0:0:
409,384,108463,1,2,3:2:0:0:
354,290,108644,2,0,P|312:273|273:278,1,77.0000023498536,2|10,3:1|0:1,0:0:0:0:
197,381,109005,5,4,3:2:0:0:
131,281,109186,2,0,L|145:197,1,77.0000023498536,0|8,0:0|0:2,0:0:0:0:
151,97,109547,1,8,0:2:0:0:
47,41,109728,2,0,P|4:80|22:172,1,154.000004699707,12|8,0:2|0:2,0:0:0:0:
121,215,110270,1,8,0:2:0:0:
217,147,110451,6,0,B|283:140|283:140|313:154|313:154|374:144,1,154.000004699707,12|8,0:2|0:2,0:0:0:0:
459,200,110993,1,8,0:2:0:0:
416,314,111174,2,0,P|373:326|326:308,1,77.0000023498536,12|0,0:2|0:0,0:0:0:0:
276,235,111535,1,8,0:2:0:0:
190,291,111716,2,0,L|204:373,1,77.0000023498536,8|12,0:2|0:2,0:0:0:0:
92,236,112077,6,0,L|40:240,3,38.5000011749268,8|8|8|8,3:2|0:2|3:2|0:2,0:0:0:0:
131,198,112439,2,0,L|183:202,3,38.5000011749268,8|8|8|8,3:2|0:2|0:2|0:2,0:0:0:0:
95,154,112800,2,0,L|43:158,3,38.5000011749268,8|8|8|8,0:2|0:2|3:2|0:2,0:0:0:0:
134,116,113162,2,0,L|186:120,3,38.5000011749268,8|8|8|8,0:2|0:2|0:2|0:2,0:0:0:0:
94,74,113523,2,0,L|42:78,3,38.5000011749268,8|8|8|8,3:2|0:2|3:2|0:2,0:0:0:0:
133,36,113885,2,0,L|185:40,3,38.5000011749268,8|8|8|8,0:2|0:2|3:2|0:2,0:0:0:0:
223,22,114246,2,0,L|276:11,3,38.5000011749268,8|8|4|4,0:3|0:3|0:3|0:3,0:2:0:0:
307,40,114608,2,0,L|344:47,3,38.5000011749268,8|8|4|0,0:2|0:3|0:3|0:0,0:2:0:0:
390,65,114969,5,6,3:2:0:0:
472,32,115150,1,2,3:2:0:0:
502,114,115330,2,0,P|476:152|381:157,1,125.999996154785,10|0,0:2|3:2,0:2:0:0:
324,122,115873,1,2,3:2:0:0:
324,122,116053,1,8,0:2:0:0:
269,191,116234,6,0,L|283:262,1,62.9999980773926,2|0,0:2|3:2,0:2:0:0:
210,306,116596,2,0,L|195:230,1,62.9999980773926,2|8,3:2|0:0,0:0:0:0:
169,159,116957,2,0,P|113:137|49:188,1,125.999996154785,0|0,3:0|3:0,0:0:0:0:
24,249,117499,1,10,0:2:0:0:
24,249,117680,1,0,3:0:0:0:
143,287,117861,6,0,L|212:291,1,62.9999980773926,6|2,3:2|3:2,0:2:0:0:
272,357,118222,2,0,P|344:377|399:340,1,125.999996154785,10|0,0:2|3:2,0:2:0:0:
433,278,118764,1,2,3:2:0:0:
433,278,118945,1,10,0:2:0:0:
357,216,119126,6,0,L|368:138,1,62.9999980773926,2|0,0:2|3:2,0:2:0:0:
377,64,119487,2,0,P|428:61|453:77,1,62.9999980773926,0|8,3:0|0:0,0:0:0:0:
502,135,119849,2,0,L|485:273,1,125.999996154785,0|0,3:0|3:0,0:0:0:0:
409,324,120391,1,8,0:0:0:0:
409,324,120571,1,0,3:2:0:0:
278,365,120752,6,0,P|241:379|212:375,1,62.9999980773926,14|0,0:2|3:2,0:0:0:0:
171,300,121114,2,0,P|142:287|110:287,1,62.9999980773926,10|0,0:2|3:2,0:0:0:0:
18,298,121475,2,0,L|2:202,1,94.499997116089,14|0,0:2|3:0,0:0:0:0:
39,179,121836,2,0,B|71:173|71:173|105:186,1,62.9999980773926,10|0,0:2|3:2,0:0:0:0:
194,195,122198,5,10,0:2:0:0:
257,130,122379,1,0,3:2:0:0:
236,44,122559,2,0,P|277:36|336:61,1,94.499997116089,10|8,0:2|0:2,0:0:0:0:
351,88,122921,2,0,L|339:149,1,62.9999980773926,2|0,3:2|3:2,0:0:0:0:
300,229,123282,2,0,L|312:290,1,62.9999980773926,8|0,0:2|3:2,0:0:0:0:
412,355,123644,6,0,P|425:326|427:290,1,62.9999980773926,12|8,0:2|0:3,0:0:0:0:
512,271,124005,2,0,P|500:242|476:215,1,62.9999980773926,4|0,0:3|3:2,0:0:0:0:
400,157,124367,1,0,3:2:0:0:
309,145,124547,2,0,P|281:160|258:181,1,62.9999980773926,8|0,0:2|3:2,0:0:0:0:
251,278,124909,5,8,0:2:0:0:
95,202,125270,1,8,0:2:0:0:
95,202,125451,1,12,0:2:0:0:
