osu file format v14

[General]
AudioFilename: audio.mp3
AudioLeadIn: 0
PreviewTime: 55340
Countdown: 0
SampleSet: Soft
StackLeniency: 0.7
Mode: 0
LetterboxInBreaks: 0
WidescreenStoryboard: 0

[Editor]
Bookmarks: 1294,11191,21087,40881,45830,55727,85417,96551
DistanceSpacing: 0.5
BeatDivisor: 4
GridSize: 8
TimelineZoom: 2

[Metadata]
Title:Bouken Type A, B, C!!
TitleUnicode:冒険Type A, B, C‼
Artist:Aqours
ArtistUnicode:Aqours
Creator:Sotarks
Version:Sunshine
Source:ラブライブ!サンシャイン!!
Tags:Love Live! Sunshine!! school idol project yuki Chika Takami 高海千歌 Anju Inami 伊波杏樹 Riko Sakurauchi 桜内梨子 Rikako Aida 逢田梨香子 Kanan Matsuura 松浦果南 Nanaka Suwa 諏訪ななか Dia Kurosawa 黒澤ダイヤ Arisa Komiya 小宮有紗 You Watanabe 渡辺 曜 Shuka Saitou 斉藤朱夏 Yoshiko Tsushima Yohane 津島善子 Aika Kobayashi 小林愛香 Hanamaru Kunikida 国木田花丸 Kanako Takatsuki 高槻かなこ Mari Ohara 小原鞠莉 Aina Suzuki 鈴木愛奈 Ruby 黒澤ルビィ Ai Furihata 降幡 愛 female vocalist japanese Serizawa Haruki Jack J_a_c_k Kowari Kiyoshi Guarden SMOKELIND Adventure
BeatmapID:2151912
BeatmapSetID:1029085

[Difficulty]
HPDrainRate:5.2
CircleSize:3.8
OverallDifficulty:9.2
ApproachRate:9.4
SliderMultiplier:1.92
SliderTickRate:1

[Events]
//Background and Video events
0,0,"bg.jpg",0,0
//Break Periods
//Storyboard Layer 0 (Background)
//Storyboard Layer 1 (Fail)
//Storyboard Layer 2 (Pass)
//Storyboard Layer 3 (Foreground)
//Storyboard Layer 4 (Overlay)
//Storyboard Sound Samples

[TimingPoints]
57,309.278350515464,4,2,22,52,1,0
1139,-121.951219512195,4,2,22,52,0,0
1294,-138.888888888889,4,2,22,62,0,0
10881,-81.9672131147541,4,2,22,62,0,0
11191,-98.0392156862745,4,2,22,72,0,0
21087,-108.695652173913,4,2,22,62,0,0
29593,-98.0392156862745,4,2,22,72,0,0
35933,-121.951219512195,4,2,22,62,0,0
36242,-81.9672131147541,4,2,22,62,0,0
36861,-98.0392156862745,4,2,22,62,0,0
37170,-121.951219512195,4,2,22,62,0,0
37479,-81.9672131147541,4,2,22,62,0,0
38407,-98.0392156862745,4,2,22,62,0,0
40881,-108.695652173913,4,2,22,62,0,0
45830,-98.0392156862745,4,2,22,62,0,0
54953,-81.9672131147541,4,2,22,72,0,0
55727,-89.2857142857143,4,2,22,82,0,0
63459,-81.9672131147541,4,2,22,82,0,0
63768,-75.7575757575758,4,2,22,82,0,0
64077,-70.4225352112676,4,2,22,82,0,0
65160,-89.2857142857143,4,2,22,82,0,0
82943,-161.290322580645,4,2,22,82,0,0
85417,-98.0392156862745,4,2,22,72,0,0
96706,-1000,4,2,22,72,0,0
96783,-1000,4,2,22,5,0,0

[Colours]
Combo1 : 47,107,136
Combo2 : 255,102,0
Combo3 : 255,245,128
Combo4 : 238,53,85

[HitObjects]
69,96,1139,6,0,L|79:153,1,39.522688,0|0,1:0|1:0,2:0:0:0:
99,271,1294,2,0,B|287:224|176:349|387:295,1,276.728832,6|0,1:2|2:0,2:0:0:0:
447,254,2067,2,0,P|380:254|303:214,1,138.364416,0|0,2:0|2:0,2:0:0:0:
220,88,2531,2,0,P|138:17|83:152,1,276.728832,2|0,2:0|2:0,2:0:0:0:
159,255,3304,1,0,2:0:0:0:
315,211,3459,1,2,3:2:0:0:
331,44,3613,1,2,2:0:0:0:
216,170,3768,6,0,B|195:257|204:365|204:365|208:320|239:280,1,276.728832,6|0,1:2|2:0,2:0:0:0:
315,211,4541,2,0,P|355:259|447:251,1,138.364416,0|0,2:0|2:0,2:0:0:0:
415,98,5005,2,0,P|338:127|250:123,1,138.364416,2|0,2:0|3:2,2:0:0:0:
190,62,5469,2,0,P|185:106|179:146,1,69.405696,8|0,2:3|2:0,2:0:0:0:
64,104,5778,2,0,P|67:138|72:172,1,69.405696,4|0,2:3|2:0,2:0:0:0:
154,256,6087,1,4,2:3:0:0:
28,338,6242,6,0,B|172:346|77:284|238:286,1,207.770112,6|0,1:2|2:0,2:0:0:0:
331,348,6861,2,0,P|336:279|360:182,1,138.364416,0|2,1:2|3:2,2:0:0:0:
397,125,7325,1,2,2:0:0:0:
284,27,7479,2,0,P|247:88|106:84,1,207.770112,6|0,1:2|2:0,2:0:0:0:
20,29,8098,2,0,P|25:123|6:252,1,207.770112,0|2,1:2|2:0,2:0:0:0:
121,95,8716,5,10,2:0:0:0:
213,201,8871,1,0,1:2:0:0:
273,71,9026,1,0,1:2:0:0:
131,214,9180,5,10,2:0:0:0:
326,292,9335,1,0,1:2:0:0:
203,120,9489,1,0,1:2:0:0:
149,351,9644,5,10,2:0:0:0:
369,175,9799,1,0,1:2:0:0:
87,290,9953,1,0,1:2:0:0:
194,25,10108,5,10,2:0:0:0:
326,292,10263,1,0,1:2:0:0:
96,73,10417,1,0,1:2:0:0:
449,203,10572,5,10,2:0:0:0:
87,290,10727,1,0,1:2:0:0:
407,47,10881,2,0,P|499:76|505:166,1,176.406144,14|0,2:0|2:0,2:0:0:0:
449,203,11191,6,0,P|374:180|326:180,1,98.324736,6|0,1:2|2:0,2:0:0:0:
179,297,11500,1,10,2:0:0:0:
257,129,11654,2,0,P|302:111|350:104,1,98.324736,2|0,2:0|1:2,2:0:0:0:
249,336,11964,1,2,1:2:0:0:
183,94,12118,1,8,2:0:0:0:
352,295,12273,2,0,P|369:238|367:186,1,98.324736,2|0,1:2|2:0,2:0:0:0:
260,39,12582,1,2,1:2:0:0:
179,297,12737,1,8,2:0:0:0:
121,49,12892,2,0,P|67:21|18:21,1,98.324736,2|0,2:0|1:2,2:0:0:0:
160,212,13201,1,2,1:2:0:0:
207,0,13355,1,8,2:0:0:0:
207,0,13665,6,0,P|213:105|222:209,1,196.016256,2|10,1:2|2:0,2:0:0:0:
300,348,14129,2,0,P|305:279|312:228,1,98.324736,2|0,2:0|1:2,2:0:0:0:
397,61,14438,1,2,1:2:0:0:
220,195,14593,1,8,2:0:0:0:
415,288,14747,2,0,P|411:239|406:190,1,98.324736,2|0,1:2|2:0,2:0:0:0:
207,71,15057,1,2,1:2:0:0:
426,159,15211,1,8,2:0:0:0:
227,287,15366,2,0,P|163:260|130:219,1,98.324736,2|0,2:0|1:2,2:0:0:0:
299,68,15675,1,2,1:2:0:0:
343,342,15830,1,8,2:0:0:0:
343,342,16139,6,0,P|346:259|355:214,1,98.324736,2|0,1:2|2:0,2:0:0:0:
401,77,16448,1,10,2:0:0:0:
227,287,16603,2,0,P|227:238|221:189,1,98.324736,2|0,2:0|1:2,2:0:0:0:
120,51,16912,1,2,1:2:0:0:
327,153,17067,1,8,2:0:0:0:
133,270,17221,2,0,P|78:288|29:282,1,98.324736,2|0,1:2|2:0,2:0:0:0:
197,87,17531,1,2,1:2:0:0:
257,320,17685,1,8,2:0:0:0:
76,202,17840,1,2,2:0:0:0:
318,113,17995,1,0,1:2:0:0:
157,300,18149,1,2,1:2:0:0:
277,41,18304,2,0,P|336:26|386:31,1,98.324736,8|0,2:0|2:0,2:0:0:0:
432,264,18613,6,0,P|383:317|271:272,1,196.016256,6|8,1:2|2:0,2:0:0:0:
202,73,19077,2,0,P|133:44|94:56,1,98.324736,2|0,1:2|2:0,2:0:0:0:
200,315,19386,1,10,2:0:0:0:
277,41,19541,1,2,1:2:0:0:
127,276,19696,1,14,2:0:0:0:
452,121,20005,5,10,2:0:0:0:
69,178,20160,1,10,2:0:0:0:
368,254,20469,6,0,P|381:195|376:141,1,98.324736,10|0,2:0|1:2,2:0:0:0:
132,36,20778,2,0,P|131:84|143:132,1,98.324736,10|0,2:0|2:0,2:0:0:0:
257,296,21087,6,0,P|156:280|100:364,2,176.798976,6|10|2,1:2|2:0|1:2,2:0:0:0:
331,370,21861,1,0,2:0:0:0:
417,295,22015,2,0,P|405:229|380:189,1,88.685056,10|0,2:0|2:0,2:0:0:0:
287,94,22325,2,0,P|287:178|274:290,1,176.798976,2|10,1:2|2:0,2:0:0:0:
373,182,22788,1,0,2:0:0:0:
208,130,22943,1,2,1:2:0:0:
277,270,23098,1,0,1:2:0:0:
208,130,23252,2,0,P|201:56|201:19,1,88.685056,10|0,2:0|2:0,2:0:0:0:
135,254,23562,6,0,P|73:299|-19:245,2,176.798976,2|8|0,1:2|2:0|1:2,2:0:0:0:
177,158,24335,1,0,2:0:0:0:
269,271,24489,1,10,2:0:0:0:
355,136,24644,1,2,2:0:0:0:
335,322,24799,2,0,P|280:356|234:355,1,88.685056,0|0,1:2|2:0,2:0:0:0:
269,149,25108,2,0,P|311:158|346:185,1,88.685056,8|0,2:0|2:0,2:0:0:0:
181,250,25417,1,0,1:2:0:0:
181,250,25572,1,0,1:2:0:0:
272,67,25727,1,10,2:0:0:0:
269,271,25881,1,2,2:0:0:0:
183,47,26036,6,0,P|97:41|37:105,1,176.798976,2|8,1:2|2:0,2:0:0:0:
106,211,26500,1,2,2:0:0:0:
106,211,26654,2,0,P|110:142|119:96,1,88.685056,2|0,1:2|2:0,2:0:0:0:
181,250,26964,1,8,2:0:0:0:
350,41,27273,6,0,P|411:20|456:22,1,88.685056,2|0,1:2|2:0,2:0:0:0:
376,164,27582,2,0,P|332:159|291:142,1,88.685056,10|0,2:0|2:0,2:0:0:0:
204,26,27892,1,2,1:2:0:0:
186,203,28046,1,0,1:2:0:0:
204,26,28201,2,0,P|210:81|216:126,1,88.685056,10|0,2:0|2:0,2:0:0:0:
243,345,28510,2,0,P|248:301|253:257,1,88.685056,2|0,1:2|2:0,2:0:0:0:
131,100,28819,1,10,2:0:0:0:
325,214,28974,1,2,2:0:0:0:
110,331,29129,2,0,P|104:287|99:243,1,88.685056,0|0,1:2|2:0,2:0:0:0:
289,89,29438,1,8,2:0:0:0:
18,303,29593,6,0,P|30:215|34:96,1,196.016256,4|0,1:2|1:0,2:0:0:0:
190,283,30057,1,8,2:0:0:0:
236,23,30211,2,0,P|308:1|347:6,1,98.324736,8|0,1:2|2:0,2:0:0:0:
414,239,30520,1,8,1:2:0:0:
199,131,30675,1,2,2:0:0:0:
397,57,30830,1,2,1:2:0:0:
397,57,30907,1,0,1:0:0:0:
397,57,30984,6,0,B|422:198|352:119|383:266,2,196.016256,6|10|2,1:2|2:0|1:2,2:0:0:0:
455,206,31758,1,0,2:0:0:0:
324,104,31912,2,0,P|269:86|219:90,1,98.324736,10|0,2:0|2:0,2:0:0:0:
108,274,32221,2,0,P|184:335|284:299,1,196.016256,2|10,1:2|2:0,2:0:0:0:
166,140,32685,1,0,2:0:0:0:
134,361,32840,1,2,1:2:0:0:
265,227,32995,1,0,1:2:0:0:
76,288,33149,2,0,P|63:218|57:160,1,98.324736,10|0,2:0|2:0,2:0:0:0:
246,48,33459,6,0,P|248:134|235:272,2,196.016256,2|8|0,1:2|2:0|1:2,2:0:0:0:
327,124,34232,1,0,2:0:0:0:
138,71,34386,1,10,2:0:0:0:
327,124,34541,2,0,P|395:74|494:113,1,196.016256,2|0,1:2|1:2,2:0:0:0:
331,265,35005,2,0,P|263:258|222:224,1,98.324736,8|0,2:0|2:0,2:0:0:0:
246,48,35314,1,0,1:2:0:0:
402,163,35469,1,0,1:2:0:0:
163,308,35624,2,0,P|150:242|150:144,1,147.487104,10|0,2:0|2:0,2:0:0:0:
119,96,35933,2,0,P|116:157|103:218,1,118.568064,2|0,1:2|2:0,2:0:0:0:
197,160,36242,6,0,B|360:150|256:224|429:217,1,234.450816,14|0,2:0|1:0,2:0:0:0:
250,244,36706,1,0,2:0:0:0:
422,117,36861,2,0,P|437:195|440:297,1,147.487104,8|0,2:0|2:0,2:0:0:0:
394,316,37170,2,0,P|406:254|405:186,1,118.568064,2|0,1:2|2:0,2:0:0:0:
336,124,37479,2,0,B|178:131|290:218|116:233,1,234.450816,12|0,2:0|1:2,2:0:0:0:
213,50,37943,1,0,1:2:0:0:
298,231,38098,1,10,2:0:0:0:
149,136,38252,1,2,2:0:0:0:
280,316,38407,6,0,P|354:295|375:273,1,98.324736,2|0,1:2|2:0,2:0:0:0:
406,74,38716,2,0,P|366:46|318:39,1,98.324736,10|0,2:0|2:0,2:0:0:0:
214,222,39026,1,2,1:2:0:0:
428,152,39180,1,0,1:2:0:0:
213,50,39335,2,0,P|195:125|200:184,1,98.324736,10|0,2:0|2:0,2:0:0:0:
371,282,39644,1,2,1:2:0:0:
214,222,39799,2,0,B|80:225|162:297|20:304,1,196.016256,8|0,2:0|2:0,2:0:0:0:
264,292,40263,1,10,2:3:0:0:
96,219,40417,1,4,2:3:0:0:
257,148,40572,1,8,2:3:0:0:
173,298,40727,1,4,2:3:0:0:
187,100,40881,6,0,P|241:60|353:76,1,176.798976,6|10,1:2|2:3,2:0:0:0:
445,183,41345,2,0,P|451:118|465:63,1,88.685056,6|0,2:3|2:0,2:0:0:0:
306,233,41654,2,0,P|303:188|295:145,1,88.685056,6|8,2:3|2:3,2:0:0:0:
434,287,41964,2,0,P|490:269|521:240,1,88.685056,6|0,2:3|2:0,2:0:0:0:
304,327,42273,2,0,P|248:309|217:280,1,88.685056,6|8,2:3|2:3,2:0:0:0:
306,104,42582,1,6,2:3:0:0:
216,253,42737,1,2,1:2:0:0:
295,73,42892,1,0,1:2:0:0:
332,307,43046,1,8,2:0:0:0:
332,307,43355,6,0,B|306:187|374:259|354:121,1,176.798976,6|10,1:2|2:3,2:0:0:0:
250,70,43819,2,0,P|268:141|274:194,1,88.685056,6|0,2:3|2:0,2:0:0:0:
174,23,44129,2,0,P|161:65|153:108,1,88.685056,6|8,2:3|2:3,2:0:0:0:
185,233,44438,2,0,P|107:206|71:212,1,88.685056,6|0,2:3|2:0,2:0:0:0:
274,300,44747,2,0,P|196:327|160:321,1,88.685056,6|8,2:3|2:3,2:0:0:0:
304,167,45057,1,6,2:3:0:0:
357,345,45211,1,2,1:2:0:0:
312,132,45366,1,0,1:2:0:0:
274,300,45520,1,8,2:0:0:0:
436,237,45675,1,0,1:2:0:0:
203,145,45830,6,0,B|71:134|147:215|-6:205,1,196.016256,6|8,1:2|2:0,2:0:0:0:
148,69,46294,2,0,P|221:49|263:58,1,98.324736,0|0,1:2|2:0,2:0:0:0:
305,221,46603,1,0,1:2:0:0:
364,53,46758,1,10,2:0:0:0:
203,145,46912,1,0,2:0:0:0:
447,108,47067,2,0,P|439:44|424:-7,1,98.324736,2|0,2:0|1:2,2:0:0:0:
287,134,47376,2,0,P|274:217|264:354,1,196.016256,10|2,2:0|1:2,2:0:0:0:
196,187,47840,1,0,1:2:0:0:
348,256,47995,2,0,P|340:188|338:126,1,98.324736,10|0,2:0|2:0,2:0:0:0:
159,303,48304,6,0,P|96:335|5:251,1,196.016256,6|8,1:2|2:0,2:0:0:0:
284,39,48922,2,0,P|347:7|438:91,1,196.016256,2|8,1:2|2:0,2:0:0:0:
285,364,49541,1,2,1:2:0:0:
285,364,49696,2,0,P|275:276|270:152,1,196.016256,0|0,1:2|2:0,2:0:0:0:
117,13,50160,2,0,P|114:83|108:135,1,98.324736,6|4,1:3|1:3,2:0:0:0:
176,285,50469,1,4,1:3:0:0:
262,24,50624,6,0,B|395:24|308:95|479:88,1,196.016256,6|0,1:2|1:2,2:0:0:0:
229,115,51087,1,8,2:0:0:0:
423,4,51242,1,0,2:0:0:0:
214,144,51397,1,2,1:2:0:0:
404,216,51551,1,0,2:0:0:0:
157,235,51706,1,10,2:0:0:0:
362,107,51861,1,2,1:2:0:0:
184,322,52015,5,0,2:0:0:0:
434,196,52170,1,0,1:2:0:0:
155,76,52325,1,8,2:0:0:0:
383,294,52479,1,0,1:2:0:0:
223,23,52634,2,0,P|203:100|206:159,1,98.324736,2|0,1:2|2:0,2:0:0:0:
356,329,52943,1,10,2:0:0:0:
501,106,53098,2,0,P|439:48|335:87,1,196.016256,6|2,1:2|1:2,2:0:0:0:
236,348,53562,1,10,2:0:0:0:
149,0,53871,1,10,2:0:0:0:
83,377,54180,1,10,2:0:0:0:
367,0,54489,5,10,2:0:0:0:
475,302,54644,1,10,2:0:0:0:
164,383,54799,1,10,2:0:0:0:
60,84,54953,2,0,P|153:27|247:110,1,234.450816,14|0,2:0|1:2,2:0:0:0:
251,127,55340,1,0,1:2:0:0:
251,127,55417,1,2,1:2:0:0:
121,260,55572,2,0,P|112:229|113:194,1,58.802048,2|0,1:2|1:2,2:0:0:0:
310,57,55727,6,0,B|352:15|352:15|381:102|327:215,1,215.233536,6|8,1:2|2:0,2:0:0:0:
224,285,56191,1,0,2:0:0:0:
388,130,56345,2,0,P|393:198|405:245,1,107.964416,2|0,1:2|1:2,2:0:0:0:
228,99,56654,1,10,2:0:0:0:
354,331,56809,2,0,P|436:317|473:186,1,215.233536,2|0,1:2|1:2,2:0:0:0:
310,57,57273,2,0,P|307:110|295:163,1,107.964416,8|0,2:0|2:0,2:0:0:0:
156,295,57582,1,0,1:2:0:0:
97,120,57737,1,0,1:2:0:0:
280,250,57892,1,10,2:0:0:0:
387,95,58046,1,2,2:0:0:0:
212,8,58201,6,0,P|205:113|202:257,2,215.233536,2|8|2,1:2|2:0|1:2,2:0:0:0:
122,144,58974,1,0,1:2:0:0:
289,82,59129,1,10,2:0:0:0:
112,227,59283,2,0,P|30:153|74:49,1,215.233536,2|0,1:2|1:2,2:0:0:0:
226,171,59747,2,0,P|235:252|238:296,1,107.964416,10|0,2:0|2:0,2:0:0:0:
395,85,60057,2,0,P|386:166|383:210,1,107.964416,2|0,1:2|1:2,2:0:0:0:
126,86,60366,2,0,P|132:139|136:192,1,107.964416,10|0,2:0|2:0,2:0:0:0:
298,51,60675,6,0,P|381:4|479:38,1,161.946624,2|0,1:2|2:0,2:0:0:0:
484,85,60984,2,0,P|422:127|372:124,1,107.964416,12|0,2:0|2:0,2:0:0:0:
155,62,61294,1,2,1:2:0:0:
332,193,61448,1,2,1:2:0:0:
139,314,61603,2,0,P|122:249|130:194,1,107.964416,10|0,2:0|2:0,2:0:0:0:
396,106,61912,2,0,P|416:202|423:301,1,161.946624,2|0,1:2|2:0,2:0:0:0:
360,335,62221,2,0,P|340:262|337:212,1,107.964416,12|0,2:0|2:0,2:0:0:0:
368,6,62531,1,2,1:2:0:0:
254,160,62685,1,2,1:2:0:0:
131,51,62840,2,0,P|56:19|21:25,1,107.964416,10|0,2:0|2:0,2:0:0:0:
8,238,63149,6,0,P|114:211|201:203,1,161.946624,6|0,1:2|2:0,2:0:0:0:
236,279,63459,6,0,P|322:309|344:226,1,176.406144,14|0,2:0|2:0,2:0:0:0:
346,98,63768,6,0,P|444:94|436:207,1,190.865664,6|0,1:2|2:0,2:0:0:0:
297,171,64077,6,0,B|120:199|213:110|26:142,1,272.885376,14|0,2:0|1:0,2:0:0:0:
220,88,64541,1,0,1:0:0:0:
104,222,64696,1,8,2:0:0:0:
307,293,64850,1,0,1:0:0:0:
211,189,65005,1,8,2:0:0:0:
211,189,65082,1,0,2:0:0:0:
211,189,65160,2,0,P|204:155|199:123,1,53.982208,0|0,1:0|1:0,2:0:0:0:
400,259,65314,1,10,2:0:0:0:
168,343,65469,1,2,1:2:0:0:
168,343,65546,1,0,1:2:0:0:
168,343,65624,6,0,B|113:323|113:323|185:260|279:300,1,215.233536,6|8,1:2|2:0,2:0:0:0:
440,369,66087,1,0,2:0:0:0:
254,206,66242,2,0,P|321:170|378:167,1,107.964416,2|0,1:2|1:2,2:0:0:0:
361,349,66551,1,10,2:0:0:0:
449,80,66706,2,0,P|426:201|421:299,1,215.233536,2|0,1:2|1:2,2:0:0:0:
356,134,67170,2,0,P|289:98|232:95,1,107.964416,8|0,2:0|2:0,2:0:0:0:
121,280,67479,1,0,1:2:0:0:
37,114,67634,1,0,1:2:0:0:
256,194,67788,1,10,2:0:0:0:
109,366,67943,1,2,2:0:0:0:
161,108,68098,6,0,P|223:43|333:80,2,215.233536,2|8|2,1:2|2:0|1:2,2:0:0:0:
228,279,68871,1,0,1:2:0:0:
401,132,69026,1,10,2:0:0:0:
211,201,69180,2,0,P|85:171|-8:166,1,215.233536,2|0,1:2|1:2,2:0:0:0:
202,306,69644,2,0,P|135:323|91:330,1,107.964416,10|0,2:0|2:0,2:0:0:0:
293,126,69953,2,0,P|226:109|182:102,1,107.964416,2|0,1:2|1:2,2:0:0:0:
392,345,70263,2,0,P|325:362|281:369,1,107.964416,10|0,2:0|2:0,2:0:0:0:
405,131,70572,6,0,P|350:44|227:44,2,215.233536,2|8|2,1:2|2:0|1:2,2:0:0:0:
318,276,71345,1,0,1:2:0:0:
441,105,71500,2,0,P|427:174|423:230,1,107.964416,10|0,2:0|2:0,2:0:0:0:
293,126,71809,2,0,P|205:104|138:103,1,107.964416,2|0,1:2|2:0,2:0:0:0:
10,157,72118,2,0,P|63:149|114:133,1,107.964416,10|0,2:0|2:0,2:0:0:0:
342,40,72428,2,0,P|369:105|374:174,1,107.964416,2|0,1:2|1:2,2:0:0:0:
345,330,72737,2,0,P|354:277|377:228,1,107.964416,10|0,2:0|2:0,2:0:0:0:
188,102,73046,6,0,P|135:57|11:131,1,215.233536,6|8,1:2|2:0,2:0:0:0:
129,271,73510,2,0,P|220:247|264:244,1,107.964416,8|0,1:2|2:0,2:0:0:0:
278,25,73819,2,0,P|369:49|413:52,1,107.964416,8|0,2:0|2:0,2:0:0:0:
422,253,74129,2,0,B|293:259|375:336|212:341,1,215.233536,12|0,2:0|1:2,2:0:0:0:
134,180,74593,1,8,2:0:0:0:
104,307,74747,1,2,1:2:0:0:
198,111,74902,1,10,2:0:0:0:
247,306,75057,1,0,1:2:0:0:
369,27,75211,1,8,2:0:0:0:
336,305,75366,1,0,1:2:0:0:
336,305,75443,1,0,1:2:0:0:
336,305,75520,6,0,P|301:205|321:85,2,215.233536,2|8|2,1:2|2:0|1:2,2:0:0:0:
389,139,76294,1,0,1:2:0:0:
226,273,76448,2,0,P|165:259|105:254,1,107.964416,10|0,2:0|2:0,2:0:0:0:
218,77,76758,2,0,P|270:64|323:58,1,107.964416,2|0,1:2|2:0,2:0:0:0:
228,253,77067,2,0,P|167:239|107:234,1,107.964416,8|0,2:0|2:0,2:0:0:0:
352,133,77376,1,2,1:2:0:0:
397,312,77531,1,0,1:2:0:0:
251,227,77685,1,10,2:0:0:0:
384,287,77840,1,0,2:0:0:0:
434,108,77995,6,0,P|359:40|219:77,1,215.233536,2|8,1:2|2:0,2:0:0:0:
121,206,78459,1,2,2:0:0:0:
293,311,78613,1,2,1:2:0:0:
218,143,78768,1,0,1:2:0:0:
135,334,78922,1,8,2:0:0:0:
227,177,79077,1,0,2:0:0:0:
42,262,79232,2,0,P|22:169|22:124,1,107.964416,0|0,1:2|1:2,2:0:0:0:
163,19,79541,1,8,2:0:0:0:
121,206,79696,1,0,1:2:0:0:
305,48,79850,5,8,2:0:0:0:
350,265,80005,1,8,1:3:0:0:
227,177,80160,1,6,1:3:0:0:
408,134,80314,1,4,1:3:0:0:
150,302,80469,6,0,P|80:285|134:85,1,323.197952,6|0,1:2|2:0,2:0:0:0:
318,239,81087,2,0,B|402:267|449:158|362:47|218:84,1,323.197952,6|0,1:2|2:0,2:0:0:0:
315,325,81706,2,0,P|440:278|430:76,1,323.197952,6|0,1:2|2:0,2:0:0:0:
223,161,82325,2,0,P|185:66|344:84,1,323.197952,6|0,1:2|2:0,2:0:0:0:
453,301,82943,6,0,B|148:324|350:127|15:181,1,476.203648,6|0,1:2|1:0,2:0:0:0:
246,79,84335,5,10,2:0:0:0:
182,311,84489,1,10,2:0:0:0:
256,49,84644,1,10,2:0:0:0:
453,301,84799,1,10,2:0:0:0:
22,179,85108,1,10,2:0:0:0:
22,179,85417,6,0,P|69:157|133:157,1,98.324736,6|0,1:2|2:0,2:0:0:0:
292,85,85727,1,10,2:0:0:0:
177,267,85881,2,0,P|128:262|84:241,1,98.324736,2|0,2:0|1:2,2:0:0:0:
216,46,86191,1,2,1:2:0:0:
281,286,86345,1,8,2:0:0:0:
131,58,86500,2,0,P|114:115|116:167,1,98.324736,2|0,1:2|2:0,2:0:0:0:
211,343,86809,1,2,1:2:0:0:
292,85,86964,1,8,2:0:0:0:
371,339,87118,2,0,P|369:290|353:243,1,98.324736,2|0,2:0|1:2,2:0:0:0:
194,127,87428,1,2,1:2:0:0:
281,286,87582,1,8,2:0:0:0:
281,286,87892,6,0,B|239:182|327:218|277:95,1,196.016256,2|10,1:2|2:0,2:0:0:0:
122,32,88355,2,0,P|117:101|110:152,1,98.324736,2|0,2:0|1:2,2:0:0:0:
55,279,88665,1,2,1:2:0:0:
210,149,88819,1,8,2:0:0:0:
34,81,88974,2,0,P|38:130|43:179,1,98.324736,2|0,1:2|2:0,2:0:0:0:
237,306,89283,1,2,1:2:0:0:
50,228,89438,1,8,2:0:0:0:
263,92,89593,2,0,P|259:141|254:190,1,98.324736,2|0,2:0|1:2,2:0:0:0:
144,320,89902,1,2,1:2:0:0:
128,40,90057,1,8,2:0:0:0:
128,40,90366,6,0,P|171:17|229:18,1,98.324736,2|0,1:2|2:0,2:0:0:0:
322,228,90675,1,10,2:0:0:0:
450,49,90830,2,0,P|407:26|349:27,1,98.324736,2|0,2:0|1:2,2:0:0:0:
247,260,91139,1,2,1:2:0:0:
384,110,91294,1,8,2:0:0:0:
188,198,91448,2,0,P|167:269|172:315,1,98.324736,2|0,1:2|2:0,2:0:0:0:
375,293,91758,1,2,1:2:0:0:
227,127,91912,1,8,2:0:0:0:
383,190,92067,1,2,2:0:0:0:
167,292,92221,1,0,1:2:0:0:
370,161,92376,1,2,1:2:0:0:
185,373,92531,2,0,P|124:362|84:314,1,98.324736,8|0,2:0|2:0,2:0:0:0:
41,93,92840,6,0,B|179:63|96:151|268:121,1,196.016256,6|8,1:2|2:0,2:0:0:0:
408,24,93304,2,0,P|321:27|292:47,1,98.324736,2|0,1:2|2:0,2:0:0:0:
92,170,93613,1,10,2:0:0:0:
364,99,93768,1,2,1:2:0:0:
73,203,93922,1,14,2:0:0:0:
476,235,94232,5,10,2:0:0:0:
134,103,94386,1,10,2:0:0:0:
500,159,94696,6,0,P|500:110|488:62,1,98.324736,10|0,2:0|1:2,2:0:0:0:
92,170,95005,2,0,P|80:217|80:266,1,98.324736,10|0,2:0|2:0,2:0:0:0:
305,45,95314,5,10,1:2:0:0:
242,363,95469,1,10,1:2:0:0:
218,19,95624,2,0,P|231:91|240:195,1,147.487104,10|0,1:2|1:2,2:0:0:0:
217,243,95933,1,8,1:2:0:0:
381,90,96087,2,0,P|340:67|368:175,1,245.178624,8|0,1:3|2:0,2:0:0:0:
460,149,96551,5,6,1:2:0:0:
460,149,96706,2,0,B|159:113|341:392|23:363,1,528.0096,0|0,1:2|2:0,2:0:0:0:
