osu file format v14

[General]
AudioFilename: audio.mp3
AudioLeadIn: 0
PreviewTime: 55340
Countdown: 0
SampleSet: Soft
StackLeniency: 0.7
Mode: 0
LetterboxInBreaks: 0
WidescreenStoryboard: 1

[Editor]
DistanceSpacing: 0.5
BeatDivisor: 4
GridSize: 32
TimelineZoom: 1.7

[Metadata]
Title:Bouken Type A, B, C!!
TitleUnicode:冒険Type A, B, C‼
Artist:Aqours
ArtistUnicode:Aqours
Creator:Sotarks
Version:SMOKELIND's Expert
Source:ラブライブ!サンシャイン!!
Tags:Love Live! Sunshine!! school idol project yuki Chika Takami 高海千歌 Anju Inami 伊波杏樹 Riko Sakurauchi 桜内梨子 Rikako Aida 逢田梨香子 Kanan Matsuura 松浦果南 Nanaka Suwa 諏訪ななか Dia Kurosawa 黒澤ダイヤ Arisa Komiya 小宮有紗 You Watanabe 渡辺 曜 Shuka Saitou 斉藤朱夏 Yoshiko Tsushima Yohane 津島善子 Aika Kobayashi 小林愛香 Hanamaru Kunikida 国木田花丸 Kanako Takatsuki 高槻かなこ Mari Ohara 小原鞠莉 Aina Suzuki 鈴木愛奈 Ruby 黒澤ルビィ Ai Furihata 降幡 愛 female vocalist japanese Serizawa Haruki Jack J_a_c_k Kowari Kiyoshi Guarden SMOKELIND Adventure
BeatmapID:2151911
BeatmapSetID:1029085

[Difficulty]
HPDrainRate:5
CircleSize:3.7
OverallDifficulty:9
ApproachRate:9.2
SliderMultiplier:1.77
SliderTickRate:1

[Events]
//Background and Video events
0,0,"bg.jpg",0,0
//Break Periods
//Storyboard Layer 0 (Background)
//Storyboard Layer 1 (Fail)
//Storyboard Layer 2 (Pass)
//Storyboard Layer 3 (Foreground)
//Storyboard Layer 4 (Overlay)
//Storyboard Sound Samples

[TimingPoints]
57,309.278350515464,4,2,22,52,1,0
1294,-129.87012987013,4,2,22,62,0,0
8716,-114.942528735633,4,2,22,62,0,0
11191,-103.092783505155,4,2,22,72,0,0
21087,-129.87012987013,4,2,22,62,0,0
29593,-103.092783505155,4,2,22,72,0,0
30984,-129.87012987013,4,2,22,62,0,0
48304,-114.942528735633,4,2,22,62,0,0
55727,-93.4579439252336,4,2,22,82,0,0
82943,-129.87012987013,4,2,22,82,0,0
85108,-93.4579439252336,4,2,22,82,0,0
85417,-103.092783505155,4,2,22,72,0,0
96551,-1000,4,2,22,72,0,0
96706,-1000,4,2,22,72,0,0
96783,-1000,4,2,22,5,0,0

[Colours]
Combo1 : 47,107,136
Combo2 : 255,102,0
Combo3 : 255,245,128
Combo4 : 238,53,85

[HitObjects]
108,38,1139,5,0,1:0:0:0:
108,38,1216,1,0,1:0:0:0:
108,38,1294,2,0,B|257:101|115:206|303:297,1,340.724993241234,6|0,1:2|0:0,0:0:0:0:
413,324,2221,1,0,3:2:0:0:
367,205,2376,1,0,0:0:0:0:
269,307,2531,2,0,P|210:273|174:215,1,136.289997296494,2|0,2:0|3:2,0:0:0:0:
174,215,3304,5,0,2:0:0:0:
216,151,3459,1,2,3:2:0:0:
302,139,3613,1,2,2:0:0:0:
154,195,3768,2,0,P|96:163|15:141,1,136.289997296494,6|0,1:2|3:2,0:0:0:0:
29,143,4541,5,0,0:0:0:0:
92,62,4696,1,0,3:2:0:0:
131,154,4850,1,0,0:0:0:0:
219,28,5005,6,0,P|272:18|338:77,1,136.289997296494,2|0,2:0|3:2,0:0:0:0:
302,189,5469,2,0,P|281:156|278:110,1,68.1449986482468,8|0,2:3|2:0,0:0:0:0:
417,68,5778,2,0,P|410:101|391:129,1,68.1449986482468,4|0,2:3|0:0,0:0:0:0:
277,53,6087,2,0,P|307:59|332:76,1,34.0724993241234,4|0,2:3|0:0,0:0:0:0:
306,278,6242,2,0,B|146:242|269:135|88:111,1,272.579994592987,6|0,1:2|1:2,0:0:0:0:
109,114,7170,1,2,3:2:0:0:
100,246,7325,2,0,P|112:225|119:199,1,34.0724993241234,2|0,2:0|0:0,0:0:0:0:
26,45,7479,6,0,P|68:15|168:40,2,136.289997296494,6|0|0,1:2|3:0|1:2,0:0:0:0:
26,45,8252,1,2,2:0:0:0:
51,128,8407,1,2,3:2:0:0:
7,212,8562,1,2,2:0:0:0:
192,101,8716,6,0,P|231:107|270:149,1,76.9950006461678,10|0,2:0|1:2,0:0:0:0:
308,312,9026,1,0,1:2:0:0:
453,127,9180,2,0,P|413:133|374:175,1,76.9950006461678,10|0,2:0|1:2,0:0:0:0:
297,339,9489,1,0,1:2:0:0:
445,208,9644,2,0,P|484:214|523:256,1,76.9950006461678,10|0,2:0|1:2,0:0:0:0:
287,364,9953,5,0,1:2:0:0:
196,179,10108,2,0,P|156:185|117:227,1,76.9950006461678,10|0,2:0|1:2,0:0:0:0:
255,250,10417,1,0,1:2:0:0:
374,110,10572,1,10,2:0:0:0:
308,312,10727,1,0,1:2:0:0:
300,73,10881,2,0,P|343:31|428:45,1,115.492500969252,14|0,2:0|0:0,0:0:0:0:
451,81,11191,6,0,P|420:138|395:251,1,171.690004060661,6|10,1:2|2:0,0:0:0:0:
218,367,11654,2,0,P|172:354|136:316,1,85.8450020303307,2|0,2:0|1:2,0:0:0:0:
160,124,11964,2,0,P|181:165|178:217,1,85.8450020303307,2|8,1:2|2:0,0:0:0:0:
53,349,12273,6,0,P|54:306|75:269,1,85.8450020303307,2|0,1:2|0:0,0:0:0:0:
265,152,12582,2,0,P|307:174|359:185,1,85.8450020303307,2|8,1:2|2:0,0:0:0:0:
167,35,12892,2,0,P|125:46|87:66,1,85.8450020303307,2|0,2:0|1:2,0:0:0:0:
332,96,13201,2,0,P|379:99|431:87,1,85.8450020303307,2|8,1:2|2:0,0:0:0:0:
420,84,13665,6,0,P|329:87|221:41,1,171.690004060661,2|10,1:2|2:0,0:0:0:0:
49,143,14129,2,0,P|93:123|151:112,1,85.8450020303307,2|0,2:0|1:2,0:0:0:0:
312,247,14438,2,0,P|270:236|231:218,1,85.8450020303307,2|8,1:2|2:0,0:0:0:0:
162,32,14747,6,0,P|200:79|202:115,1,85.8450020303307,2|0,1:2|0:0,0:0:0:0:
106,267,15057,2,0,P|116:225|147:196,1,85.8450020303307,2|8,1:2|2:0,0:0:0:0:
332,96,15366,2,0,P|377:121|442:115,1,85.8450020303307,2|0,2:0|1:2,0:0:0:0:
508,24,15675,1,2,1:2:0:0:
403,255,15830,1,8,2:0:0:0:
396,265,16139,6,0,P|349:238|228:212,1,171.690004060661,2|10,1:2|2:0,0:0:0:0:
127,358,16603,2,0,P|173:331|224:318,1,85.8450020303307,2|0,2:0|1:2,0:0:0:0:
49,185,16912,2,0,P|85:207|125:221,1,85.8450020303307,2|8,1:2|2:0,0:0:0:0:
273,128,17221,6,0,P|319:155|370:168,1,85.8450020303307,2|0,1:2|0:0,0:0:0:0:
195,301,17530,2,0,P|231:278|271:264,1,85.8450020303307,2|8,1:2|2:0,0:0:0:0:
206,75,17840,2,0,P|183:111|169:151,1,85.8450020303307,2|0,2:0|1:2,0:0:0:0:
341,45,18149,1,2,1:2:0:0:
271,264,18304,1,8,2:0:0:0:
267,253,18613,6,0,B|174:215|251:157|116:120,1,171.690004060661,6|8,1:2|2:0,0:0:0:0:
8,313,19077,2,0,P|68:288|123:215,1,128.767503045496,2|0,1:2|0:0,0:0:0:0:
79,164,19386,1,10,2:0:0:0:
302,173,19541,1,2,1:2:0:0:
74,38,19696,1,14,2:0:0:0:
89,30,20005,5,10,2:0:0:0:
96,244,20160,1,10,2:0:0:0:
110,241,20469,6,0,P|146:272|202:278,1,85.8450020303307,10|0,2:0|1:2,0:0:0:0:
302,173,20778,2,0,P|260:183|229:212,1,85.8450020303307,10|0,2:0|0:0,0:0:0:0:
391,255,21087,6,0,P|397:219|413:175,1,68.1449986482468,6|0,1:2|0:0,0:0:0:0:
490,83,21397,2,0,P|495:116|506:148,1,68.1449986482468,10|0,2:0|0:0,0:0:0:0:
376,258,21706,2,0,P|382:222|398:178,1,68.1449986482468,2|0,1:2|0:0,0:0:0:0:
475,86,22016,2,0,P|480:119|491:151,1,68.1449986482468,10|0,2:0|0:0,0:0:0:0:
355,68,22325,6,0,P|319:47|274:42,1,68.1449986482468,2|0,1:2|0:0,0:0:0:0:
183,135,22634,2,0,P|215:126|244:108,1,68.1449986482468,10|0,2:0|0:0,0:0:0:0:
350,52,22943,2,0,P|314:31|269:26,1,68.1449986482468,2|0,1:2|1:2,0:0:0:0:
178,119,23252,2,0,P|210:110|239:92,1,68.1449986482468,10|0,2:0|0:0,0:0:0:0:
82,60,23562,6,0,P|65:117|96:198,2,136.289997296494,2|8|0,1:2|2:0|1:2,0:0:0:0:
171,32,24335,1,0,0:0:0:0:
164,198,24489,2,0,P|152:234|110:264,1,68.1449986482468,10|2,2:0|2:0,0:0:0:0:
216,114,24799,2,0,P|282:137|338:181,2,136.289997296494,0|8|0,1:2|2:0|1:2,0:0:0:0:
247,211,25572,1,0,1:2:0:0:
329,61,25727,1,10,2:0:0:0:
334,177,25881,1,2,2:0:0:0:
400,17,26036,6,0,P|443:34|469:127,1,136.289997296494,2|8,1:2|2:0,0:0:0:0:
397,240,26500,1,2,2:0:0:0:
509,125,26654,2,0,P|489:176|476:268,1,136.289997296494,2|8,1:2|2:0,0:0:0:0:
366,210,27118,1,0,0:0:0:0:
280,319,27273,6,0,P|247:340|192:343,1,68.1449986482468,2|0,1:2|0:0,0:0:0:0:
117,248,27582,2,0,P|150:255|178:274,1,68.1449986482468,10|0,2:0|0:0,0:0:0:0:
296,304,27892,2,0,P|263:325|208:328,1,68.1449986482468,2|0,1:2|1:2,0:0:0:0:
133,233,28201,2,0,P|166:240|194:259,1,68.1449986482468,10|0,2:0|0:0,0:0:0:0:
310,329,28510,5,2,1:2:0:0:
310,329,28665,1,0,0:0:0:0:
274,214,28819,1,10,2:0:0:0:
393,317,28974,2,0,P|411:265|459:182,1,136.289997296494,2|0,2:0|0:0,0:0:0:0:
349,104,29438,1,8,2:0:0:0:
225,242,29593,6,0,B|132:211|202:170|95:132,1,171.690004060661,4|0,1:2|1:0,0:0:0:0:
48,260,30057,1,8,2:0:0:0:
238,166,30211,2,0,P|284:152|345:146,1,85.8450020303307,8|0,1:2|0:0,0:0:0:0:
132,297,30520,2,0,P|89:290|48:277,1,85.8450020303307,8|2,1:2|2:0,0:0:0:0:
100,134,30830,2,0,P|108:159|112:188,1,42.9225010151654,2|0,1:2|1:0,0:0:0:0:
201,348,30984,6,0,P|237:371|287:366,1,68.1449986482468,6|0,1:2|0:0,0:0:0:0:
370,270,31294,2,0,P|336:275|309:295,1,68.1449986482468,10|0,2:0|0:0,0:0:0:0:
204,331,31603,2,0,P|240:354|290:349,1,68.1449986482468,2|0,1:2|0:0,0:0:0:0:
373,253,31913,2,0,P|339:258|312:278,1,68.1449986482468,10|0,2:0|0:0,0:0:0:0:
176,324,32221,6,0,P|184:289|188:247,1,68.1449986482468,2|0,1:2|0:0,0:0:0:0:
242,135,32531,2,0,P|248:167|256:201,1,68.1449986482468,10|0,2:0|0:0,0:0:0:0:
165,324,32840,2,0,P|173:289|177:247,1,68.1449986482468,2|0,1:2|1:2,0:0:0:0:
231,135,33150,2,0,P|237:167|245:201,1,68.1449986482468,10|0,2:0|0:0,0:0:0:0:
171,55,33459,6,0,P|223:37|312:71,2,136.289997296494,2|8|0,1:2|2:0|1:2,0:0:0:0:
171,55,34386,1,10,2:0:0:0:
109,208,34541,2,0,P|94:134|70:70,1,136.289997296494,2|0,1:2|1:2,0:0:0:0:
198,248,35005,2,0,P|210:181|233:117,1,136.289997296494,8|0,2:0|1:2,0:0:0:0:
309,232,35469,1,0,1:2:0:0:
351,97,35624,2,0,P|370:134|376:180,1,68.1449986482468,10|0,2:0|0:0,0:0:0:0:
345,309,35933,6,0,P|390:290|438:283,1,68.1449986482468,2|0,1:2|0:0,0:0:0:0:
500,212,36242,2,0,P|467:203|349:141,1,136.289997296494,14|0,2:0|1:0,0:0:0:0:
369,66,36706,1,0,0:0:0:0:
265,151,36861,2,0,P|228:168|178:163,1,68.1449986482468,8|0,2:0|0:0,0:0:0:0:
75,67,37170,6,0,P|93:106|100:143,1,68.1449986482468,2|0,1:2|0:0,0:0:0:0:
11,290,37479,2,0,P|39:265|130:300,1,136.289997296494,12|0,2:0|1:2,0:0:0:0:
176,354,37943,1,0,1:2:0:0:
221,209,38098,1,10,2:0:0:0:
254,319,38252,1,2,2:0:0:0:
135,179,38407,6,0,P|168:132|251:111,2,136.289997296494,2|10|2,1:2|2:0|1:2,0:0:0:0:
230,242,39180,1,0,1:2:0:0:
318,128,39335,2,0,P|350:108|407:100,1,68.1449986482468,10|0,2:0|0:0,0:0:0:0:
476,274,39644,5,2,1:2:0:0:
448,123,39799,1,8,2:0:0:0:
389,312,39953,2,0,P|347:335|303:344,1,68.1449986482468,0|0,1:2|0:0,0:0:0:0:
219,245,40263,2,0,P|261:268|305:277,1,68.1449986482468,10|4,2:3|2:3,0:0:0:0:
372,121,40572,1,8,2:3:0:0:
387,298,40727,1,4,2:3:0:0:
236,146,40881,6,0,P|169:163|128:236,1,136.289997296494,6|10,1:2|2:3,0:0:0:0:
43,363,41345,2,0,P|41:325|37:281,1,68.1449986482468,6|0,2:3|0:0,0:0:0:0:
58,149,41654,2,0,P|55:182|53:216,1,68.1449986482468,6|8,2:3|2:3,0:0:0:0:
26,361,41964,2,0,P|24:323|20:279,1,68.1449986482468,6|0,2:3|0:0,0:0:0:0:
41,147,42273,2,0,P|38:180|36:214,1,68.1449986482468,6|8,2:3|2:3,0:0:0:0:
123,84,42582,1,6,2:3:0:0:
219,245,42737,2,0,P|270:240|329:166,1,136.289997296494,2|8,1:2|2:0,0:0:0:0:
325,180,43355,6,0,P|364:164|432:159,1,68.1449986482468,6|0,1:2|0:0,0:0:0:0:
484,250,43665,1,10,2:3:0:0:
389,74,43819,2,0,P|428:90|496:95,1,68.1449986482468,6|0,2:3|0:0,0:0:0:0:
480,240,44129,2,0,P|446:247|415:261,1,68.1449986482468,6|8,2:3|2:3,0:0:0:0:
398,59,44438,2,0,P|437:75|505:80,1,68.1449986482468,6|0,2:3|0:0,0:0:0:0:
489,225,44748,2,0,P|455:232|424:246,1,68.1449986482468,6|8,2:3|2:3,0:0:0:0:
318,159,45057,1,6,2:3:0:0:
234,301,45211,2,0,P|198:317|153:317,1,68.1449986482468,2|0,1:2|1:2,0:0:0:0:
243,159,45520,2,0,P|276:162|307:177,1,68.1449986482468,8|0,2:0|1:2,0:0:0:0:
125,293,45830,6,0,P|105:218|62:143,1,136.289997296494,6|8,1:2|2:0,0:0:0:0:
187,29,46294,2,0,P|175:68|166:119,2,68.1449986482468,0|0|0,1:2|0:0|1:2,0:0:0:0:
271,153,46758,2,0,P|315:149|361:122,1,68.1449986482468,10|0,2:0|0:0,0:0:0:0:
495,96,47067,2,0,P|463:84|429:82,1,68.1449986482468,2|0,2:0|1:2,0:0:0:0:
272,167,47376,2,0,P|316:163|362:136,1,68.1449986482468,10|0,2:0|0:0,0:0:0:0:
496,110,47685,2,0,P|464:98|430:96,1,68.1449986482468,2|0,1:2|1:2,0:0:0:0:
274,180,47995,2,0,P|318:176|364:149,1,68.1449986482468,10|0,2:0|0:0,0:0:0:0:
169,63,48304,6,0,P|104:129|121:239,1,153.990001292336,6|8,1:2|2:0,0:0:0:0:
98,186,48922,2,0,P|164:251|274:234,1,153.990001292336,2|8,1:2|2:0,0:0:0:0:
221,256,49541,1,2,1:2:0:0:
431,65,50160,6,0,P|400:151|374:252,1,153.990001292336,6|4,1:3|1:3,0:0:0:0:
146,22,50624,2,0,P|177:108|203:209,1,153.990001292336,6|0,1:2|1:2,0:0:0:0:
287,349,51087,1,8,2:0:0:0:
287,182,51242,1,0,0:0:0:0:
155,343,51397,2,0,P|111:364|37:371,1,76.9950006461678,2|0,1:2|0:0,0:0:0:0:
200,195,51706,1,10,2:0:0:0:
306,357,51861,6,0,P|350:378|424:385,1,76.9950006461678,2|0,1:2|0:0,0:0:0:0:
445,207,52170,1,0,1:2:0:0:
252,272,52325,1,8,2:0:0:0:
420,307,52479,1,0,1:2:0:0:
226,177,52634,2,0,P|182:164|102:158,1,76.9950006461678,2|0,1:2|0:0,0:0:0:0:
336,96,52943,1,10,2:0:0:0:
139,249,53098,6,0,P|70:205|92:103,1,153.990001292336,6|2,1:2|1:2,0:0:0:0:
265,8,53562,2,0,P|248:46|236:116,1,76.9950006461678,10|0,2:0|0:0,0:0:0:0:
245,285,53871,2,0,P|235:247|219:212,1,76.9950006461678,10|0,2:0|0:0,0:0:0:0:
238,8,54180,2,0,P|221:46|209:116,1,76.9950006461678,10|0,2:0|0:0,0:0:0:0:
402,359,54489,5,10,2:0:0:0:
315,68,54644,1,10,2:0:0:0:
305,384,54799,1,10,2:0:0:0:
420,36,54953,2,0,P|455:10|518:3,1,76.9950006461678,14|0,2:0|1:2,0:0:0:0:
306,170,55263,1,0,1:2:0:0:
306,170,55340,1,0,1:2:0:0:
306,170,55417,2,0,P|282:160|248:158,1,38.4975003230839,2|0,1:2|0:0,0:0:0:0:
159,275,55572,2,0,P|177:270|195:262,1,38.4975003230839,2|0,1:2|1:2,0:0:0:0:
315,68,55727,6,0,B|421:110|357:149|460:194,1,189.389994220276,6|8,1:2|2:0,0:0:0:0:
482,91,56191,1,0,0:0:0:0:
223,224,56345,2,0,P|170:197|100:184,1,94.694997110138,2|0,1:2|1:2,0:0:0:0:
246,341,56654,1,10,2:0:0:0:
88,104,56809,2,0,P|39:182|59:273,1,189.389994220276,2|0,1:2|1:2,0:0:0:0:
226,131,57273,2,0,P|180:144|139:167,1,94.694997110138,8|0,2:0|0:0,0:0:0:0:
374,299,57582,1,0,1:2:0:0:
289,79,57737,1,0,1:2:0:0:
292,358,57892,1,10,2:0:0:0:
391,131,58046,1,2,2:0:0:0:
463,384,58201,6,0,P|494:294|504:178,2,189.389994220276,2|8|2,1:2|2:0|1:2,0:0:0:0:
302,165,58974,1,0,1:2:0:0:
228,384,59129,1,10,2:0:0:0:
225,120,59283,6,0,P|169:75|37:126,1,189.389994220276,2|0,1:2|1:2,0:0:0:0:
25,340,59747,2,0,P|53:291|74:211,1,94.694997110138,10|0,2:0|0:0,0:0:0:0:
19,11,60057,2,0,P|35:55|59:95,1,94.694997110138,2|0,1:2|1:2,0:0:0:0:
152,342,60366,2,0,P|167:287|168:204,1,94.694997110138,10|0,2:0|0:0,0:0:0:0:
279,15,60675,6,0,P|348:-3|448:96,1,189.389994220276,2|12,1:2|2:0,0:0:0:0:
438,60,61294,1,2,1:2:0:0:
374,314,61448,1,2,1:2:0:0:
345,78,61603,2,0,P|361:131|372:202,1,94.694997110138,10|0,2:0|0:0,0:0:0:0:
176,374,61912,2,0,P|112:340|-7:307,2,189.389994220276,2|12|2,1:2|2:0|1:2,0:0:0:0:
83,173,62685,1,2,1:2:0:0:
273,313,62840,2,0,P|325:299|391:287,1,94.694997110138,10|0,2:0|0:0,0:0:0:0:
493,42,63149,6,0,P|459:123|440:209,1,142.042495665207,6|0,1:2|0:0,0:0:0:0:
407,250,63459,2,0,P|362:203|272:167,1,142.042495665207,14|0,2:0|0:0,0:0:0:0:
242,102,63768,2,0,P|192:152|127:181,1,142.042495665207,6|0,1:2|0:0,0:0:0:0:
55,133,64077,2,0,P|100:200|118:320,1,189.389994220276,14|0,2:0|1:0,0:0:0:0:
135,84,64541,1,0,1:0:0:0:
311,362,64696,5,8,2:0:0:0:
322,83,64850,1,0,1:0:0:0:
224,366,65005,1,8,2:0:0:0:
201,34,65160,1,0,1:0:0:0:
201,34,65237,1,0,1:0:0:0:
201,34,65314,2,0,P|213:53|221:89,1,47.347498555069,10|0,2:0|0:0,0:0:0:0:
141,368,65469,2,0,P|144:344|154:323,1,47.347498555069,2|0,1:2|1:2,0:0:0:0:
413,131,65624,6,0,P|360:178|247:145,2,189.389994220276,6|8|2,1:2|2:0|1:2,0:0:0:0:
201,34,66397,1,0,1:2:0:0:
484,166,66551,1,10,2:0:0:0:
148,106,66706,2,0,P|181:178|206:302,1,189.389994220276,2|0,1:2|1:2,0:0:0:0:
446,384,67170,2,0,P|458:332|481:266,1,94.694997110138,8|0,2:0|0:0,0:0:0:0:
393,105,67479,1,0,1:2:0:0:
294,288,67634,1,0,1:2:0:0:
256,32,67788,1,10,2:0:0:0:
380,290,67943,1,2,2:0:0:0:
228,21,68098,6,0,P|165:49|44:57,2,189.389994220276,2|8|2,1:2|2:0|1:2,0:0:0:0:
429,217,68871,1,0,1:2:0:0:
348,7,69026,1,10,2:0:0:0:
256,273,69180,2,0,P|194:306|75:252,1,189.389994220276,2|0,1:2|1:2,0:0:0:0:
345,89,69644,2,0,P|325:130|307:199,1,94.694997110138,10|0,2:0|0:0,0:0:0:0:
435,384,69953,2,0,P|421:338|401:295,1,94.694997110138,2|0,1:2|1:2,0:0:0:0:
256,97,70263,2,0,P|241:140|231:210,1,94.694997110138,10|0,2:0|0:0,0:0:0:0:
501,224,70572,6,0,P|436:200|318:267,1,189.389994220276,2|8,1:2|2:0,0:0:0:0:
331,246,71191,2,0,P|289:278|229:289,1,94.694997110138,2|0,1:2|1:2,0:0:0:0:
117,94,71500,2,0,P|162:107|198:136,1,94.694997110138,10|0,2:0|0:0,0:0:0:0:
57,343,71809,2,0,P|90:294|101:237,1,94.694997110138,2|0,1:2|0:0,0:0:0:0:
0,54,72118,2,0,P|9:100|33:140,1,94.694997110138,10|0,2:0|0:0,0:0:0:0:
79,330,72428,2,0,P|112:281|123:224,1,94.694997110138,2|0,1:2|1:2,0:0:0:0:
23,41,72737,2,0,P|32:87|56:127,1,94.694997110138,10|0,2:0|0:0,0:0:0:0:
223,288,73046,6,0,P|289:260|349:257,1,94.694997110138,6|0,1:2|0:0,0:0:0:0:
449,322,73355,1,8,2:0:0:0:
345,133,73510,2,0,P|302:111|256:101,1,94.694997110138,8|0,1:2|0:0,0:0:0:0:
464,309,73819,2,0,P|469:255|477:190,1,94.694997110138,8|0,2:0|0:0,0:0:0:0:
410,0,74129,6,0,P|415:47|420:94,1,94.694997110138,12|0,2:0|0:0,0:0:0:0:
379,290,74438,1,0,1:2:0:0:
242,38,74593,5,8,2:0:0:0:
173,285,74747,1,2,1:2:0:0:
97,2,74902,1,10,2:0:0:0:
173,305,75057,1,0,1:2:0:0:
372,67,75211,1,8,2:0:0:0:
134,171,75366,2,0,P|160:173|205:187,1,47.347498555069,0|0,1:2|1:2,0:0:0:0:
373,358,75520,6,0,B|250:317|349:282|195:230,2,189.389994220276,2|8|2,1:2|2:0|1:2,0:0:0:0:
488,176,76294,1,0,1:2:0:0:
293,98,76448,2,0,P|298:145|308:191,1,94.694997110138,10|0,2:0|0:0,0:0:0:0:
126,319,76758,6,0,P|131:271|173:105,2,189.389994220276,2|8|2,1:2|2:0|1:2,0:0:0:0:
376,62,77531,1,0,1:2:0:0:
246,288,77685,2,0,P|230:232|224:169,1,94.694997110138,10|0,2:0|0:0,0:0:0:0:
466,83,77995,6,0,P|394:156|306:130,1,189.389994220276,2|8,1:2|2:0,0:0:0:0:
200,19,78459,1,2,2:0:0:0:
104,227,78613,2,0,P|139:172|157:100,1,94.694997110138,2|0,1:2|1:2,0:0:0:0:
291,370,78922,2,0,P|263:331|245:287,1,94.694997110138,8|0,2:0|0:0,0:0:0:0:
287,61,79232,6,0,B|391:98|320:139|436:189,1,189.389994220276,0|8,1:2|2:0,0:0:0:0:
254,166,79696,1,0,1:2:0:0:
431,343,79850,1,8,2:0:0:0:
428,96,80005,1,8,1:3:0:0:
307,292,80160,1,6,1:3:0:0:
206,68,80314,1,4,1:3:0:0:
110,361,80469,6,0,P|28:254|84:88,1,284.084991330414,6|0,1:2|0:0,0:0:0:0:
350,133,81087,2,0,P|217:257|120:229,1,284.084991330414,6|0,1:2|0:0,0:0:0:0:
166,35,81706,2,0,B|306:107|187:164|354:250,1,284.084991330414,6|0,1:2|0:0,0:0:0:0:
512,142,82325,2,0,B|372:214|491:271|324:357,1,284.084991330414,6|0,1:2|0:0,0:0:0:0:
35,337,82943,2,0,B|353:301|102:75|471:19,1,545.159989185974,6|0,1:2|1:0,0:0:0:0:
325,265,84335,5,10,2:0:0:0:
249,17,84489,1,10,2:0:0:0:
251,305,84644,1,10,2:0:0:0:
327,57,84799,1,10,2:0:0:0:
382,351,84953,1,0,1:0:0:0:
170,54,85108,2,0,P|120:74|36:88,1,94.694997110138,10|0,2:0|0:0,0:0:0:0:
348,267,85417,6,0,P|445:231|532:216,1,171.690004060661,6|10,1:2|2:0,0:0:0:0:
251,131,85881,2,0,P|307:149|372:158,1,85.8450020303307,2|0,2:0|1:2,0:0:0:0:
212,358,86191,2,0,P|268:340|333:331,1,85.8450020303307,2|8,1:2|2:0,0:0:0:0:
100,324,86500,6,0,P|94:270|79:186,1,85.8450020303307,2|0,1:2|0:0,0:0:0:0:
30,58,86809,2,0,P|25:100|19:143,1,85.8450020303307,2|8,1:2|2:0,0:0:0:0:
114,318,87118,2,0,P|108:264|93:180,1,85.8450020303307,2|0,2:0|1:2,0:0:0:0:
44,52,87427,2,0,P|39:94|33:137,1,85.8450020303307,2|8,1:2|2:0,0:0:0:0:
33,137,87892,6,0,P|128:90|221:98,1,171.690004060661,2|10,1:2|2:0,0:0:0:0:
283,276,88355,2,0,P|256:232|238:150,1,85.8450020303307,2|0,2:0|1:2,0:0:0:0:
363,56,88665,2,0,P|347:96|324:132,1,85.8450020303307,2|8,1:2|2:0,0:0:0:0:
155,341,88974,2,0,P|207:347|284:364,1,85.8450020303307,2|0,1:2|0:0,0:0:0:0:
456,250,89283,2,0,P|404:256|327:273,1,85.8450020303307,2|8,1:2|2:0,0:0:0:0:
160,359,89593,2,0,P|212:365|289:382,1,85.8450020303307,2|0,2:0|1:2,0:0:0:0:
405,170,89901,1,2,1:2:0:0:
335,359,90056,1,8,2:0:0:0:
335,359,90366,6,0,P|294:260|287:172,1,171.690004060661,2|10,1:2|2:0,0:0:0:0:
393,11,90830,2,0,P|380:62|350:132,1,85.8450020303307,2|0,2:0|1:2,0:0:0:0:
180,227,91139,2,0,P|193:176|223:106,1,85.8450020303307,2|8,1:2|2:0,0:0:0:0:
492,116,91448,2,0,P|451:144|349:160,1,85.8450020303307,2|0,1:2|0:0,0:0:0:0:
205,60,91758,2,0,P|244:75|279:100,1,85.8450020303307,2|8,1:2|2:0,0:0:0:0:
470,224,92067,2,0,P|421:232|321:206,1,85.8450020303307,2|0,2:0|1:2,0:0:0:0:
209,82,92375,1,2,1:2:0:0:
241,298,92530,1,8,2:0:0:0:
243,317,92840,6,0,P|329:292|435:307,1,171.690004060661,6|8,1:2|2:0,0:0:0:0:
172,384,93304,2,0,P|99:371|17:332,1,128.767503045496,2|0,1:2|0:0,0:0:0:0:
26,276,93612,1,10,2:0:0:0:
281,234,93767,1,2,1:2:0:0:
53,174,93922,1,14,2:0:0:0:
66,164,94231,5,10,2:0:0:0:
363,95,94386,1,10,2:0:0:0:
378,92,94696,6,0,P|353:182|342:249,1,128.767503045496,10|0,2:0|0:0,0:0:0:0:
272,251,95005,2,0,P|258:187|240:126,1,128.767503045496,10|0,2:0|0:0,0:0:0:0:
165,78,95314,5,10,1:2:0:0:
98,355,95469,1,10,1:2:0:0:
61,14,95624,1,10,1:2:0:0:
162,271,95778,1,0,1:2:0:0:
162,271,95855,1,0,1:2:0:0:
162,271,95933,2,0,P|207:298|264:303,1,85.8450020303307,8|8,1:2|1:3,0:0:0:0:
512,18,96551,5,6,1:2:0:0:
512,18,96706,2,6,B|93:26|451:339|-18:364,1,699.15,2|0,1:2|0:2,1:2:0:0:
