osu file format v14

[General]
AudioFilename: audio.mp3
AudioLeadIn: 0
PreviewTime: 55340
Countdown: 0
SampleSet: Soft
StackLeniency: 0.4
Mode: 0
LetterboxInBreaks: 0
WidescreenStoryboard: 1

[Editor]
Bookmarks: 1294,11191,21087,40881,45830,55727,85417,96551
DistanceSpacing: 1.2
BeatDivisor: 4
GridSize: 8
TimelineZoom: 2

[Metadata]
Title:Bouken Type A, B, C!!
TitleUnicode:冒険Type A, B, C‼
Artist:Aqours
ArtistUnicode:Aqours
Creator:Sotarks
Version:Kowari's Hard
Source:ラブライブ!サンシャイン!!
Tags:Love Live! Sunshine!! school idol project yuki Chika Takami 高海千歌 Anju Inami 伊波杏樹 Riko Sakurauchi 桜内梨子 Rikako Aida 逢田梨香子 Kanan Matsuura 松浦果南 Nanaka Suwa 諏訪ななか Dia Kurosawa 黒澤ダイヤ Arisa Komiya 小宮有紗 You Watanabe 渡辺 曜 Shuka Saitou 斉藤朱夏 Yoshiko Tsushima Yohane 津島善子 Aika Kobayashi 小林愛香 Hanamaru Kunikida 国木田花丸 Kanako Takatsuki 高槻かなこ Mari Ohara 小原鞠莉 Aina Suzuki 鈴木愛奈 Ruby 黒澤ルビィ Ai Furihata 降幡 愛 female vocalist japanese Serizawa Haruki Jack J_a_c_k Kowari Kiyoshi Guarden SMOKELIND Adventure
BeatmapID:2151910
BeatmapSetID:1029085

[Difficulty]
HPDrainRate:4
CircleSize:3.8
OverallDifficulty:7
ApproachRate:8
SliderMultiplier:1.32
SliderTickRate:1

[Events]
//Background and Video events
0,0,"bg.jpg",0,0
//Break Periods
//Storyboard Layer 0 (Background)
//Storyboard Layer 1 (Fail)
//Storyboard Layer 2 (Pass)
//Storyboard Layer 3 (Foreground)
//Storyboard Layer 4 (Overlay)
//Storyboard Sound Samples

[TimingPoints]
57,309.278350515464,4,2,22,52,1,0
1139,-121.951219512195,4,2,22,52,0,0
1294,-138.888888888889,4,2,22,62,0,0
8716,-108.695652173913,4,2,22,62,0,0
10881,-81.9672131147541,4,2,22,62,0,0
11191,-98.0392156862745,4,2,22,72,0,0
21087,-108.695652173913,4,2,22,62,0,0
29593,-98.0392156862745,4,2,22,72,0,0
35933,-121.951219512195,4,2,22,62,0,0
36242,-81.9672131147541,4,2,22,62,0,0
36861,-98.0392156862745,4,2,22,62,0,0
37170,-121.951219512195,4,2,22,62,0,0
37479,-81.9672131147541,4,2,22,62,0,0
38407,-98.0392156862745,4,2,22,62,0,0
40881,-108.695652173913,4,2,22,62,0,0
45830,-98.0392156862745,4,2,22,62,0,0
54953,-81.9672131147541,4,2,22,72,0,0
55727,-89.2857142857143,4,2,22,82,0,0
63381,-89.2857142857143,4,2,22,5,0,0
63459,-81.9672131147541,4,2,22,82,0,0
63691,-89.2857142857143,4,2,22,5,0,0
63768,-75.7575757575758,4,2,22,82,0,0
64000,-89.2857142857143,4,2,22,5,0,0
64077,-89.2857142857143,4,2,22,82,0,0
65160,-89.2857142857143,4,2,22,82,0,0
82943,-161.290322580645,4,2,22,82,0,0
84489,-108.695652173913,4,2,22,82,0,0
85417,-98.0392156862745,4,2,22,72,0,0
96474,-89.2857142857143,4,2,22,5,0,0
96551,-89.2857142857143,4,2,22,72,0,0
96706,-1000,4,2,22,72,0,0
96783,-1000,4,2,22,72,0,0
105211,-1000,4,2,22,5,0,0

[Colours]
Combo1 : 47,107,136
Combo2 : 255,102,0
Combo3 : 255,245,128
Combo4 : 238,53,85

[HitObjects]
55,344,1139,6,0,L|63:303,1,27.0600004129028,0|0,1:0|1:0,0:0:0:0:
53,242,1294,6,0,B|190:218|190:218|246:257|195:312,1,237.600005800781,6|0,1:2|0:0,0:0:0:0:
254,358,2221,2,0,P|296:353|317:354,1,47.5200011601563,0|0,3:2|0:0,0:0:0:0:
356,299,2531,2,0,P|330:259|418:167,1,190.080004640625,2|0,2:0|0:0,0:0:0:0:
483,175,3304,1,0,2:0:0:0:
483,175,3459,2,0,P|475:127|473:120,1,47.5200011601563,2|2,3:2|2:0,0:0:0:0:
454,54,3768,6,0,P|396:69|349:78,1,95.0400023203126,6|0,1:2|3:2,0:0:0:0:
134,98,4541,1,0,0:0:0:0:
64,65,4696,2,0,P|68:31|70:14,1,47.5200011601563,0|0,3:2|0:0,0:0:0:0:
5,112,5005,6,0,L|18:212,1,95.0400023203126,2|0,2:0|3:2,0:0:0:0:
73,258,5469,2,0,B|133:237|133:237|172:251,2,95.0400023203126,8|4|4,2:3|2:3|2:3,0:0:0:0:
48,330,6242,6,0,P|77:367|196:325,1,190.080004640625,6|0,1:2|1:2,0:0:0:0:
255,283,7015,1,2,2:0:0:0:
323,316,7170,2,0,P|317:352|314:372,1,47.5200011601563,2|2,3:2|2:0,0:0:0:0:
395,281,7480,2,0,P|382:229|370:173,1,95.0400023203126,6|0,1:2|3:0,0:0:0:0:
370,36,8098,2,0,P|347:88|264:92,1,142.560003480469,0|2,1:2|2:0,0:0:0:0:
182,50,8716,6,0,P|189:3|191:-14,2,60.71999796167,10|0|0,2:0|1:2|1:2,0:0:0:0:
113,118,9180,2,0,P|164:133|186:213,1,121.43999592334,10|0,2:0|1:2,0:0:0:0:
126,265,9644,1,10,2:0:0:0:
126,265,9799,1,0,1:2:0:0:
187,339,9953,1,0,1:2:0:0:
187,339,10108,2,0,P|230:328|264:322,2,60.71999796167,10|0|0,2:0|1:2|1:2,0:0:0:0:
320,280,10572,2,0,P|361:291|393:299,1,60.71999796167,10|0,2:0|1:2,0:0:0:0:
472,211,10881,6,0,P|415:188|409:122,1,120.779995024018,14|0,2:0|0:0,0:0:0:0:
404,134,11191,6,0,B|322:135|361:181|258:173,1,134.640000821777,6|10,1:2|2:0,0:0:0:0:
214,125,11654,2,0,P|224:79|228:54,1,67.3200004108887,2|0,2:0|1:2,0:0:0:0:
160,13,11964,2,0,P|126:7|94:0,1,67.3200004108887,2|8,1:2|2:0,0:0:0:0:
53,69,12273,2,0,P|105:96|105:189,1,134.640000821777,2|2,1:2|1:2,0:0:0:0:
99,245,12737,1,8,2:0:0:0:
66,319,12892,2,0,P|18:315|-11:314,1,67.3200004108887,2|0,2:0|1:2,0:0:0:0:
158,366,13201,2,0,P|167:284|178:214,1,134.640000821777,2|0,1:2|0:0,0:0:0:0:
217,163,13665,5,2,1:2:0:0:
334,273,13974,1,10,2:0:0:0:
373,202,14129,2,0,P|316:197|298:194,1,67.3200004108887,2|0,2:0|1:2,0:0:0:0:
319,115,14438,2,0,P|376:120|394:123,1,67.3200004108887,2|8,1:2|2:0,0:0:0:0:
436,58,14747,2,0,P|490:73|510:157,1,134.640000821777,2|2,1:2|1:2,0:0:0:0:
458,200,15211,1,8,2:0:0:0:
458,200,15366,2,0,P|465:252|468:277,1,67.3200004108887,2|0,2:0|1:2,0:0:0:0:
417,330,15675,2,0,P|361:322|332:320,1,67.3200004108887,2|8,1:2|2:0,0:0:0:0:
228,213,16139,6,0,B|307:201|294:250|375:234,1,134.640000821777,2|10,1:2|2:0,0:0:0:0:
418,183,16603,2,0,P|410:134|406:107,1,67.3200004108887,2|0,2:0|1:2,0:0:0:0:
395,36,16912,1,2,1:2:0:0:
251,110,17221,2,0,P|162:96|99:88,1,134.640000821777,2|2,1:2|1:2,0:0:0:0:
48,132,17685,1,8,2:0:0:0:
80,206,17840,2,0,P|131:219|152:306,1,134.640000821777,2|2,2:0|1:2,0:0:0:0:
157,290,18304,1,8,2:0:0:0:
304,357,18613,6,0,L|317:202,1,134.640000821777,6|8,1:2|2:0,0:0:0:0:
286,147,19077,1,2,1:2:0:0:
419,56,19386,5,10,2:0:0:0:
419,56,19541,1,2,1:2:0:0:
481,106,19696,2,0,L|468:250,1,134.640000821777,14|10,2:0|2:0,0:0:0:0:
468,240,20160,1,10,2:0:0:0:
375,371,20469,2,0,P|424:366|449:365,2,67.3200004108887,10|0|10,2:0|1:2|2:0,0:0:0:0:
309,322,20933,5,0,0:0:0:0:
309,322,21010,1,0,0:0:0:0:
309,322,21087,2,0,B|236:318|261:356|189:348,2,121.43999592334,6|10|2,1:2|2:0|1:2,0:0:0:0:
370,189,22015,1,10,2:0:0:0:
370,189,22170,1,0,0:0:0:0:
315,131,22325,2,0,P|271:137|246:140,1,60.71999796167,2|0,1:2|0:0,0:0:0:0:
189,94,22634,2,0,P|142:113|125:193,1,121.43999592334,10|2,2:0|1:2,0:0:0:0:
46,204,23098,1,0,1:2:0:0:
46,204,23252,2,0,P|37:167|28:139,1,60.71999796167,10|0,2:0|0:0,0:0:0:0:
8,283,23562,6,0,P|66:289|142:300,2,121.43999592334,2|8|0,1:2|2:0|1:2,0:0:0:0:
132,379,24489,2,0,P|174:370|203:366,1,60.71999796167,10|2,2:0|2:0,0:0:0:0:
244,308,24799,2,0,P|203:280|201:200,1,121.43999592334,0|8,1:2|2:0,0:0:0:0:
259,55,25417,2,0,P|209:59|181:62,1,60.71999796167,0|0,1:2|1:2,0:0:0:0:
216,137,25727,2,0,P|266:133|294:130,1,60.71999796167,10|2,2:0|2:0,0:0:0:0:
352,110,26036,6,0,P|349:182|347:248,1,121.43999592334,2|8,1:2|2:0,0:0:0:0:
398,291,26500,1,2,2:0:0:0:
398,291,26654,1,2,1:2:0:0:
248,341,26964,2,0,P|194:337|160:338,1,60.71999796167,8|0,2:0|0:0,0:0:0:0:
129,283,27273,6,0,B|60:281|87:318|2:309,2,121.43999592334,2|10|2,1:2|2:0|1:2,0:0:0:0:
192,235,28046,1,0,1:2:0:0:
192,235,28201,2,0,P|187:188|184:156,1,60.71999796167,10|0,2:0|0:0,0:0:0:0:
224,105,28510,6,0,P|269:106|309:169,1,121.43999592334,2|10,1:2|2:0,0:0:0:0:
463,199,29129,2,0,P|466:142|467:117,1,60.71999796167,0|0,1:2|0:0,0:0:0:0:
496,65,29438,1,8,2:0:0:0:
496,65,29593,2,0,B|417:48|433:96|351:80,1,134.640000821777,4|0,1:2|1:0,0:0:0:0:
296,27,30057,1,8,2:0:0:0:
234,89,30211,5,8,1:2:0:0:
290,256,30520,1,8,1:2:0:0:
290,256,30675,2,0,P|281:315|276:352,1,67.3200004108887,2|2,2:0|1:2,0:0:0:0:
279,322,30907,1,0,1:0:0:0:
279,322,30984,6,0,B|206:316|226:357|134:349,1,134.640000821777,6|10,1:2|2:0,0:0:0:0:
41,212,31603,2,0,P|46:152|47:128,1,67.3200004108887,2|0,1:2|0:0,0:0:0:0:
100,75,31912,2,0,P|146:81|179:83,1,67.3200004108887,10|0,2:0|0:0,0:0:0:0:
235,28,32221,6,0,P|278:41|301:105,1,100.980000616333,2|0,1:2|0:0,0:0:0:0:
302,88,32531,2,0,P|347:86|385:86,1,67.3200004108887,10|0,2:0|0:0,0:0:0:0:
446,127,32840,1,2,1:2:0:0:
446,127,32995,1,0,1:2:0:0:
395,197,33149,2,0,P|402:244|405:272,1,67.3200004108887,10|0,2:0|0:0,0:0:0:0:
331,313,33459,6,0,P|320:228|310:163,2,134.640000821777,2|8|0,1:2|2:0|1:2,0:0:0:0:
160,353,34386,1,10,2:0:0:0:
120,274,34541,2,0,P|64:282|34:285,2,67.3200004108887,2|0|0,1:2|0:0|1:2,0:0:0:0:
159,195,35005,1,8,2:0:0:0:
123,23,35314,2,0,P|63:26|40:27,1,67.3200004108887,0|0,1:2|1:2,0:0:0:0:
172,87,35624,2,0,P|256:85|285:85,1,100.980000616333,10|0,2:0|0:0,0:0:0:0:
272,84,35933,6,0,L|268:138,1,54.1200008258057,2|0,1:2|0:0,0:0:0:0:
318,230,36242,2,0,P|364:224|424:322,1,161.039993365357,14|0,2:0|1:0,0:0:0:0:
500,257,36706,1,0,0:0:0:0:
500,257,36861,2,0,P|506:206|509:182,1,67.3200004108887,8|0,2:0|0:0,0:0:0:0:
480,115,37170,6,0,L|406:126,1,54.1200008258057,2|0,1:2|0:0,0:0:0:0:
341,60,37479,2,0,P|284:71|257:173,1,161.039993365357,12|0,2:0|1:2,0:0:0:0:
198,250,37943,1,0,1:2:0:0:
270,326,38098,2,0,P|320:318|355:314,1,80.5199966826784,10|2,2:0|2:0,0:0:0:0:
198,250,38407,6,0,B|121:245|147:290|59:282,1,134.640000821777,2|10,1:2|2:0,0:0:0:0:
3,120,39026,2,0,P|47:123|90:125,1,67.3200004108887,2|0,1:2|1:2,0:0:0:0:
132,62,39335,1,10,2:0:0:0:
132,62,39489,1,0,0:0:0:0:
210,100,39644,2,0,P|206:152|205:188,1,67.3200004108887,2|8,1:2|2:0,0:0:0:0:
273,222,39953,2,0,P|316:226|353:304,2,134.640000821777,0|10|8,1:2|2:3|2:3,0:0:0:0:
383,109,40881,6,0,P|378:56|375:32,2,60.71999796167,6|0|10,1:2|0:0|2:3,0:0:0:0:
435,168,41345,1,6,2:3:0:0:
323,280,41654,1,6,2:3:0:0:
200,182,41964,1,6,2:3:0:0:
127,322,42273,6,0,L|135:386,2,60.71999796167,6|8|6,2:3|2:3|2:3,0:0:0:0:
76,260,42737,1,2,1:2:0:0:
76,260,42892,1,0,1:2:0:0:
106,187,43046,1,8,2:0:0:0:
49,39,43355,6,0,P|114:47|179:55,1,121.43999592334,6|10,1:2|2:3,0:0:0:0:
244,27,43819,1,6,2:3:0:0:
186,174,44129,1,6,2:3:0:0:
254,315,44438,1,6,2:3:0:0:
318,171,44747,5,6,2:3:0:0:
384,213,44902,2,0,L|378:278,2,60.71999796167,8|6|2,2:3|2:3|1:2,0:0:0:0:
442,159,45366,1,0,1:2:0:0:
442,159,45520,2,0,P|488:167|511:172,1,60.71999796167,8|0,2:0|1:2,0:0:0:0:
394,93,45830,6,0,B|314:88|345:127|256:117,1,134.640000821777,6|8,1:2|2:0,0:0:0:0:
194,65,46294,1,0,1:2:0:0:
194,65,46603,1,0,1:2:0:0:
131,126,46758,2,0,L|140:199,1,67.3200004108887,10|0,2:0|0:0,0:0:0:0:
109,275,47067,6,0,P|49:269|23:267,1,67.3200004108887,2|0,2:0|1:2,0:0:0:0:
35,355,47376,2,0,P|95:361|121:363,1,67.3200004108887,10|0,2:0|0:0,0:0:0:0:
181,325,47685,1,2,1:2:0:0:
181,325,47840,1,0,1:2:0:0:
259,272,47995,6,0,L|262:384,1,100.980000616333,10|0,2:0|0:0,0:0:0:0:
261,372,48304,6,0,P|360:362|414:358,1,134.640000821777,6|8,1:2|2:0,0:0:0:0:
509,226,48922,2,0,P|456:211|433:129,1,134.640000821777,2|8,1:2|2:0,0:0:0:0:
323,2,49541,1,2,1:2:0:0:
323,2,49696,1,0,1:2:0:0:
299,243,50160,2,0,P|343:237|377:230,2,67.3200004108887,6|4|4,1:3|1:3|1:3,0:0:0:0:
219,262,50624,6,0,P|146:253|67:246,1,134.640000821777,6|0,1:2|1:2,0:0:0:0:
31,179,51087,1,8,2:0:0:0:
31,179,51242,1,0,0:0:0:0:
107,135,51397,2,0,P|153:109|166:40,1,100.980000616333,2|0,1:2|0:0,0:0:0:0:
169,65,51706,1,10,2:0:0:0:
244,20,51861,6,0,B|331:23|292:62|382:56,1,134.640000821777,2|0,1:2|1:2,0:0:0:0:
437,113,52325,2,0,P|431:167|427:197,1,67.3200004108887,8|0,2:0|1:2,0:0:0:0:
416,266,52634,1,2,1:2:0:0:
285,382,52943,5,10,2:0:0:0:
201,355,53098,1,6,1:2:0:0:
201,355,53407,1,2,1:2:0:0:
263,292,53562,5,10,2:0:0:0:
121,189,53871,1,10,2:0:0:0:
256,78,54180,1,10,2:0:0:0:
394,185,54489,5,10,2:0:0:0:
330,245,54644,1,10,2:0:0:0:
266,184,54799,1,10,2:0:0:0:
326,120,54953,1,14,2:0:0:0:
256,78,55108,6,0,P|191:74|149:63,1,80.5199966826784,0|0,1:2|1:2,0:0:0:0:
165,62,55340,1,0,1:2:0:0:
153,54,55417,2,0,P|94:59|69:63,1,80.5199966826784,2|2,1:2|1:2,0:0:0:0:
56,151,55727,6,0,P|100:162|128:265,1,147.840001804688,6|8,1:2|2:0,0:0:0:0:
70,322,56191,1,0,0:0:0:0:
149,375,56345,2,0,P|203:370|231:368,1,73.9200009023438,2|0,1:2|1:2,0:0:0:0:
287,297,56654,1,10,2:0:0:0:
256,205,56809,6,0,B|348:195|325:246|416:232,1,147.840001804688,2|0,1:2|1:2,0:0:0:0:
472,295,57273,2,0,P|469:335|467:387,1,73.9200009023438,8|0,2:0|0:0,0:0:0:0:
508,208,57583,1,0,1:2:0:0:
508,208,57737,1,0,1:2:0:0:
473,118,57892,2,0,P|394:128|339:137,1,110.880001353516,10|0,2:0|0:0,0:0:0:0:
363,132,58201,6,0,P|312:172|325:258,1,147.840001804688,2|8,1:2|2:0,0:0:0:0:
227,289,58665,1,0,0:0:0:0:
153,228,58819,2,0,P|160:164|161:142,1,73.9200009023438,2|0,1:2|1:2,0:0:0:0:
105,74,59129,1,10,2:0:0:0:
191,34,59283,6,0,P|274:47|349:57,1,147.840001804688,2|0,1:2|1:2,0:0:0:0:
426,19,59747,1,10,2:0:0:0:
322,181,60057,2,0,P|316:248|313:282,1,73.9200009023438,2|0,1:2|1:2,0:0:0:0:
370,329,60366,2,0,P|432:316|461:312,1,73.9200009023438,10|0,2:0|0:0,0:0:0:0:
291,384,60675,6,0,B|205:376|251:338|151:328,2,147.840001804688,2|12|2,1:2|2:0|1:2,0:0:0:0:
370,329,61448,1,2,1:2:0:0:
315,254,61603,2,0,L|222:260,1,73.9200009023438,10|0,2:0|0:0,0:0:0:0:
377,185,61912,6,0,P|427:172|455:72,2,147.840001804688,2|12|2,1:2|2:0|1:2,0:0:0:0:
297,130,62685,1,2,1:2:0:0:
317,35,62840,2,0,P|368:42|397:45,1,73.9200009023438,10|0,2:0|0:0,0:0:0:0:
235,2,63149,5,6,1:2:0:0:
141,170,63459,1,14,2:0:0:0:
258,322,63768,1,6,1:2:0:0:
141,170,64077,2,0,B|227:167|206:212|296:202,1,147.840001804688,14|0,2:0|1:0,0:0:0:0:
332,120,64541,1,0,1:0:0:0:
332,120,64696,2,0,P|324:75|318:40,1,73.9200009023438,8|0,2:0|1:0,0:0:0:0:
398,177,65005,5,8,2:0:0:0:
492,159,65160,1,0,1:0:0:0:
510,253,65315,1,10,2:0:0:0:
416,272,65469,1,2,1:2:0:0:
416,272,65546,1,0,1:2:0:0:
416,272,65624,6,0,P|355:309|349:360,1,110.880001353516,6|0,1:2|0:0,0:0:0:0:
346,343,65933,2,0,P|295:335|262:331,1,73.9200009023438,8|0,2:0|0:0,0:0:0:0:
200,268,66242,2,0,P|207:211|212:173,1,73.9200009023438,2|0,1:2|1:2,0:0:0:0:
220,98,66551,1,10,2:0:0:0:
123,102,66706,6,0,P|116:175|108:249,1,147.840001804688,2|0,1:2|1:2,0:0:0:0:
94,344,67170,1,8,2:0:0:0:
9,172,67479,1,0,1:2:0:0:
9,172,67634,1,0,1:2:0:0:
50,85,67788,2,0,P|92:95|126:102,1,73.9200009023438,10|2,2:0|2:0,0:0:0:0:
201,45,68098,6,0,P|246:62|261:131,1,110.880001353516,2|0,1:2|0:0,0:0:0:0:
264,118,68407,2,0,P|307:114|357:112,1,73.9200009023438,8|0,2:0|0:0,0:0:0:0:
416,167,68716,2,0,P|407:231|405:256,1,73.9200009023438,2|0,1:2|1:2,0:0:0:0:
392,336,69026,1,10,2:0:0:0:
303,371,69180,6,0,B|221:368|266:331|152:326,1,147.840001804688,2|0,1:2|1:2,0:0:0:0:
129,237,69644,2,0,P|127:171|124:133,1,73.9200009023438,10|0,2:0|0:0,0:0:0:0:
222,152,69953,2,0,P|224:218|227:256,1,73.9200009023438,2|0,1:2|1:2,0:0:0:0:
307,275,70263,1,10,2:0:0:0:
317,84,70572,6,0,P|239:77|151:72,2,147.840001804688,2|8|2,1:2|2:0|1:2,0:0:0:0:
397,31,71345,1,0,1:2:0:0:
439,117,71500,2,0,P|427:175|422:200,1,73.9200009023438,10|0,2:0|0:0,0:0:0:0:
403,283,71809,2,0,P|352:284|307:375,1,147.840001804688,2|10,1:2|2:0,0:0:0:0:
238,288,72273,1,0,0:0:0:0:
153,311,72428,2,0,P|158:354|162:387,1,73.9200009023438,2|0,1:2|1:2,0:0:0:0:
76,275,72737,2,0,P|81:231|85:199,1,73.9200009023438,10|0,2:0|0:0,0:0:0:0:
100,106,73046,6,0,B|169:111|147:141|215:149,1,110.880001353516,6|0,1:2|0:0,0:0:0:0:
201,146,73355,1,8,2:0:0:0:
280,93,73510,2,0,P|322:103|351:213,1,147.840001804688,8|8,1:2|2:0,0:0:0:0:
423,264,73974,1,0,0:0:0:0:
498,204,74129,6,0,P|495:137|492:33,1,147.840001804688,12|0,2:0|1:2,0:0:0:0:
405,14,74593,2,0,P|347:23|324:28,1,73.9200009023438,8|2,2:0|1:2,0:0:0:0:
252,80,74902,1,10,2:0:0:0:
167,34,75057,2,0,L|174:-4,2,36.9600004511719,0|0|8,1:2|1:2|2:0,0:0:0:0:
89,91,75366,1,0,1:2:0:0:
89,91,75520,6,0,P|133:102|156:220,1,147.840001804688,2|8,1:2|2:0,0:0:0:0:
170,189,76139,2,0,P|114:196|81:202,1,73.9200009023438,2|0,1:2|1:2,0:0:0:0:
231,258,76448,2,0,P|267:263|304:267,1,73.9200009023438,10|0,2:0|0:0,0:0:0:0:
380,207,76758,6,0,L|363:53,2,147.840001804688,2|8|2,1:2|2:0|1:2,0:0:0:0:
447,275,77531,1,0,1:2:0:0:
396,356,77685,2,0,P|336:358|304:362,1,73.9200009023438,10|0,2:0|0:0,0:0:0:0:
239,308,77995,2,0,B|157:310|182:352|85:341,1,147.840001804688,2|8,1:2|2:0,0:0:0:0:
23,281,78459,1,2,2:0:0:0:
23,281,78613,2,0,P|28:228|30:203,1,73.9200009023438,2|0,1:2|1:2,0:0:0:0:
87,130,78922,2,0,P|82:77|80:52,1,73.9200009023438,8|0,2:0|0:0,0:0:0:0:
165,10,79232,5,0,1:2:0:0:
165,10,79386,1,0,1:2:0:0:
227,83,79541,2,0,P|281:78|308:76,1,73.9200009023438,8|0,2:0|1:2,0:0:0:0:
385,122,79850,2,0,P|379:192|376:212,1,73.9200009023438,8|8,2:0|1:3,0:0:0:0:
378,195,80082,1,0,0:0:0:0:
378,195,80160,1,6,1:3:0:0:
440,268,80314,1,4,1:3:0:0:
391,351,80469,5,6,1:2:0:0:
391,351,81087,1,6,1:2:0:0:
146,230,81706,1,6,1:2:0:0:
146,230,82325,1,6,1:2:0:0:
293,77,82943,6,0,P|238:80|188:304,1,327.359987012696,6|0,1:2|1:0,0:0:0:0:
248,255,84335,1,10,2:0:0:0:
248,255,84489,2,0,L|312:248,1,60.71999796167,10|2,2:0|2:0,0:0:0:0:
371,199,84799,2,0,L|442:212,2,60.71999796167,10|0|10,2:0|1:0|2:0,0:0:0:0:
263,78,85417,6,0,B|188:75|220:117|116:108,1,134.640000821777,6|10,1:2|2:0,0:0:0:0:
90,176,85881,2,0,P|141:200|150:288,1,134.640000821777,2|2,2:0|1:2,0:0:0:0:
132,348,86345,1,8,2:0:0:0:
207,378,86500,2,0,P|256:371|284:367,1,67.3200004108887,2|0,1:2|0:0,0:0:0:0:
315,299,86809,2,0,P|308:250|304:222,1,67.3200004108887,2|8,1:2|2:0,0:0:0:0:
329,154,87118,2,0,P|406:167|468:177,2,134.640000821777,2|2|0,2:0|1:2|0:0,0:0:0:0:
266,101,87892,6,0,P|219:114|188:191,1,134.640000821777,2|10,1:2|2:0,0:0:0:0:
218,262,88355,2,0,P|276:255|298:253,1,67.3200004108887,2|0,2:0|1:2,0:0:0:0:
161,325,88665,1,2,1:2:0:0:
161,325,88819,1,8,2:0:0:0:
95,277,88974,2,0,P|94:207|88:131,1,134.640000821777,2|2,1:2|1:2,0:0:0:0:
58,67,89438,1,8,2:0:0:0:
117,12,89593,2,0,B|207:12|166:51|253:48,1,134.640000821777,2|2,2:0|1:2,0:0:0:0:
317,15,90057,1,8,2:0:0:0:
423,136,90366,6,0,P|413:205|407:284,1,134.640000821777,2|10,1:2|2:0,0:0:0:0:
361,336,90830,2,0,P|306:325|283:321,1,67.3200004108887,2|0,2:0|1:2,0:0:0:0:
234,268,91139,2,0,P|245:213|249:190,1,67.3200004108887,2|8,1:2|2:0,0:0:0:0:
196,138,91448,2,0,P|143:138|100:214,1,134.640000821777,2|2,1:2|1:2,0:0:0:0:
102,281,91912,1,8,2:0:0:0:
102,281,92067,2,0,P|41:276|19:274,1,67.3200004108887,2|0,2:0|1:2,0:0:0:0:
6,199,92376,1,2,1:2:0:0:
6,199,92531,2,0,L|18:88,1,100.980000616333,8|0,2:0|0:0,0:0:0:0:
16,98,92840,6,0,B|93:94|72:137|158:133,1,134.640000821777,6|8,1:2|2:0,0:0:0:0:
200,75,93304,1,2,1:2:0:0:
268,221,93613,1,10,2:0:0:0:
268,221,93768,1,2,1:2:0:0:
329,169,93922,2,0,P|370:176|416:258,1,134.640000821777,14|10,2:0|2:0,0:0:0:0:
395,328,94386,1,10,2:0:0:0:
494,200,94696,1,10,2:0:0:0:
396,71,95005,1,10,2:0:0:0:
293,195,95314,5,10,1:2:0:0:
233,250,95469,1,10,1:2:0:0:
175,192,95624,1,10,1:2:0:0:
233,136,95778,2,0,L|231:95,2,33.6600002054443,0|0|8,1:2|1:2|1:2,0:0:0:0:
198,24,96087,2,0,P|136:26|90:96,1,134.640000821777,8|0,1:3|0:0,0:0:0:0:
73,172,96551,5,6,1:2:0:0:
73,172,96706,1,0,1:2:0:0:
256,192,96783,12,0,105211,0:0:0:0:
