osu file format v14

[General]
AudioFilename: audio.mp3
AudioLeadIn: 0
PreviewTime: 55340
Countdown: 0
SampleSet: Soft
StackLeniency: 0.7
Mode: 0
LetterboxInBreaks: 0
WidescreenStoryboard: 1

[Editor]
Bookmarks: 1294,11191,21087,40881,45830,55727,85417,96551
DistanceSpacing: 0.8
BeatDivisor: 4
GridSize: 16
TimelineZoom: 2

[Metadata]
Title:Bouken Type A, B, C!!
TitleUnicode:冒険Type A, B, C‼
Artist:Aqours
ArtistUnicode:Aqours
Creator:Sotarks
Version:Kiyoshi's Insane
Source:ラブライブ!サンシャイン!!
Tags:Love Live! Sunshine!! school idol project yuki Chika Takami 高海千歌 Anju Inami 伊波杏樹 Riko Sakurauchi 桜内梨子 Rikako Aida 逢田梨香子 Kanan Matsuura 松浦果南 Nanaka Suwa 諏訪ななか Dia Kurosawa 黒澤ダイヤ Arisa Komiya 小宮有紗 You Watanabe 渡辺 曜 Shuka Saitou 斉藤朱夏 Yoshiko Tsushima Yohane 津島善子 Aika Kobayashi 小林愛香 Hanamaru Kunikida 国木田花丸 Kanako Takatsuki 高槻かなこ Mari Ohara 小原鞠莉 Aina Suzuki 鈴木愛奈 Ruby 黒澤ルビィ Ai Furihata 降幡 愛 female vocalist japanese Serizawa Haruki Jack J_a_c_k Kowari Kiyoshi Guarden SMOKELIND Adventure
BeatmapID:2151909
BeatmapSetID:1029085

[Difficulty]
HPDrainRate:4.8
CircleSize:4
OverallDifficulty:8.5
ApproachRate:9
SliderMultiplier:1.72
SliderTickRate:1

[Events]
//Background and Video events
0,0,"bg.jpg",0,0
//Break Periods
//Storyboard Layer 0 (Background)
//Storyboard Layer 1 (Fail)
//Storyboard Layer 2 (Pass)
//Storyboard Layer 3 (Foreground)
//Storyboard Layer 4 (Overlay)
//Storyboard Sound Samples

[TimingPoints]
57,309.278350515464,4,2,22,52,1,0
1139,-121.951219512195,4,2,22,52,0,0
1294,-138.888888888889,4,2,22,62,0,0
8716,-121.951219512195,4,2,22,62,0,0
10881,-81.9672131147541,4,2,22,62,0,0
11191,-98.0392156862745,4,2,22,72,0,0
21087,-108.695652173913,4,2,22,62,0,0
29593,-98.0392156862745,4,2,22,72,0,0
35933,-121.951219512195,4,2,22,62,0,0
36242,-81.9672131147541,4,2,22,62,0,0
36861,-98.0392156862745,4,2,22,62,0,0
37170,-121.951219512195,4,2,22,62,0,0
37479,-81.9672131147541,4,2,22,62,0,0
38407,-98.0392156862745,4,2,22,62,0,0
40881,-108.695652173913,4,2,22,62,0,0
45830,-98.0392156862745,4,2,22,62,0,0
54953,-81.9672131147541,4,2,22,72,0,0
55727,-89.2857142857143,4,2,22,82,0,0
63381,-89.2857142857143,4,2,22,5,0,0
63459,-81.9672131147541,4,2,22,82,0,0
63691,-89.2857142857143,4,2,22,5,0,0
63768,-75.7575757575758,4,2,22,82,0,0
64000,-89.2857142857143,4,2,22,5,0,0
64077,-70.4225352112676,4,2,22,82,0,0
65160,-89.2857142857143,4,2,22,82,0,0
82943,-161.290322580645,4,2,22,82,0,0
85417,-98.0392156862745,4,2,22,72,0,0
96474,-89.2857142857143,4,2,22,5,0,0
96551,-89.2857142857143,4,2,22,72,0,0
96706,-1000,4,2,22,72,0,0
96783,-1000,4,2,22,5,0,0

[Colours]
Combo1 : 47,107,136
Combo2 : 255,102,0
Combo3 : 255,245,128
Combo4 : 238,53,85

[HitObjects]
225,144,1139,6,0,P|250:139|284:142,1,35.2600005380249,0|0,1:0|1:0,0:0:0:0:
364,148,1294,2,0,B|293:138|315:177|225:171,2,123.840003023438,6|0|0,1:2|3:2|0:0,0:0:0:0:
487,89,2067,2,0,P|471:144|463:222,1,123.840003023438
356,303,2531,6,0,P|416:290|496:318,2,123.840003023438,2|0|0,2:0|3:2|0:0,0:0:0:0:
241,358,3304,1,0,2:0:0:0:
304,204,3459,1,2,3:2:0:0:
304,204,3613,1,2,2:0:0:0:
176,293,3768,6,0,P|123:290|61:225,2,123.840003023438,6|0|0,1:2|3:2|0:0,0:0:0:0:
30,326,4541,2,0,P|32:261|23:183,1,123.840003023438
151,115,5005,2,0,B|229:129|187:163|274:178,1,123.840003023438,2|0,2:0|3:2,0:0:0:0:
338,154,5469,2,0,P|307:143|274:117,1,61.9200015117188,8|0,2:3|2:0,0:0:0:0:
445,77,5778,2,0,P|470:59|499:49,1,61.9200015117188,4|0,2:3|0:0,0:0:0:0:
410,235,6087,1,4,2:3:0:0:
348,25,6242,6,0,P|368:91|385:215,1,185.760004535156,6|0,1:2|0:0,0:0:0:0:
267,75,6861,2,0,B|192:71|230:29|134:32,1,123.840003023438,0|2,1:2|3:2,0:0:0:0:
132,133,7325,1,2,2:0:0:0:
49,81,7479,6,0,P|36:132|34:216,2,123.840003023438,6|0|0,1:2|3:0|1:2,0:0:0:0:
203,175,8252,1,2,2:0:0:0:
57,243,8407,1,2,3:2:0:0:
57,243,8562,1,2,2:0:0:0:
172,287,8716,6,0,P|184:326|188:378,2,70.5200010760498,10|0|0,2:0|1:2|1:2,0:0:0:0:
271,229,9180,2,0,P|276:194|286:160,2,70.5200010760498,10|0|0,2:0|1:2|1:2,0:0:0:0:
119,125,9644,2,0,P|129:159|135:194,2,70.5200010760498,10|0|0,2:0|1:2|1:2,0:0:0:0:
236,69,10108,2,0,P|241:34|251:0,2,70.5200010760498,10|0|0,2:0|1:2|1:2,0:0:0:0:
385,118,10572,5,10,2:0:0:0:
211,185,10727,1,0,1:2:0:0:
332,43,10881,2,0,P|409:27|468:85,1,157.379993516144,14|0,2:0|0:0,0:0:0:0:
496,143,11191,6,0,P|482:188|472:251,1,87.7200005354004,6|0,1:2|0:0,0:0:0:0:
491,344,11500,1,10,2:0:0:0:
404,174,11654,2,0,P|418:219|428:282,1,87.7200005354004,2|0,2:0|1:2,0:0:0:0:
358,383,11964,1,2,1:2:0:0:
358,383,12118,1,8,2:0:0:0:
312,218,12273,6,0,B|206:229|263:283|127:291,1,175.440001070801,2|2,1:2|1:2,0:0:0:0:
32,189,12737,1,8,2:0:0:0:
110,354,12892,2,0,P|114:290|125:240,1,87.7200005354004,2|0,2:0|1:2,0:0:0:0:
195,68,13201,2,0,P|155:39|78:131,1,175.440001070801,2|0,1:2|0:0,0:0:0:0:
190,142,13665,6,0,P|233:114|297:100,1,87.7200005354004,2|0,1:2|0:0,0:0:0:0:
360,235,13974,1,10,2:0:0:0:
345,52,14129,2,0,P|290:30|237:28,1,87.7200005354004,2|0,2:0|1:2,0:0:0:0:
249,211,14438,1,2,1:2:0:0:
249,211,14593,1,8,2:0:0:0:
429,88,14747,6,0,P|406:170|390:284,1,175.440001070801,2|2,1:2|1:2,0:0:0:0:
430,376,15211,1,8,2:0:0:0:
331,152,15366,2,0,P|352:200|361:256,1,87.7200005354004,2|0,2:0|1:2,0:0:0:0:
273,371,15675,2,0,B|175:358|232:305|84:303,1,175.440001070801,2|0,1:2|0:0,0:0:0:0:
278,280,16139,6,0,P|320:269|388:274,1,87.7200005354004,2|0,1:2|0:0,0:0:0:0:
237,120,16448,1,10,2:0:0:0:
155,172,16603,2,0,P|138:223|131:266,1,87.7200005354004,2|0,2:0|1:2,0:0:0:0:
58,136,16912,2,0,P|53:81|40:35,1,87.7200005354004,2|8,1:2|2:0,0:0:0:0:
179,48,17221,6,0,P|230:26|349:52,1,175.440001070801,2|2,1:2|1:2,0:0:0:0:
369,198,17685,1,8,2:0:0:0:
414,80,17840,2,0,P|401:132|396:193,1,87.7200005354004,2|0,2:0|1:2,0:0:0:0:
298,274,18149,1,2,1:2:0:0:
298,274,18304,2,0,P|292:230|280:188,1,87.7200005354004,8|0,2:0|0:0,0:0:0:0:
141,97,18613,6,0,P|79:78|31:84,1,87.7200005354004,6|0,1:2|0:0,0:0:0:0:
174,208,18922,1,8,2:0:0:0:
174,208,19077,2,0,P|187:117|217:30,1,175.440001070801,2|10,1:2|2:0,0:0:0:0:
88,221,19541,1,2,1:2:0:0:
269,147,19696,6,0,B|371:156|324:202|430:209,1,175.440001070801,14|10,2:0|2:0,0:0:0:0:
496,121,20160,1,10,2:0:0:0:
366,299,20469,1,10,2:0:0:0:
378,55,20778,1,10,2:0:0:0:
468,249,21087,6,0,P|407:212|309:219,2,158.239994687988,6|10|2,1:2|2:0|1:2,0:0:0:0:
289,323,21861,1,0,0:0:0:0:
289,323,22015,2,0,P|288:271|278:225,1,79.1199973439942,10|0,2:0|0:0,0:0:0:0:
172,139,22325,6,0,B|77:120|107:179|3:160,2,158.239994687988,2|10|2,1:2|2:0|1:2,0:0:0:0:
259,93,23098,1,0,1:2:0:0:
259,93,23252,2,0,P|247:140|242:196,1,79.1199973439942,10|0,2:0|0:0,0:0:0:0:
160,371,23562,6,0,P|159:296|124:198,2,158.239994687988,2|8|0,1:2|2:0|1:2,0:0:0:0:
255,276,24335,1,0,0:0:0:0:
255,276,24489,2,0,P|263:229|278:178,1,79.1199973439942,10|2,2:0|2:0,0:0:0:0:
450,159,24799,6,0,B|362:144|422:99|302:85,2,158.239994687988,0|8|0,1:2|2:0|1:2,0:0:0:0:
361,20,25572,1,0,1:2:0:0:
361,20,25727,2,0,P|310:40|250:41,1,79.1199973439942,10|2,2:0|2:0,0:0:0:0:
131,14,26036,6,0,P|145:69|146:190,1,158.239994687988,2|8,1:2|2:0,0:0:0:0:
34,229,26500,1,2,2:0:0:0:
34,229,26654,2,0,B|127:239|95:175|196:191,1,158.239994687988,2|8,1:2|2:0,0:0:0:0:
251,117,27118,1,0,0:0:0:0:
251,281,27273,6,0,P|199:268|140:273,1,79.1199973439942,2|0,1:2|0:0,0:0:0:0:
334,193,27582,2,0,P|386:180|445:185,1,79.1199973439942,10|0,2:0|0:0,0:0:0:0:
301,340,27892,2,0,L|281:145,1,158.239994687988,2|10,1:2|2:0,0:0:0:0:
281,29,28355,1,0,0:0:0:0:
169,111,28510,6,0,P|179:155|180:207,1,79.1199973439942,2|0,1:2|0:0,0:0:0:0:
151,314,28819,1,10,2:0:0:0:
235,154,28974,2,0,P|225:198|224:250,1,79.1199973439942,2|0,2:0|1:2,0:0:0:0:
276,359,29283,1,0,0:0:0:0:
276,359,29361,1,0,0:0:0:0:
276,359,29438,1,8,2:0:0:0:
350,246,29593,6,0,B|453:254|420:195|518:196,1,175.440001070801,4|0,1:2|1:0,0:0:0:0:
345,158,30057,1,8,2:0:0:0:
470,309,30211,1,8,1:2:0:0:
496,66,30520,1,8,1:2:0:0:
304,283,30675,6,0,P|299:241|284:201,1,43.8600002677002,2|0,2:0|0:0,0:0:0:0:
413,88,30830,2,0,P|406:130|403:171,1,43.8600002677002,2|0,1:2|1:0,0:0:0:0:
270,318,30984,6,0,P|262:244|233:142,2,175.440001070801,6|10|2,1:2|2:0|1:2,0:0:0:0:
133,177,31758,1,0,0:0:0:0:
133,177,31912,2,0,P|144:119|161:77,1,87.7200005354004,10|0,2:0|0:0,0:0:0:0:
333,46,32221,6,0,B|426:61|377:111|489:125,2,175.440001070801,2|10|2,1:2|2:0|1:2,0:0:0:0:
234,146,32995,1,0,1:2:0:0:
234,146,33149,2,0,P|283:129|330:130,1,87.7200005354004,10|0,2:0|0:0,0:0:0:0:
151,65,33459,6,0,P|90:46|8:138,2,175.440001070801,2|8|0,1:2|2:0|1:2,0:0:0:0:
240,25,34232,1,0,0:0:0:0:
240,25,34386,1,10,2:0:0:0:
161,207,34541,2,0,B|51:213|113:151|-23:151,1,175.440001070801,2|0,1:2|1:2,0:0:0:0:
234,146,35005,2,0,P|217:209|212:271,1,87.7200005354004,8|0,2:0|0:0,0:0:0:0:
245,338,35314,1,0,1:2:0:0:
245,338,35469,1,0,1:2:0:0:
333,233,35624,2,0,B|415:237|372:277|458:281,1,131.580000803101,10|0,2:0|0:0,0:0:0:0:
503,295,35933,6,0,P|472:282|431:197,1,105.780001614075,2|0,1:2|0:0,0:0:0:0:
416,133,36242,2,0,P|403:73|276:92,1,209.839991354859,14|0,2:0|1:0,0:0:0:0:
213,231,36706,1,0,0:0:0:0:
187,102,36861,2,0,B|112:98|147:50|47:47,1,131.580000803101,8|0,2:0|0:0,0:0:0:0:
18,55,37170,6,0,P|62:78|90:149,1,105.780001614075,2|0,1:2|0:0,0:0:0:0:
61,224,37479,2,0,B|176:239|120:153|279:180,1,209.839991354859,12|0,2:0|1:2,0:0:0:0:
337,286,37943,1,0,1:2:0:0:
266,138,38098,1,10,2:0:0:0:
318,320,38252,1,2,2:0:0:0:
384,172,38407,6,0,P|423:154|486:163,1,87.7200005354004,2|0,1:2|0:0,0:0:0:0:
248,274,38716,2,0,P|209:292|146:283,1,87.7200005354004,10|0,2:0|0:0,0:0:0:0:
342,111,39026,1,2,1:2:0:0:
342,111,39180,1,0,1:2:0:0:
412,331,39335,2,0,P|418:268|431:227,1,87.7200005354004,10|0,2:0|0:0,0:0:0:0:
427,68,39644,5,2,1:2:0:0:
301,187,39799,2,0,P|251:199|145:117,1,175.440001070801,8|0,2:0|0:0,0:0:0:0:
263,101,40263,1,10,2:3:0:0:
120,247,40417,2,0,P|119:171|104:68,1,175.440001070801,4|4,2:3|2:3,0:0:0:0:
241,8,40881,6,0,B|331:25|292:63|383:82,1,158.239994687988,6|10,1:2|2:3,0:0:0:0:
468,129,41345,2,0,P|426:120|377:129,1,79.1199973439942,6|0,2:3|0:0,0:0:0:0:
301,187,41654,2,0,P|249:199|205:191,1,79.1199973439942,6|8,2:3|2:3,0:0:0:0:
166,56,41964,2,0,P|212:75|236:105,1,79.1199973439942,6|0,2:3|0:0,0:0:0:0:
54,124,42273,2,0,P|38:73|43:30,1,79.1199973439942,6|8,2:3|2:3,0:0:0:0:
134,228,42582,2,0,P|76:212|35:216,2,79.1199973439942,6|2|0,2:3|1:2|1:2,0:0:0:0:
220,320,43046,1,8,2:0:0:0:
220,320,43355,6,0,P|229:261|230:231,1,79.1199973439942,6|0,1:2|0:0,0:0:0:0:
170,133,43665,1,10,2:3:0:0:
309,265,43819,2,0,P|316:212|329:162,1,79.1199973439942,6|0,2:3|0:0,0:0:0:0:
202,51,44129,2,0,P|210:89|214:128,1,79.1199973439942,6|8,2:3|2:3,0:0:0:0:
362,62,44438,6,0,P|418:65|451:177,1,158.239994687988,6|6,2:3|2:3,0:0:0:0:
411,295,44902,1,8,2:3:0:0:
411,295,45057,1,6,2:3:0:0:
321,187,45211,2,0,P|276:167|218:165,1,79.1199973439942,2|0,1:2|1:2,0:0:0:0:
225,343,45520,2,0,P|258:310|274:273,1,79.1199973439942,8|0,2:0|1:2,0:0:0:0:
157,233,45830,6,0,B|42:236|113:167|-31:170,2,175.440001070801,6|8|0,1:2|2:0|0:0,0:0:0:0:
138,105,46603,1,0,1:2:0:0:
138,105,46758,2,0,P|90:130|36:140,1,87.7200005354004,10|0,2:0|0:0,0:0:0:0:
246,26,47067,6,0,P|265:75|271:136,1,87.7200005354004,2|0,2:0|1:2,0:0:0:0:
362,261,47376,2,0,P|374:176|397:69,1,175.440001070801,10|2,2:0|1:2,0:0:0:0:
447,282,47840,1,0,1:2:0:0:
287,156,47995,2,0,P|305:220|312:276,1,87.7200005354004,10|0,2:0|0:0,0:0:0:0:
237,354,48304,6,0,B|120:340|199:290|43:271,1,175.440001070801,6|8,1:2|2:0,0:0:0:0:
94,104,48922,2,0,P|150:69|194:160,1,175.440001070801,2|8,1:2|2:0,0:0:0:0:
309,286,49541,5,2,1:2:0:0:
287,156,49696,2,0,B|394:166|339:219|452:236,1,175.440001070801,0|0,1:2|0:0,0:0:0:0:
512,189,50082,1,0,0:0:0:0:
512,189,50160,2,0,P|511:128|395:107,1,175.440001070801,6|4,1:3|1:3,0:0:0:0:
228,19,50624,6,0,P|247:110|252:213,1,175.440001070801,6|0,1:2|1:2,0:0:0:0:
94,324,51087,2,0,P|82:278|82:225,1,87.7200005354004,8|0,2:0|0:0,0:0:0:0:
284,234,51397,2,0,P|249:273|192:293,1,87.7200005354004,2|0,1:2|0:0,0:0:0:0:
128,140,51706,1,10,2:0:0:0:
185,352,51861,6,0,L|161:172,1,175.440001070801,2|0,1:2|1:2,0:0:0:0:
321,104,52325,2,0,P|306:155|300:208,1,87.7200005354004,8|0,2:0|1:2,0:0:0:0:
438,355,52634,2,0,P|431:311|418:269,1,87.7200005354004,2|0,1:2|0:0,0:0:0:0:
431,131,52943,1,10,2:0:0:0:
268,268,53098,6,0,B|368:280|306:215|451:220,1,175.440001070801,6|2,1:2|1:2,0:0:0:0:
196,209,53562,2,0,P|213:265|220:323,1,87.7200005354004,10|0,2:0|0:0,0:0:0:0:
99,112,53871,2,0,P|82:168|75:226,1,87.7200005354004,10|0,2:0|0:0,0:0:0:0:
275,26,54180,2,0,P|292:82|299:140,1,87.7200005354004,10|0,2:0|0:0,0:0:0:0:
237,308,54489,5,10,2:0:0:0:
183,131,54644,1,10,2:0:0:0:
333,294,54799,1,10,2:0:0:0:
296,110,54953,2,0,B|428:124|365:177|486:192,1,209.839991354859,14|0,2:0|1:2,0:0:0:0:
300,212,55417,6,0,P|249:192|223:190,1,52.4599978387147,2|0,1:2|0:0,0:0:0:0:
95,82,55572,2,0,P|128:62|175:55,1,52.4599978387147,2|0,1:2|1:2,0:0:0:0:
309,251,55727,6,0,P|231:227|108:240,1,192.640002351563,6|8,1:2|2:0,0:0:0:0:
298,342,56191,1,0,0:0:0:0:
436,208,56345,2,0,P|417:265|414:319,1,96.3200011757813,2|0,1:2|1:2,0:0:0:0:
322,103,56654,1,10,2:0:0:0:
314,219,56809,6,0,B|205:194|283:151|138:123,1,192.640002351563,2|0,1:2|1:2,0:0:0:0:
21,90,57273,2,0,P|36:34|160:11,1,192.640002351563,8|0,2:0|1:2,0:0:0:0:
88,181,57737,1,0,1:2:0:0:
203,56,57892,6,0,P|194:101|189:142,1,48.1600005878906,10|0,2:0|0:0,0:0:0:0:
71,256,58046,2,0,P|66:232|61:208,1,48.1600005878906,2|0,2:0|0:0,0:0:0:0:
239,74,58201,6,0,P|218:148|202:281,2,192.640002351563,2|8|2,1:2|2:0|1:2,0:0:0:0:
331,72,58974,1,0,1:2:0:0:
331,72,59129,1,10,2:0:0:0:
481,213,59283,6,0,B|364:204|420:272|299:264,1,192.640002351563,2|0,1:2|1:2,0:0:0:0:
288,89,59747,2,0,P|309:138|317:183,1,96.3200011757813,10|0,2:0|0:0,0:0:0:0:
430,359,60057,2,0,P|439:311|458:267,1,96.3200011757813,2|0,1:2|1:2,0:0:0:0:
261,112,60366,2,0,P|282:161|290:206,1,96.3200011757813,10|0,2:0|0:0,0:0:0:0:
166,354,60675,6,0,P|78:345|60:261,1,144.480001763672,2|0,1:2|0:0,0:0:0:0:
36,230,60984,2,0,P|41:185|33:110,1,96.3200011757813,12|0,2:0|0:0,0:0:0:0:
115,37,61294,1,2,1:2:0:0:
115,37,61448,1,2,1:2:0:0:
144,156,61603,2,0,P|198:167|254:150,1,96.3200011757813,10|0,2:0|0:0,0:0:0:0:
388,12,61912,6,0,P|371:86|362:179,1,144.480001763672,2|0,1:2|0:0,0:0:0:0:
406,218,62221,2,0,P|419:262|425:334,1,96.3200011757813,12|0,2:0|0:0,0:0:0:0:
285,384,62531,1,2,1:2:0:0:
285,384,62685,1,2,1:2:0:0:
215,237,62840,2,0,P|156:226|99:239,1,96.3200011757813,10|0,2:0|0:0,0:0:0:0:
38,121,63149,6,0,P|46:57|130:60,1,144.480001763672,6|0,1:2|0:0,0:0:0:0:
138,96,63459,2,0,B|226:110|186:49|315:58,1,157.379993516144,14|0,2:0|0:0,0:0:0:0:
350,1,63768,2,0,P|327:60|309:177,1,170.279999480347,6|0,1:2|0:0,0:0:0:0:
379,239,64077,2,0,P|329:203|311:326,1,244.239987701539,14|0,2:0|1:0,0:0:0:0:
420,351,64541,5,0,1:0:0:0:
486,198,64696,1,8,2:0:0:0:
486,198,64850,1,0,1:0:0:0:
323,266,65005,1,8,2:0:0:0:
324,227,65082,1,0,0:0:0:0:
321,189,65159,1,0,1:0:0:0:
316,150,65237,1,0,1:0:0:0:
316,150,65314,6,0,P|313:109|299:66,1,48.1600005878906,10|0,2:0|0:0,0:0:0:0:
188,17,65469,2,0,P|179:47|167:101,1,48.1600005878906,2|0,1:2|1:2,0:0:0:0:
71,175,65624,6,0,P|136:151|244:246,1,192.640002351563,6|8,1:2|2:0,0:0:0:0:
71,261,66087,1,0,0:0:0:0:
259,44,66242,2,0,P|246:101|243:165,1,96.3200011757813,2|0,1:2|1:2,0:0:0:0:
367,256,66551,1,10,2:0:0:0:
167,242,66706,6,0,B|272:231|240:294|354:285,1,192.640002351563,2|0,1:2|1:2,0:0:0:0:
155,334,67170,2,0,P|104:311|24:310,1,96.3200011757813,8|0,2:0|0:0,0:0:0:0:
263,176,67479,2,0,P|310:154|379:147,1,96.3200011757813,0|0,1:2|1:2,0:0:0:0:
294,366,67788,6,0,L|308:308,1,48.1600005878906,10|0,2:0|0:0,0:0:0:0:
156,194,67943,2,0,L|171:262,1,48.1600005878906,2|0,2:0|0:0,0:0:0:0:
321,376,68098,6,0,P|342:291|377:186,1,192.640002351563,2|8,1:2|2:0,0:0:0:0:
414,374,68562,1,0,0:0:0:0:
288,141,68716,2,0,P|307:198|315:261,1,96.3200011757813,2|0,1:2|1:2,0:0:0:0:
391,75,69026,1,10,2:0:0:0:
211,208,69180,6,0,B|84:191|166:136|10:118,1,192.640002351563,2|0,1:2|1:2,0:0:0:0:
207,94,69644,2,0,P|269:64|322:61,1,96.3200011757813,10|0,2:0|0:0,0:0:0:0:
71,225,69953,2,0,P|13:238|-44:209,1,96.3200011757813,2|0,1:2|1:2,0:0:0:0:
206,77,70263,2,0,P|268:47|321:44,1,96.3200011757813,10|0,2:0|0:0,0:0:0:0:
494,170,70572,6,0,B|380:167|436:216|311:226,2,192.640002351563,2|8|2,1:2|2:0|1:2,0:0:0:0:
416,298,71345,1,0,1:2:0:0:
416,298,71500,2,0,P|364:269|303:262,1,96.3200011757813,10|0,2:0|0:0,0:0:0:0:
149,160,71809,6,0,P|163:210|173:284,1,96.3200011757813,2|0,1:2|0:0,0:0:0:0:
257,370,72118,2,0,P|273:280|311:161,1,192.640002351563,10|2,2:0|1:2,0:0:0:0:
344,371,72582,1,0,1:2:0:0:
243,225,72737,2,0,P|235:175|213:111,1,96.3200011757813,10|0,2:0|0:0,0:0:0:0:
372,0,73046,6,0,P|363:45|358:109,1,96.3200011757813,6|0,1:2|0:0,0:0:0:0:
404,228,73355,1,8,2:0:0:0:
306,96,73510,1,8,1:2:0:0:
213,312,73819,1,8,2:0:0:0:
390,141,74129,6,0,P|457:133|537:257,1,192.640002351563,12|0,2:0|1:2,0:0:0:0:
406,331,74593,1,8,2:0:0:0:
406,331,74747,1,2,1:2:0:0:
364,182,74902,2,0,P|310:152|239:145,1,96.3200011757813,10|0,2:0|1:2,0:0:0:0:
322,291,75211,1,8,2:0:0:0:
322,291,75366,1,0,1:2:0:0:
181,112,75520,6,0,P|198:171|209:307,2,192.640002351563,2|8|2,1:2|2:0|1:2,0:0:0:0:
276,144,76294,1,0,1:2:0:0:
276,144,76448,2,0,P|264:180|251:258,1,96.3200011757813,10|0,2:0|0:0,0:0:0:0:
408,82,76758,6,0,B|297:75|362:19|217:19,2,192.640002351563,2|8|2,1:2|2:0|1:2,0:0:0:0:
509,33,77531,1,0,1:2:0:0:
509,33,77685,2,0,P|498:83|491:149,1,96.3200011757813,10|0,2:0|0:0,0:0:0:0:
498,275,77995,6,0,P|462:311|347:255,1,192.640002351563,2|8,1:2|2:0,0:0:0:0:
385,170,78459,1,2,2:0:0:0:
312,296,78613,2,0,B|197:297|256:358|105:361,2,192.640002351563,2|8|0,1:2|2:0|1:2,0:0:0:0:
139,172,79386,5,0,1:2:0:0:
139,172,79541,2,0,P|153:224|160:285,1,96.3200011757813,8|0,2:0|1:2,0:0:0:0:
284,72,79850,2,0,P|270:124|263:185,1,96.3200011757813,8|8,2:0|1:3,0:0:0:0:
148,56,80160,1,6,1:3:0:0:
285,197,80314,1,4,1:3:0:0:
53,142,80469,6,0,B|142:162|206:129|206:129|183:210|195:292,1,288.960003527344,6|0,1:2|0:0,0:0:0:0:
257,361,81087,6,0,B|455:370|313:259|537:277,1,288.960003527344,6|0,1:2|0:0,0:0:0:0:
462,165,81706,6,0,B|355:169|302:263|302:263|276:198|226:155,1,288.960003527344,6|0,1:2|0:0,0:0:0:0:
399,62,82325,6,0,B|317:111|317:111|215:42|227:126|110:85,1,288.960003527344,6|0,1:2|0:0,0:0:0:0:
12,206,82943,6,0,B|263:198|137:342|422:324,1,426.559983077149,6|0,1:2|1:0,0:0:0:0:
309,177,84335,5,10,2:0:0:0:
309,177,84489,1,10,2:0:0:0:
115,337,84644,1,10,2:0:0:0:
115,337,84799,1,10,2:0:0:0:
179,78,85108,1,10,2:0:0:0:
30,265,85417,6,0,P|43:223|51:180,1,87.7200005354004,6|0,1:2|0:0,0:0:0:0:
35,63,85726,1,10,2:0:0:0:
122,234,85881,2,0,P|108:192|100:149,1,87.7200005354004,2|0,2:0|1:2,0:0:0:0:
168,25,86191,1,2,1:2:0:0:
168,25,86345,1,8,2:0:0:0:
216,189,86499,6,0,B|319:178|262:124|369:118,1,175.440001070801,2|2,1:2|1:2,0:0:0:0:
494,218,86963,1,8,2:0:0:0:
416,53,87118,2,0,P|414:96|407:140,1,87.7200005354004,2|0,2:0|1:2,0:0:0:0:
330,339,87427,2,0,P|406:366|452:299,1,175.440001070801,2|0,1:2|0:0,0:0:0:0:
336,265,87891,6,0,P|299:289|258:303,1,87.7200005354004,2|0,1:2|0:0,0:0:0:0:
166,172,88200,1,10,2:0:0:0:
180,355,88355,2,0,P|219:373|262:380,1,87.7200005354004,2|0,2:0|1:2,0:0:0:0:
277,196,88664,1,2,1:2:0:0:
277,196,88819,1,8,2:0:0:0:
97,319,88973,6,0,P|120:234|134:147,1,175.440001070801,2|2,1:2|1:2,0:0:0:0:
96,31,89437,1,8,2:0:0:0:
195,256,89592,2,0,P|176:216|166:173,1,87.7200005354004,2|0,2:0|1:2,0:0:0:0:
255,37,89901,2,0,B|350:49|311:95|436:104,1,175.440001070801,2|0,1:2|0:0,0:0:0:0:
248,127,90365,6,0,P|205:138|161:137,1,87.7200005354004,2|0,1:2|0:0,0:0:0:0:
289,287,90674,1,10,2:0:0:0:
370,236,90829,2,0,P|384:194|392:151,1,87.7200005354004,2|0,2:0|1:2,0:0:0:0:
468,271,91139,2,0,P|471:314|480:357,1,87.7200005354004,2|8,1:2|2:0,0:0:0:0:
347,359,91448,6,0,P|264:384|181:358,1,175.440001070801,2|2,1:2|1:2,0:0:0:0:
157,209,91911,1,8,2:0:0:0:
111,328,92066,2,0,P|122:285|128:242,1,87.7200005354004,2|0,2:0|1:2,0:0:0:0:
228,133,92375,1,2,1:2:0:0:
228,133,92530,2,0,P|233:176|245:218,1,87.7200005354004,8|0,2:0|0:0,0:0:0:0:
384,310,92840,6,0,P|424:326|468:328,1,87.7200005354004,6|0,1:2|0:0,0:0:0:0:
352,199,93148,1,8,2:0:0:0:
352,199,93303,2,0,P|340:285|312:368,1,175.440001070801,2|10,1:2|2:0,0:0:0:0:
438,186,93767,1,2,1:2:0:0:
257,260,93922,6,0,B|155:251|202:205|97:198,1,175.440001070801,14|10,2:0|2:0,0:0:0:0:
271,163,94386,1,10,2:0:0:0:
131,338,94696,1,10,2:0:0:0:
94,103,95005,1,10,2:0:0:0:
240,267,95314,5,10,1:2:0:0:
240,267,95469,1,10,1:2:0:0:
319,88,95624,1,10,1:2:0:0:
379,318,95778,2,0,L|372:249,1,43.8600002677002,0|0,1:2|1:2,0:0:0:0:
236,146,95933,1,8,1:2:0:0:
344,227,96087,2,0,B|444:234|383:174|535:191,1,175.440001070801,8|0,1:3|0:0,0:0:0:0:
366,52,96551,5,6,1:2:0:0:
366,52,96706,2,0,B|81:109|306:262|18:328,1,473,0|0,1:2|0:0,0:0:0:0:
