osu file format v14

[General]
AudioFilename: audio.mp3
AudioLeadIn: 0
PreviewTime: 55340
Countdown: 0
SampleSet: Soft
StackLeniency: 0.4
Mode: 0
LetterboxInBreaks: 0
WidescreenStoryboard: 0

[Editor]
Bookmarks: 1294,11191,21087,40881,50624,55727,75520,85417,95314,108922
DistanceSpacing: 2
BeatDivisor: 2
GridSize: 4
TimelineZoom: 1.7

[Metadata]
Title:Bouken Type A, B, C!!
TitleUnicode:冒険Type A, B, C‼
Artist:Aqours
ArtistUnicode:Aqours
Creator:Sotarks
Version:Haruki's Normal
Source:ラブライブ!サンシャイン!!
Tags:Love Live! Sunshine!! school idol project yuki Chika Takami 高海千歌 Anju Inami 伊波杏樹 Riko Sakurauchi 桜内梨子 Rikako Aida 逢田梨香子 Kanan Matsuura 松浦果南 Nanaka Suwa 諏訪ななか Dia Kurosawa 黒澤ダイヤ Arisa Komiya 小宮有紗 You Watanabe 渡辺 曜 Shuka Saitou 斉藤朱夏 Yoshiko Tsushima Yohane 津島善子 Aika Kobayashi 小林愛香 Hanamaru Kunikida 国木田花丸 Kanako Takatsuki 高槻かなこ Mari Ohara 小原鞠莉 Aina Suzuki 鈴木愛奈 Ruby 黒澤ルビィ Ai Furihata 降幡 愛 female vocalist japanese Serizawa Haruki Jack J_a_c_k Kowari Kiyoshi Guarden SMOKELIND Adventure
BeatmapID:2152866
BeatmapSetID:1029085

[Difficulty]
HPDrainRate:3
CircleSize:3
OverallDifficulty:4
ApproachRate:5
SliderMultiplier:1
SliderTickRate:1

[Events]
//Background and Video events
0,0,"bg.jpg",0,0
//Break Periods
//Storyboard Layer 0 (Background)
//Storyboard Layer 1 (Fail)
//Storyboard Layer 2 (Pass)
//Storyboard Layer 3 (Foreground)
//Storyboard Layer 4 (Overlay)
//Storyboard Sound Samples

[TimingPoints]
57,309.278350515464,4,2,22,52,1,0
1294,-100,4,2,22,62,0,0
11191,-100,4,2,22,72,0,0
21087,-100,4,2,22,62,0,0
29593,-100,4,2,22,72,0,0
30984,-100,4,2,22,62,0,0
50624,-100,4,2,22,72,0,0
55727,-100,4,2,22,82,0,1
85417,-100,4,2,22,72,0,0
97015,-100,4,2,22,72,0,0
108922,-100,4,2,22,5,0,0

[Colours]
Combo1 : 26,255,203
Combo2 : 219,255,13
Combo3 : 255,240,62
Combo4 : 182,47,255
Combo5 : 107,91,198

[HitObjects]
15,150,1294,6,0,B|69:148|98:102|98:102|145:198|98:294|98:294|148:311|166:362,1,400.036666666667,6|2,1:2|2:0,2:0:0:0:
497,142,3768,6,0,B|539:72|497:0|497:0|444:4|414:48|414:48|342:29|342:29|269:48,1,400.036666666667,6|2,1:2|2:0,2:0:0:0:
126,96,5469,2,0,P|114:48|126:0,2,100.09,8|4|4,2:3|2:3|2:3,2:0:0:0:
153,138,6242,6,0,B|127:234|127:234|150:282|127:330,1,200.18,6|0,1:2|1:2,2:0:0:0:
29,157,7479,2,0,B|55:60|55:60|85:16|138:12,1,200.18,6|0,1:2|1:2,2:0:0:0:
338,15,8716,6,0,L|437:23,1,100.09,10|0,2:0|1:2,2:0:0:0:
487,28,9180,2,0,B|474:77|474:77|487:125,1,100.09,10|0,2:0|1:2,2:0:0:0:
507,170,9644,2,0,P|519:218|507:266,1,100.09,10|0,2:0|1:2,2:0:0:0:
473,303,10108,2,0,L|373:311,1,100.09,10|0,2:0|1:2,2:0:0:0:
323,316,10572,1,10,2:0:0:0:
265,234,10881,1,14,2:0:0:0:
320,150,11191,6,0,P|332:102|320:54,1,100.09,6|10,1:2|2:0,2:0:0:0:
289,15,11654,1,2,2:0:0:0:
190,6,11964,1,2,1:2:0:0:
132,88,12273,2,0,P|120:136|132:184,1,100.09,2|2,1:2|1:2,2:0:0:0:
190,266,12892,1,2,2:0:0:0:
91,275,13201,2,0,L|41:279,1,50.2066666666667,2|8,1:2|2:0,2:0:0:0:
75,373,13665,6,0,L|174:364,1,100.09,2|10,1:2|2:0,2:0:0:0:
224,359,14129,1,2,2:0:0:0:
323,350,14438,1,2,1:2:0:0:
348,253,14747,2,0,B|361:204|361:204|348:156,1,100.09,2|2,1:2|1:2,2:0:0:0:
323,59,15366,1,2,2:0:0:0:
413,16,15675,2,0,L|462:20,1,50.2066666666667,2|8,1:2|2:0,2:0:0:0:
505,111,16139,6,0,L|496:210,1,100.09,2|10,1:2|2:0,2:0:0:0:
491,260,16603,1,2,2:0:0:0:
401,303,16912,1,2,1:2:0:0:
319,245,17221,2,0,P|271:233|223:245,1,100.09,2|2,1:2|1:2,2:0:0:0:
141,303,17840,1,2,2:0:0:0:
133,204,18149,2,0,L|128:154,1,50.2066666666667,2|8,1:2|2:0,2:0:0:0:
119,55,18613,6,0,B|168:68|168:68|216:55,1,100.09,6|8,1:2|2:0,2:0:0:0:
264,42,19077,1,2,1:2:0:0:
346,100,19386,2,0,L|341:149,1,50.2066666666667,10|2,2:0|1:2,2:0:0:0:
305,185,19696,2,0,L|313:284,1,100.09,14|10,2:0|2:0,2:0:0:0:
318,334,20160,1,10,2:0:0:0:
409,377,20469,1,10,2:0:0:0:
490,319,20778,1,10,2:0:0:0:
435,235,21087,6,0,P|423:187|435:139,1,100.09,6|10,1:2|2:0,2:0:0:0:
490,55,21706,1,2,1:2:0:0:
400,14,22015,1,10,2:0:0:0:
302,40,22325,2,0,B|254:53|254:53|205:40,1,100.09,2|10,1:2|2:0,2:0:0:0:
108,14,22943,2,0,L|103:63,1,50.2066666666667,2|0,1:2|1:2,2:0:0:0:
99,113,23252,1,10,2:0:0:0:
40,195,23562,6,0,P|28:243|40:291,2,100.09,2|8|0,1:2|2:0|1:2,2:0:0:0:
128,243,24489,2,0,L|177:238,1,50.2066666666667,10|2,2:0|2:0,2:0:0:0:
228,233,24799,2,0,B|215:185|215:185|228:136,1,100.09,0|8,1:2|2:0,2:0:0:0:
253,39,25417,2,0,L|302:43,1,50.2066666666667,0|0,1:2|1:2,2:0:0:0:
342,75,25727,2,0,L|391:70,1,50.2066666666667,10|2,2:0|2:0,2:0:0:0:
432,100,26036,6,0,P|444:148|432:196,1,100.09,2|8,1:2|2:0,2:0:0:0:
404,239,26500,1,2,2:0:0:0:
404,239,26654,2,0,L|412:338,1,100.09,2|8,1:2|2:0,2:0:0:0:
323,382,27273,1,2,1:2:0:0:
241,324,27582,1,10,2:0:0:0:
151,367,27892,1,2,1:2:0:0:
69,309,28201,1,10,2:0:0:0:
77,210,28510,6,0,L|85:110,1,100.09,2|10,1:2|2:0,2:0:0:0:
119,74,28974,2,0,B|167:61|167:61|216:74,1,100.09,2|0,2:0|2:0,2:0:0:0:
263,104,29438,1,8,2:0:0:0:
263,104,29593,2,0,P|275:152|263:200,1,100.09,4|0,1:2|1:0,2:0:0:0:
241,247,30057,1,8,2:0:0:0:
241,247,30211,1,8,1:2:0:0:
303,333,30520,1,8,1:2:0:0:
303,333,30675,2,0,L|352:328,1,50.2066666666667,2|2,2:0|1:2,2:0:0:0:
402,323,30984,6,0,B|389:275|389:275|402:226,1,100.09,6|10,1:2|2:0,2:0:0:0:
427,129,31603,1,2,1:2:0:0:
385,38,31912,1,10,2:0:0:0:
285,29,32221,2,0,L|185:20,1,100.09,2|10,1:2|2:0,2:0:0:0:
128,102,32840,2,0,L|78:106,1,50.2066666666667,2|0,1:2|1:2,2:0:0:0:
28,110,33149,1,10,2:0:0:0:
73,200,33459,6,0,P|85:248|73:296,2,100.09,2|8|0,1:2|2:0|1:2,2:0:0:0:
32,114,34386,1,10,2:0:0:0:
32,114,34541,2,0,L|131:105,1,100.09,2|0,1:2|1:2,2:0:0:0:
180,118,35005,2,0,B|228:131|228:131|277:118,1,100.09,8|0,2:0|1:2,2:0:0:0:
373,92,35624,1,10,2:0:0:0:
455,150,35933,5,2,1:2:0:0:
446,249,36242,2,0,L|437:348,1,100.09,14|0,2:0|1:0,2:0:0:0:
338,357,36861,1,8,2:0:0:0:
280,275,37170,1,2,1:2:0:0:
191,320,37479,2,0,P|143:332|95:320,1,100.09,12|0,2:0|1:2,2:0:0:0:
9,270,38098,2,0,L|4:220,1,50.2066666666667,10|2,2:0|2:0,2:0:0:0:
0,171,38407,5,2,1:2:0:0:
82,113,38716,1,10,2:0:0:0:
173,156,39026,1,2,1:2:0:0:
181,255,39335,1,10,2:0:0:0:
272,298,39644,2,0,L|267:347,2,50.045,2|8|0,1:2|2:0|1:2,2:0:0:0:
345,230,40263,2,0,P|357:182|345:134,1,100.09,10|8,2:3|2:3,2:0:0:0:
265,75,40881,6,0,B|217:62|217:62|168:75,1,100.09,6|10,1:2|2:3,2:0:0:0:
120,87,41345,1,6,2:3:0:0:
20,78,41654,2,0,L|15:127,1,50.2066666666667,6|8,2:3|2:3,2:0:0:0:
11,178,41964,1,6,2:3:0:0:
93,236,42273,2,0,L|97:285,1,50.2066666666667,6|8,2:3|2:3,2:0:0:0:
106,340,42582,1,6,2:3:0:0:
106,340,42737,2,0,L|56:335,2,50.045,2|0|8,1:2|1:2|2:0,2:0:0:0:
195,295,43355,6,0,P|243:283|291:295,1,100.09,6|10,1:2|2:3,2:0:0:0:
333,322,43819,1,6,2:3:0:0:
414,264,44129,2,0,L|409:214,1,50.2066666666667,6|8,2:3|2:3,2:0:0:0:
405,164,44438,1,6,2:3:0:0:
486,106,44747,2,0,L|490:56,1,50.2066666666667,6|8,2:3|2:3,2:0:0:0:
499,10,45057,1,6,2:3:0:0:
499,10,45211,2,0,L|449:14,1,50.2066666666667,2|0,1:2|1:2,2:0:0:0:
399,18,45520,1,8,2:0:0:0:
317,75,45830,6,0,L|217:66,1,100.09,6|8,1:2|2:0,2:0:0:0:
173,90,46294,2,0,B|160:138|160:138|173:187,1,100.09,0|0,1:2|1:2,2:0:0:0:
185,235,46758,1,10,2:0:0:0:
162,332,47067,1,2,2:0:0:0:
64,342,47376,1,10,2:0:0:0:
24,249,47685,1,2,1:2:0:0:
100,184,47995,1,10,2:0:0:0:
185,235,48304,6,0,P|233:247|281:235,1,100.09,6|8,1:2|2:0,2:0:0:0:
233,147,48922,2,0,P|221:99|233:51,1,100.09,2|8,1:2|2:0,2:0:0:0:
321,99,49541,2,0,L|370:103,1,50.2066666666667,2|0,1:2|1:2,2:0:0:0:
433,238,50160,2,0,L|482:234,2,50.045,6|4|4,1:3|1:3|1:3,2:0:0:0:
395,270,50624,6,0,L|295:261,1,100.09,6|0,1:2|1:2,2:0:0:0:
246,256,51087,1,8,2:0:0:0:
148,282,51397,2,0,B|100:295|100:295|51:282,1,100.09,2|10,1:2|2:0,2:0:0:0:
12,250,51861,2,0,P|0:202|12:154,1,100.09,2|0,1:2|1:2,2:0:0:0:
41,113,52325,2,0,L|90:108,1,50.2066666666667,8|0,2:0|1:2,2:0:0:0:
140,104,52634,1,2,1:2:0:0:
209,184,52943,1,10,2:0:0:0:
209,184,53098,6,0,P|221:232|209:280,1,100.09,6|2,1:2|1:2,2:0:0:0:
180,321,53562,1,10,2:0:0:0:
262,379,53871,1,10,2:0:0:0:
352,336,54180,1,10,2:0:0:0:
361,237,54489,2,0,L|311:232,2,50.045,10|10|10,2:0|2:0|2:0,2:0:0:0:
411,241,54953,2,0,B|398:193|398:193|411:144,1,100.09,14|0,2:0|1:2,2:0:0:0:
423,96,55417,2,0,L|418:46,1,50.2066666666667,2|2,1:2|1:2,2:0:0:0:
380,13,55727,6,0,P|332:1|284:13,1,100.09,6|8,1:2|2:0,2:0:0:0:
196,60,56345,2,0,P|148:72|100:60,1,100.09,2|10,1:2|2:0,2:0:0:0:
54,40,56809,2,0,L|45:139,1,100.09,2|0,1:2|1:2,2:0:0:0:
40,189,57273,1,8,2:0:0:0:
122,247,57582,1,0,1:2:0:0:
212,204,57892,2,0,L|261:208,1,50.2066666666667,10|2,2:0|2:0,2:0:0:0:
300,240,58201,6,0,L|399:231,1,100.09,2|8,1:2|2:0,2:0:0:0:
487,183,58819,2,0,P|499:231|487:279,1,100.09,2|10,1:2|2:0,2:0:0:0:
458,320,59283,2,0,L|358:328,1,100.09,2|0,1:2|1:2,2:0:0:0:
309,333,59747,1,10,2:0:0:0:
251,251,60057,1,2,1:2:0:0:
152,243,60366,1,10,2:0:0:0:
64,291,60675,6,0,P|52:243|64:195,1,100.09,2|12,1:2|2:0,2:0:0:0:
130,120,61294,2,0,L|125:70,1,50.2066666666667,2|2,1:2|1:2,2:0:0:0:
121,20,61603,1,10,2:0:0:0:
217,45,61912,2,0,B|265:58|265:58|314:45,1,100.09,2|12,1:2|2:0,2:0:0:0:
410,20,62531,2,0,L|405:69,1,50.2066666666667,2|2,1:2|1:2,2:0:0:0:
401,120,62840,1,10,2:0:0:0:
392,219,63149,5,6,1:2:0:0:
302,262,63459,1,14,2:0:0:0:
220,204,63768,1,6,1:2:0:0:
135,257,64077,2,0,P|87:269|39:257,1,100.09,14|0,2:0|1:0,2:0:0:0:
0,235,64541,1,0,1:0:0:0:
0,235,64696,1,8,2:0:0:0:
8,136,65005,2,0,L|12:86,1,50.2066666666667,8|0,2:0|1:0,2:0:0:0:
16,36,65314,2,0,L|65:31,1,50.2066666666667,10|2,2:0|1:2,2:0:0:0:
107,59,65624,6,0,L|206:67,1,100.09,6|8,1:2|2:0,2:0:0:0:
294,19,66242,2,0,P|306:67|294:115,1,100.09,2|10,1:2|2:0,2:0:0:0:
272,160,66706,2,0,B|259:208|259:208|272:257,1,100.09,2|0,1:2|1:2,2:0:0:0:
284,305,67170,1,8,2:0:0:0:
383,296,67479,1,0,1:2:0:0:
425,205,67788,2,0,L|420:155,1,50.2066666666667,10|2,2:0|2:0,2:0:0:0:
390,115,68098,6,0,P|342:103|294:115,1,100.09,2|8,1:2|2:0,2:0:0:0:
210,170,68716,2,0,L|110:161,1,100.09,2|10,1:2|2:0,2:0:0:0:
66,185,69180,2,0,B|53:233|53:233|66:282,1,100.09,2|0,1:2|1:2,2:0:0:0:
78,330,69644,1,10,2:0:0:0:
169,373,69953,1,2,1:2:0:0:
250,315,70263,1,10,2:0:0:0:
341,358,70572,6,0,P|389:370|437:358,1,100.09,2|8,1:2|2:0,2:0:0:0:
389,270,71191,1,2,1:2:0:0:
446,188,71500,1,10,2:0:0:0:
404,97,71809,1,2,1:2:0:0:
304,88,72118,1,10,2:0:0:0:
247,170,72428,1,2,1:2:0:0:
289,261,72737,1,10,2:0:0:0:
232,343,73046,6,0,L|132:334,1,100.09,6|8,1:2|2:0,2:0:0:0:
82,329,73510,1,8,1:2:0:0:
40,238,73819,1,8,2:0:0:0:
97,156,74129,2,0,P|109:108|97:60,1,100.09,12|0,2:0|1:2,2:0:0:0:
70,18,74593,2,0,L|119:13,1,50.2066666666667,8|2,2:0|1:2,2:0:0:0:
169,9,74902,1,10,2:0:0:0:
260,50,75211,2,0,L|309:54,1,50.2066666666667,8|0,2:0|1:2,2:0:0:0:
350,24,75520,6,0,L|449:15,1,100.09,2|8,1:2|2:0,2:0:0:0:
507,98,76139,1,2,1:2:0:0:
465,189,76448,1,10,2:0:0:0:
366,198,76758,2,0,L|266:206,1,100.09,2|8,1:2|2:0,2:0:0:0:
208,124,77376,1,2,1:2:0:0:
250,33,77685,1,10,2:0:0:0:
153,7,77995,6,0,B|105:-6|105:-6|56:7,1,100.09,2|8,1:2|2:0,2:0:0:0:
16,34,78459,1,2,2:0:0:0:
16,34,78613,2,0,P|4:82|16:130,2,100.09,2|8|0,1:2|2:0|1:2,2:0:0:0:
104,82,79541,1,8,2:0:0:0:
204,91,79850,2,0,L|199:140,1,50.2066666666667,8|8,2:0|1:3,2:0:0:0:
165,178,80160,2,0,L|169:227,1,50.2066666666667,6|4,1:3|1:3,2:0:0:0:
174,277,80469,5,6,1:2:0:0:
374,259,81087,1,6,1:2:0:0:
202,156,81706,1,6,1:2:0:0:
280,340,82325,1,6,1:2:0:0:
327,145,82943,6,0,B|346:74|414:51|414:51|459:107|440:175|440:175|422:244|468:300,1,400.036666666667,6|0,1:2|1:0,2:0:0:0:
506,333,84335,2,0,L|510:283,2,50.045,10|10|10,2:0|2:0|2:0,2:0:0:0:
501,383,84799,1,10,2:0:0:0:
401,374,85108,1,10,2:0:0:0:
359,283,85417,6,0,L|259:291,1,100.09,6|10,1:2|2:0,2:0:0:0:
209,296,85881,1,2,2:0:0:0:
151,214,86191,1,2,1:2:0:0:
194,124,86500,2,0,P|206:76|194:28,1,100.09,2|2,1:2|1:2,2:0:0:0:
106,76,87118,1,2,2:0:0:0:
6,67,87428,2,0,L|1:116,1,50.2066666666667,2|8,1:2|2:0,2:0:0:0:
26,213,87892,6,0,B|39:261|39:261|26:310,1,100.09,2|10,1:2|2:0,2:0:0:0:
13,357,88355,1,2,2:0:0:0:
113,366,88665,1,2,1:2:0:0:
170,284,88974,2,0,L|269:275,1,100.09,2|2,1:2|1:2,2:0:0:0:
369,266,89593,1,2,2:0:0:0:
411,175,89902,2,0,L|406:125,1,50.2066666666667,2|8,1:2|2:0,2:0:0:0:
455,37,90366,6,0,P|407:25|359:37,1,100.09,2|10,1:2|2:0,2:0:0:0:
317,65,90830,1,2,2:0:0:0:
235,7,91139,1,2,1:2:0:0:
144,50,91448,2,0,L|135:149,1,100.09,2|2,1:2|1:2,2:0:0:0:
218,207,92067,1,2,2:0:0:0:
228,306,92376,2,0,L|232:355,1,50.2066666666667,2|8,1:2|2:0,2:0:0:0:
133,339,92840,6,0,L|124:239,1,100.09,6|8,1:2|2:0,2:0:0:0:
119,189,93304,1,2,1:2:0:0:
30,146,93613,2,0,L|34:96,1,50.2066666666667,10|2,2:0|1:2,2:0:0:0:
71,62,93922,2,0,P|119:50|167:62,1,100.09,14|10,2:0|2:0,2:0:0:0:
208,91,94386,1,10,2:0:0:0:
290,33,94696,1,10,2:0:0:0:
381,76,95005,1,10,2:0:0:0:
389,175,95314,6,0,L|339:179,2,50.045,10|10|10,1:2|1:2|1:2,2:0:0:0:
397,274,95933,2,0,L|347:278,1,50.2066666666667,8|8,1:2|1:3,2:0:0:0:
200,295,96551,2,0,L|204:245,1,50,6|0,1:2|1:2,0:0:0:0:
256,192,96861,12,0,108922,2:0:0:0:
