osu file format v14

[General]
AudioFilename: audio.mp3
AudioLeadIn: 0
PreviewTime: 49775
Countdown: 0
SampleSet: Normal
StackLeniency: 0.7
Mode: 0
LetterboxInBreaks: 0
WidescreenStoryboard: 0

[Editor]
DistanceSpacing: 1.1
BeatDivisor: 4
GridSize: 4
TimelineZoom: 2.4

[Metadata]
Title:Aozora Jumping Heart
TitleUnicode:Aozora Jumping Heart
Artist:Aqours
ArtistUnicode:Aqours
Creator:_Meep_
Version:Normal
Source:ラブライブ!サンシャイン!!
Tags:love live sunshine!! _meep_ ラブライブ!サンシャイン!! opening anime tv size school idol project Inami Anju 伊波杏樹 Aida Rikako 逢田梨香子 Suwa Nanaka 諏訪ななか Komiya Arisa 小宮有紗 Saito Shuka 斉藤朱夏 Kobayashi Aika 小林愛香 Takatsuki Kanako 高槻かなこ Suzuki Aina 鈴木愛奈 Furihata Ai 降幡 愛 Takami Chika 高海千歌 Sakurauchi Riko 桜内梨子 Matsuura Kanan 松浦果南 Kurosawa Dia 黒澤ダイヤ Watanabe You 渡辺 曜 Tsushima Yoshiko 津島善子 Kunikida Hanamaru 国木田花丸 Ohara Mari 小原鞠莉 Kurosawa Ruby 黒澤ルビィ
BeatmapID:1039677
BeatmapSetID:487655

[Difficulty]
HPDrainRate:3
CircleSize:3
OverallDifficulty:5
ApproachRate:5
SliderMultiplier:1
SliderTickRate:1

[Events]
//Background and Video events
0,0,"Love.Live!.Sunshine!!.full.1946538.jpg",0,0
//Break Periods
2,9775,15575
//Storyboard Layer 0 (Background)
//Storyboard Layer 1 (Fail)
//Storyboard Layer 2 (Pass)
//Storyboard Layer 3 (Foreground)
//Storyboard Sound Samples

[TimingPoints]
-25,300,4,1,1,70,1,0
35975,-133.333333333333,4,1,1,60,0,0
39575,-100,4,1,1,70,0,0
50375,-100,4,1,1,85,0,1
59300,-100,4,1,1,85,0,0
59375,-100,4,1,1,85,0,1
69500,-100,4,1,1,85,0,0
69575,-100,4,1,1,85,0,1
79175,-100,4,1,1,60,0,0
83975,-100,4,1,1,60,0,0
86375,-133.333333333333,4,1,1,60,0,0

[Colours]
Combo1 : 128,128,192
Combo2 : 255,181,255
Combo3 : 83,169,255
Combo4 : 255,255,128
Combo5 : 196,255,136
Combo6 : 255,172,132

[HitObjects]
340,256,2375,5,0,0:0:0:0:
352,272,3575,1,0,0:0:0:0:
360,284,4775,2,0,P|376:220|404:192,1,100
408,92,5375,2,0,L|292:108,1,100
260,200,5975,6,0,P|220:196|152:224,1,100
228,300,6575,1,0,0:0:0:0:
332,280,6875,1,0,0:0:0:0:
332,280,7025,1,0,0:0:0:0:
256,192,7325,12,0,9575,0:0:0:0:
216,312,16775,6,0,P|176:304|136:252,2,100,8|0|0,0:0|0:0|0:0,0:0:0:0:
300,256,17675,1,0,0:0:0:0:
388,316,17975,2,0,L|416:208,1,100,8|0,0:0|0:0,0:0:0:0:
472,128,18575,2,0,P|436:112|376:116,1,100
276,144,19175,2,0,L|184:104,2,100,8|0|0,0:0|0:0|0:0,0:0:0:0:
208,228,20075,1,0,0:0:0:0:
264,320,20375,2,0,L|372:308,1,100,8|0,0:0|0:0,0:0:0:0:
384,204,20975,2,0,L|440:212,2,50
332,284,21575,6,0,P|282:288|234:276,1,100,8|0,0:0|0:0,0:0:0:0:
156,328,22025,2,0,L|140:272,1,50
104,176,22475,2,0,L|160:192,1,50
240,192,22775,2,0,P|268:156|316:132,1,100,8|0,0:0|0:0,0:0:0:0:
384,184,23225,2,0,L|376:248,1,50
344,336,23675,6,0,P|371:323|407:315,1,50
476,280,23975,2,0,L|468:172,1,100,8|0,0:0|0:0,0:0:0:0:
399,119,24425,2,0,P|351:147|295:155,1,100
228,108,24875,1,0,0:0:0:0:
220,196,25175,6,0,P|192:232|132:264,1,100,8|0,0:0|0:0,0:0:0:0:
64,216,25625,1,0,0:0:0:0:
64,216,25775,2,0,L|56:332,1,100
152,344,26375,6,0,P|200:348|264:316,1,100,8|0,0:0|0:0,0:0:0:0:
344,300,26825,1,0,0:0:0:0:
344,300,26975,2,0,L|372:200,1,100,8|0,0:0|0:0,0:0:0:0:
291,143,27425,2,0,P|255:127|195:119,1,100
111,163,27875,1,0,0:0:0:0:
199,223,28175,1,8,0:0:0:0:
127,299,28475,1,0,0:0:0:0:
127,299,28775,6,0,P|156:312|232:312,1,100,8|0,0:0|0:0,0:0:0:0:
320,340,29225,2,0,L|344:288,1,50
304,212,29525,1,0,0:0:0:0:
224,140,29825,6,0,L|124:128,1,100
72,204,30275,2,0,L|108:237,1,50
192,280,30575,1,0,0:0:0:0:
192,280,30725,2,0,P|220:276|252:276,2,50
116,344,31175,2,0,P|148:368|216:384,1,100,8|0,0:0|0:0,0:0:0:0:
292,364,31625,2,0,P|324:332|380:316,1,100
464,340,32075,1,0,0:0:0:0:
440,236,32375,6,0,L|420:132,1,100,8|0,0:0|0:0,0:0:0:0:
332,128,32825,2,0,P|288:152|236:156,1,100
148,152,33275,2,0,L|128:204,1,50
100,284,33575,2,0,L|76:340,2,50,8|0|0,0:0|0:0|0:0,0:0:0:0:
192,268,34025,1,0,0:0:0:0:
256,192,34325,12,0,35675,0:0:0:0:
204,260,35975,5,8,0:0:0:0:
204,260,36125,2,0,P|152:272|124:268,1,75.0000028610231
64,208,36575,2,0,L|136:168,1,75.0000028610231
160,84,37025,2,0,P|192:104|224:172,1,112.500004291535
272,260,37775,1,0,0:0:0:0:
372,304,38075,5,0,0:0:0:0:
364,196,38375,2,0,P|360:156|360:120,1,75.0000028610231,8|0,0:0|0:0,0:0:0:0:
300,52,38825,2,0,B|252:56|252:56|220:72,1,75.0000028610231
227,68,39275,1,0,0:0:0:0:
200,176,39575,2,0,L|128:160,2,50,8|0|0,0:0|0:0|0:0,0:0:0:0:
288,224,40025,2,0,L|360:208,2,50
216,276,40475,1,0,0:0:0:0:
112,300,40775,1,8,0:0:0:0:
136,196,41075,6,0,L|208:128,1,100
304,80,41675,1,0,0:0:0:0:
304,80,41825,2,0,P|336:104|352:168,1,100
352,252,42425,2,0,P|292:248|240:260,1,100
156,276,42875,2,0,L|168:216,1,50
165,226,43175,1,8,0:0:0:0:
236,144,43475,6,0,B|284:156|284:156|340:152,1,100
424,112,44075,1,0,0:0:0:0:
424,112,44225,2,0,B|392:68|392:68|296:72,1,150
196,60,44825,2,0,P|144:72|96:116,1,100
128,188,45275,2,0,L|64:204,1,50
256,192,45575,12,0,47075,0:0:0:0:
216,180,47375,6,0,L|152:172,2,50
304,152,47825,1,0,0:0:0:0:
296,244,47975,2,0,B|344:240|344:240|404:252,1,100,8|0,0:0|0:0,0:0:0:0:
428,348,48425,2,0,B|380:352|380:352|320:340,1,100
244,344,48875,2,0,L|172:356,1,50
112,340,49175,2,0,P|92:300|100:228,1,100,8|0,0:0|0:0,0:0:0:0:
64,132,49775,6,0,B|85:132|85:132|129:148|129:148|161:148|161:148,1,100
256,168,50375,2,0,P|300:152|352:148,1,100,8|0,0:0|0:0,0:0:0:0:
328,272,50975,2,0,P|276:288|216:288,1,100,8|0,0:0|0:0,0:0:0:0:
188,208,51425,1,0,0:0:0:0:
108,256,51575,2,0,L|76:144,2,100,8|0|8,0:0|0:0|0:0,0:0:0:0:
108,256,52475,1,0,0:0:0:0:
168,328,52775,6,0,P|204:288|256:276,1,100,8|0,0:0|0:0,0:0:0:0:
316,332,53375,2,0,P|336:256|232:192,1,200,8|8,0:0|0:0,0:0:0:0:
164,132,54275,2,0,L|56:156,2,100,0|8|0,0:0|0:0|0:0,0:0:0:0:
240,64,55175,6,0,P|260:100|252:172,1,100,8|0,0:0|0:0,0:0:0:0:
220,240,55625,1,0,0:0:0:0:
220,240,55775,2,0,P|264:256|328:248,1,100,8|0,0:0|0:0,0:0:0:0:
408,304,56375,2,0,B|420:220|420:220|408:192,2,100,8|0|8,0:0|0:0|0:0,0:0:0:0:
408,304,57275,1,0,0:0:0:0:
408,304,57575,6,0,P|368:268|304:260,1,100,8|0,0:0|0:0,0:0:0:0:
232,276,58025,1,0,0:0:0:0:
232,276,58175,2,0,L|216:168,1,100,8|0,0:0|0:0,0:0:0:0:
272,92,58625,1,0,0:0:0:0:
368,163,59225,6,0,L|320:176,2,50
424,273,59675,2,0,L|376:260,1,50
312,336,59975,2,0,P|260:344|196:332,1,100,8|0,0:0|0:0,0:0:0:0:
120,336,60425,1,0,0:0:0:0:
120,336,60575,2,0,L|104:216,1,100
52,160,61025,2,0,P|80:148|152:152,1,100
196,228,61625,6,0,P|248:252|304:244,1,100
260,164,62075,2,0,L|324:132,1,50
396,132,62375,2,0,L|376:240,1,100,8|0,0:0|0:0,0:0:0:0:
472,244,62825,2,0,L|452:352,1,100
352,356,63425,2,0,P|312:364|240:360,1,100
160,372,63875,2,0,P|168:324|216:276,1,100
199,285,64475,5,0,0:0:0:0:
304,264,64775,2,0,P|352:240|380:184,1,100,8|8,0:0|0:0,0:0:0:0:
288,176,65225,2,0,P|256:136|256:84,1,100
111,81,65675,1,0,0:0:0:0:
111,81,65975,2,8,P|91:109|75:181,1,100
140,228,66425,2,0,P|160:256|176:328,1,100
288,304,66875,1,0,0:0:0:0:
288,304,67175,6,0,P|276:272|288:204,1,100
356,128,67625,1,0,0:0:0:0:
356,128,67775,2,0,P|300:104|252:108,1,100
176,136,68225,2,0,P|152:168|96:188,1,100
97,187,68675,1,0,0:0:0:0:
64,292,68975,1,0,0:0:0:0:
168,292,69275,1,0,0:0:0:0:
264,252,69575,6,0,P|296:232|368:224,1,100,8|0,0:0|0:0,0:0:0:0:
336,312,70025,1,0,0:0:0:0:
424,304,70175,2,0,B|444:276|444:276|444:224|444:224|444:188,1,100,8|0,0:0|0:0,0:0:0:0:
372,132,70775,2,0,P|352:112|276:92,2,100,8|0|8,0:0|0:0|0:0,0:0:0:0:
288,196,71675,1,0,0:0:0:0:
288,196,71975,6,0,L|296:300,1,100,8|0,0:0|0:0,0:0:0:0:
384,288,72425,1,0,0:0:0:0:
384,288,72575,2,0,L|391:188,1,100,8|0,0:0|0:0,0:0:0:0:
408,88,73175,2,0,P|448:104|488:152,2,100,8|0|8,0:0|0:0|0:0,0:0:0:0:
304,96,74075,2,0,P|268:124|256:148,1,50
240,216,74375,6,0,P|188:224|132:200,1,100,8|0,0:0|0:0,0:0:0:0:
100,128,74825,1,0,0:0:0:0:
100,128,74975,2,0,P|64:160|44:208,1,100,8|0,0:0|0:0,0:0:0:0:
72,304,75575,2,0,B|164:312|164:312|176:292,2,100,8|0|8,0:0|0:0|0:0,0:0:0:0:
167,305,76475,2,0,P|183:285|223:273,1,50
288,304,76775,6,0,P|328:260|388:252,1,100,8|0,0:0|0:0,0:0:0:0:
368,336,77375,2,0,L|308:236,1,100,8|0,0:0|0:0,0:0:0:0:
268,168,77825,1,0,0:0:0:0:
128,64,78425,1,0,0:0:0:0:
144,156,78575,2,0,P|136:208|152:268,1,100,8|0,0:0|0:0,0:0:0:0:
144,344,79025,1,0,0:0:0:0:
232,320,79175,6,0,P|272:340|348:340,1,100,8|0,0:0|0:0,0:0:0:0:
416,292,79775,2,0,L|404:188,1,100
316,204,80225,2,0,L|208:180,2,100
124,164,81575,6,0,P|144:120|192:88,1,100
272,56,82025,1,0,0:0:0:0:
272,56,82175,2,0,B|280:148|280:148|296:140,1,100
368,92,82625,2,0,P|384:128|376:192,1,100
304,236,83075,1,0,0:0:0:0:
216,296,83375,6,0,P|168:280|116:288,1,100
119,286,83975,6,0,P|119:222|131:170,1,100
172,108,84425,1,0,0:0:0:0:
172,108,84575,2,0,P|224:128|268:128,1,100
352,96,85025,2,0,P|392:84|464:92,1,100
408,172,85475,1,0,0:0:0:0:
366,256,85775,1,0,0:0:0:0:
324,340,86075,1,0,0:0:0:0:
376,352,86375,6,0,P|336:392|372:316,1,300.000011444092
452,256,87875,2,0,P|428:224|396:200,2,75.0000028610231
256,192,88625,12,0,89975,0:0:0:0:
