osu file format v14

[General]
AudioFilename: audio.mp3
AudioLeadIn: 0
PreviewTime: 212255
Countdown: 0
SampleSet: Soft
StackLeniency: 0.5
Mode: 0
LetterboxInBreaks: 0
WidescreenStoryboard: 0

[Editor]
Bookmarks: 53246,56846,85655,97646,107246,116846,121646,131246,164846,169646,188846,208046,211646,214046,215396,215846,216446,245246,250046,254846,259646,267896
DistanceSpacing: 1
BeatDivisor: 3
GridSize: 16
TimelineZoom: 2

[Metadata]
Title:Aozora Jumping Heart
TitleUnicode:青空Jumping Heart
Artist:Aqours
ArtistUnicode:Aqours
Creator:Sakurauchi Riko
Version:Sunshine!!
Source:ラブライブ!サンシャイン!!
Tags:Phyloukz 桜内梨子 full ver love live! sunshine anime school idol project japanese Inami Anju 伊波杏樹 Aida Rikako 逢田梨香子 Suwa Nanaka 諏訪ななか Komiya Arisa 小宮有紗 Saito Shuka 斉藤朱夏 Kobayashi Aika 小林愛香 Takatsuki Kanako 高槻かなこ Suzuki Aina 鈴木愛奈 Furihata Ai 降幡 愛 Takami Chika 高海千歌 Matsuura Kanan 松浦果南 Kurosawa Dia 黒澤ダイヤ Watanabe You 渡辺 曜 Tsushima Yoshiko 津島善子 Kunikida Hanamaru 国木田花丸 Ohara Mari 小原鞠莉 Kurosawa Ruby 黒澤ルビィ Kyle Y akitoshi corinn -Laura-
BeatmapID:1290650
BeatmapSetID:611367

[Difficulty]
HPDrainRate:6.5
CircleSize:4
OverallDifficulty:9.6
ApproachRate:9.7
SliderMultiplier:1.8
SliderTickRate:1

[Events]
//Background and Video events
0,0,"newbgiloverikoo.jpg",0,0
//Break Periods
2,209554,211910
//Storyboard Layer 0 (Background)
//Storyboard Layer 1 (Fail)
//Storyboard Layer 2 (Pass)
//Storyboard Layer 3 (Foreground)
//Storyboard Layer 4 (Overlay)
//Storyboard Sound Samples

[TimingPoints]
1805,300,4,2,1,60,1,0
1805,-133.333333333333,4,2,1,40,0,0
2180,-133.333333333333,4,2,1,5,0,0
2255,-133.333333333333,4,2,1,50,0,0
2630,-133.333333333333,4,2,1,5,0,0
2705,-133.333333333333,4,2,1,60,0,0
3530,-133.333333333333,4,2,1,5,0,0
3605,-133.333333333333,4,2,1,50,0,0
5405,-133.333333333333,4,2,1,80,0,0
5705,-133.333333333333,4,2,1,40,0,0
6005,-133.333333333333,4,2,1,50,0,0
6305,-133.333333333333,4,2,1,60,0,0
6455,-133.333333333333,4,2,1,70,0,0
6605,-133.333333333333,4,2,1,80,0,0
7505,-100,4,2,1,80,0,0
7805,-100,4,2,1,80,0,0
16955,-100,4,2,1,50,0,0
17405,-100,4,2,1,70,0,0
32030,-100,4,2,1,5,0,0
32105,-100,4,2,1,70,0,0
33230,-100,4,2,1,5,0,0
33305,-100,4,2,1,70,0,0
35930,-100,4,2,1,5,0,0
36005,-100,4,2,1,70,0,0
36230,-100,4,2,1,5,0,0
36305,-100,4,2,1,70,0,0
36605,-100,4,2,1,50,0,0
40205,-100,4,2,1,60,0,0
41405,-83.3333333333333,4,2,1,80,0,0
41630,-83.3333333333333,4,2,1,5,0,0
41705,-100,4,2,1,70,0,0
43805,-83.3333333333333,4,2,1,80,0,0
44030,-83.3333333333333,4,2,1,5,0,0
44105,-100,4,2,1,70,0,0
46205,-100,4,2,1,80,0,0
48005,-83.3333333333333,4,2,1,80,0,0
48605,-100,4,2,1,60,0,0
49805,-83.3333333333333,4,2,1,60,0,0
50405,-200,4,2,1,50,0,0
50705,-333.333333333333,4,2,1,50,0,0
50930,-200,4,2,1,5,0,0
51005,-83.3333333333333,4,2,1,80,0,1
65030,-83.3333333333333,4,2,1,5,0,1
65105,-83.3333333333333,4,2,1,80,0,1
65330,-83.3333333333333,4,2,1,5,0,1
65405,-83.3333333333333,4,2,1,80,0,1
69605,-125,4,2,1,60,0,0
69830,-200,4,2,1,5,0,0
69905,-333.333333333333,4,2,1,60,0,0
70130,-200,4,2,1,5,0,0
70205,-83.3333333333333,4,2,1,80,0,1
84005,-83.3333333333333,4,2,1,60,0,1
84605,-100,4,2,1,70,0,0
84830,-100,4,2,1,5,0,0
84905,-100,4,2,1,70,0,0
85280,-100,4,2,1,5,0,0
85355,-100,4,2,1,70,0,0
85580,-100,4,2,1,5,0,0
85655,-100,4,2,1,70,0,0
87005,-133.333333333333,4,2,1,80,0,0
88805,-100,4,2,1,80,0,0
89405,-100,4,2,1,80,0,0
99005,-100,4,2,1,70,0,0
113630,-100,4,2,1,5,0,0
113705,-100,4,2,1,70,0,0
114830,-100,4,2,1,5,0,0
114905,-100,4,2,1,70,0,0
117605,-100,4,2,1,50,0,0
118205,-100,4,2,1,70,0,0
118505,-142.857142857143,4,2,1,50,0,0
118955,-100,4,2,1,5,0,0
119105,-100,4,2,1,50,0,0
119255,-100,4,2,1,70,0,0
119855,-100,4,2,1,50,0,0
120605,-100,4,2,1,60,0,0
123005,-83.3333333333333,4,2,1,70,0,0
123230,-83.3333333333333,4,2,1,5,0,0
123305,-100,4,2,1,70,0,0
125405,-83.3333333333333,4,2,1,70,0,0
125630,-83.3333333333333,4,2,1,5,0,0
125705,-100,4,2,1,70,0,0
127805,-100,4,2,1,80,0,0
129605,-83.3333333333333,4,2,1,80,0,0
130205,-100,4,2,1,60,0,0
131405,-100,4,2,1,80,0,0
132605,-83.3333333333333,4,2,1,80,0,1
146630,-83.3333333333333,4,2,1,5,0,1
146705,-83.3333333333333,4,2,1,80,0,1
146930,-83.3333333333333,4,2,1,5,0,1
147005,-83.3333333333333,4,2,1,80,0,1
151205,-125,4,2,1,60,0,0
151430,-200,4,2,1,5,0,0
151505,-333.333333333333,4,2,1,60,0,0
151730,-200,4,2,1,5,0,0
151805,-83.3333333333333,4,2,1,80,0,1
165605,-83.3333333333333,4,2,1,60,0,1
166205,-100,4,2,1,70,0,0
166430,-100,4,2,1,5,0,0
166505,-100,4,2,1,70,0,0
166880,-100,4,2,1,5,0,0
166955,-100,4,2,1,70,0,0
167180,-100,4,2,1,5,0,0
167255,-100,4,2,1,80,0,0
168605,-133.333333333333,4,2,1,80,0,0
170105,-100,4,2,1,80,0,0
173855,-200,4,2,1,80,0,0
174080,-100,4,2,1,80,0,0
177080,-100,4,2,1,5,0,0
177155,-100,4,2,1,80,0,0
182705,-200,4,2,1,80,0,0
182930,-200,4,2,1,5,0,0
183005,-100,4,2,1,80,0,0
183230,-100,4,2,1,5,0,0
183305,-100,4,2,1,80,0,0
183680,-100,4,2,1,5,0,0
183755,-100,4,2,1,80,0,0
184880,-100,4,2,1,5,0,0
184955,-100,4,2,1,80,0,0
190430,-100,4,2,1,5,0,0
190505,-100,4,2,1,70,0,0
195230,-100,4,2,1,5,0,0
195305,-100,4,2,1,70,0,0
207005,-100,4,2,1,80,0,1
209355,-100,4,2,1,80,0,0
212405,-200,4,2,1,30,0,0
212630,-200,4,2,1,5,0,0
212705,-200,4,2,1,30,0,0
212930,-200,4,2,1,5,0,0
213005,-200,4,2,1,80,0,1
213155,-200,4,2,1,80,0,0
213605,-200,4,2,1,40,0,0
213830,-200,4,2,1,5,0,0
213905,-200,4,2,1,40,0,0
214055,-125,4,2,1,80,0,0
214355,-200,4,2,1,40,0,0
214655,-125,4,2,1,80,0,0
214955,-200,4,2,1,40,0,0
215405,-100,4,2,1,80,0,0
215555,-100,4,2,1,40,0,0
216005,-100,4,2,1,60,0,0
216305,-100,4,2,1,70,0,0
216605,-100,4,2,1,80,0,0
217805,-83.3333333333333,4,2,1,80,0,1
227030,-83.3333333333333,4,2,1,5,0,1
227105,-83.3333333333333,4,2,1,80,0,1
227330,-83.3333333333333,4,2,1,5,0,1
227405,-83.3333333333333,4,2,1,80,0,1
231605,-125,4,2,1,60,0,0
231830,-200,4,2,1,5,0,0
231905,-333.333333333333,4,2,1,60,0,0
232130,-333.333333333333,4,2,1,5,0,0
232205,-500,4,2,1,60,0,0
232430,-500,4,2,1,5,0,0
232505,-83.3333333333333,4,2,1,80,0,1
255305,-83.3333333333333,4,2,1,60,0,1
256205,-100,4,2,1,70,0,0
256430,-100,4,2,1,5,0,0
256505,-100,4,2,1,70,0,0
256880,-100,4,2,1,5,0,0
256955,-100,4,2,1,70,0,0
257180,-100,4,2,1,5,0,0
257255,-100,4,2,1,70,0,0
258605,-133.333333333333,4,2,1,80,0,0
259655,-133.333333333333,4,2,1,5,0,0
259730,-133.333333333333,4,2,1,50,0,0
260105,-100,4,2,1,60,0,0
261005,-100,4,2,1,80,0,0
264605,-100,4,2,1,80,0,1
265805,-100,4,2,1,80,0,0
269255,-133.333333333333,4,2,1,80,0,0
269330,-133.333333333333,4,2,1,30,0,0
270455,-133.333333333333,4,2,1,5,0,0
270605,-133.333333333333,4,2,1,80,0,0
270680,-133.333333333333,4,2,1,30,0,0
271655,-133.333333333333,4,2,1,5,0,0
271805,-133.333333333333,4,2,1,80,0,0
271880,-133.333333333333,4,2,1,30,0,0
272405,-133.333333333333,4,2,1,5,0,0
272519,300,4,2,1,50,1,0
272519,-133.333333333333,4,2,1,80,0,0
272594,-133.333333333333,4,2,1,30,0,0
273419,-133.333333333333,4,2,1,5,0,0
273569,-333.333333333333,4,2,1,80,0,0
273644,-333.333333333333,4,2,1,30,0,0
279119,-133.333333333333,4,2,1,5,0,0

[Colours]
Combo1 : 135,136,146
Combo2 : 184,37,67
Combo3 : 252,177,65

[HitObjects]
216,205,1805,6,0,B|260:220|300:190|300:190|328:194|328:194|367:168|417:185,2,202.500007724762,2|2|2,0:0|0:0|0:0,0:0:0:0:
118,26,3005,6,0,P|190:19|234:142,1,202.500007724762,6|0,1:2|0:0,0:0:0:0:
106,198,3605,2,0,P|72:196|43:180,1,67.5000025749208,2|0,0:0|0:0,0:0:0:0:
96,112,3905,2,0,P|130:112|161:100,1,67.5000025749208,2|0,0:0|0:0,0:0:0:0:
316,312,4205,6,0,L|337:399,1,67.5000025749208,6|0,1:2|0:0,0:0:0:0:
481,199,4505,2,0,L|465:281,1,67.5000025749208,2|0,0:0|3:0,0:0:0:0:
302,363,4805,2,0,L|285:298,1,67.5000025749208,2|0,3:2|3:0,0:0:0:0:
484,296,5105,2,0,L|502:210,1,67.5000025749208,2|0,3:2|3:0,0:0:0:0:
408,82,5405,5,6,1:2:0:0:
184,185,5705,1,0,1:0:0:0:
289,135,5855,1,0,1:0:0:0:
90,123,6005,1,8,1:2:0:0:
277,253,6155,1,8,1:2:0:0:
298,32,6305,5,8,1:2:0:0:
71,334,6455,1,8,1:2:0:0:
457,384,6605,1,12,1:2:0:0:
298,32,6905,5,2,0:0:0:0:
188,180,7055,1,0,0:0:0:0:
475,57,7205,1,2,3:2:0:0:
498,81,7280,1,0,3:0:0:0:
508,112,7355,1,0,3:0:0:0:
509,145,7430,1,0,3:0:0:0:
502,176,7505,2,0,P|493:197|461:226,1,45,2|0,3:0|3:0,0:0:0:0:
341,124,7655,2,0,P|371:126|407:152,1,45,2|0,3:0|3:0,0:0:0:0:
460,357,7805,6,0,L|352:383,1,90,6|0,1:2|0:0,0:0:0:0:
119,287,8105,1,8,0:0:0:0:
285,346,8255,1,0,0:0:0:0:
33,254,8405,2,0,P|25:292|52:353,1,90,2|0,1:2|1:0,0:0:0:0:
356,292,8705,1,8,0:0:0:0:
126,373,8855,1,0,0:0:0:0:
166,109,9005,6,0,P|160:81|125:140,1,180,6|8,1:2|0:0,0:0:0:0:
413,42,9455,2,0,P|455:20|511:24,1,90,2|0,1:2|1:0,0:0:0:0:
478,123,9755,1,0,1:0:0:0:
201,84,9905,1,10,0:0:0:0:
304,29,10055,1,0,0:0:0:0:
329,328,10205,6,0,P|388:367|501:351,1,180,6|8,1:2|0:0,0:0:0:0:
429,243,10655,1,0,0:0:0:0:
259,384,10805,1,0,1:0:0:0:
346,102,10955,1,0,1:0:0:0:
492,356,11105,5,10,0:0:0:0:
450,372,11180,1,2,0:0:0:0:
405,371,11255,1,2,0:0:0:0:
362,355,11330,1,2,0:0:0:0:
329,328,11405,2,0,P|289:297|235:292,1,90,6|0,1:2|0:0,0:0:0:0:
21,376,11705,5,10,0:0:0:0:
161,94,11855,1,0,1:0:0:0:
429,243,12005,5,10,0:0:0:0:
38,283,12155,1,0,1:0:0:0:
251,85,12305,5,10,0:0:0:0:
405,371,12455,1,0,1:0:0:0:
498,52,12605,6,0,P|469:-1|455:74,1,180,6|8,1:2|0:0,0:0:0:0:
512,209,13055,1,0,0:0:0:0:
280,144,13205,2,0,L|184:116,1,90,2|0,1:2|1:0,0:0:0:0:
340,31,13505,1,8,0:0:0:0:
366,167,13655,1,0,0:0:0:0:
213,3,13805,6,0,L|113:27,1,90,6|0,1:2|0:0,0:0:0:0:
9,179,14105,1,8,0:0:0:0:
280,144,14255,2,0,L|404:178,1,90,2|0,1:2|0:0,0:0:0:0:
474,204,14555,1,0,1:0:0:0:
218,228,14705,1,10,0:0:0:0:
388,4,14855,1,2,0:0:0:0:
391,285,15005,22,0,B|384:336|336:365,1,90,6|0,1:2|0:0,0:0:0:0:
44,52,15305,2,0,P|85:25|144:19,1,90,2|0,0:0|1:0,0:0:0:0:
114,267,15605,1,10,0:0:0:0:
9,179,15905,1,2,0:0:0:0:
334,197,16055,22,0,B|360:144|338:70|289:30|289:30|339:-29|416:-26|431:51|402:90|357:107|357:107|421:117|458:172,1,540.000020599366,6|0,1:2|1:0,0:0:0:0:
467,192,17030,1,0,1:0:0:0:
474,226,17105,1,0,1:0:0:0:
204,148,17405,6,0,P|159:144|99:181,1,90,6|0,1:2|0:0,0:0:0:0:
144,320,17705,2,0,P|169:283|167:212,1,90,2|0,1:2|0:0,0:0:0:0:
23,183,18005,2,0,P|42:223|104:257,1,90,2|0,1:2|0:0,0:0:0:0:
271,227,18305,1,2,1:2:0:0:
144,320,18455,1,2,0:2:0:0:
204,148,18605,6,0,P|266:124|369:189,1,180,4|2,1:2|1:2,0:0:0:0:
271,227,19055,1,0,0:0:0:0:
455,122,19205,2,0,P|468:160|453:233,1,90,2|0,1:2|0:0,0:0:0:0:
375,363,19505,2,0,P|370:318|383:275,1,90,2|0,1:2|0:0,0:0:0:0:
220,53,19805,6,0,B|108:69,1,90,6|0,1:2|0:0,0:0:0:0:
0,192,20105,2,0,B|89:204,1,90,2|0,1:2|0:0,0:0:0:0:
309,40,20405,2,0,B|191:57,1,90,2|0,1:2|0:0,0:0:0:0:
332,200,20705,1,2,1:2:0:0:
398,29,20855,1,2,0:0:0:0:
234,163,21005,6,0,P|173:154|111:51,1,180,4|0,1:2|1:0,0:0:0:0:
219,52,21455,1,0,0:0:0:0:
254,261,21605,1,0,1:0:0:0:
362,175,21755,1,0,0:0:0:0:
77,236,21905,2,0,L|98:132,1,90,2|0,1:2|0:0,0:0:0:0:
331,1,22205,6,0,B|339:75|339:75|355:100|355:100|364:186,1,180,6|2,1:2|1:2,0:0:0:0:
119,55,22655,2,0,P|71:54|19:87,2,90,2|0|0,0:0|1:0|0:0,0:0:0:0:
304,100,23105,1,2,1:2:0:0:
94,147,23255,1,2,0:0:0:0:
314,253,23405,6,0,P|275:307|279:234,1,180,6|2,1:2|1:2,0:0:0:0:
304,383,23855,2,0,P|253:384|206:358,2,90,2|0|0,0:0|1:0|0:0,0:0:0:0:
487,317,24305,1,2,1:2:0:0:
314,253,24455,1,2,0:0:0:0:
431,65,24605,6,0,B|456:34|456:34|473:182,1,180,6|2,1:2|1:2,0:0:0:0:
432,195,24980,1,2,0:0:0:0:
387,194,25055,1,2,0:0:0:0:
349,169,25130,1,2,0:0:0:0:
326,130,25205,1,2,1:2:0:0:
292,100,25280,1,2,0:0:0:0:
248,87,25355,1,2,0:0:0:0:
203,93,25430,1,2,0:0:0:0:
169,123,25505,6,0,L|160:175,1,45,2|0,1:2|0:0,0:0:0:0:
416,108,25655,2,0,L|411:52,1,45,0|0,3:0|3:0,0:0:0:0:
92,72,25805,5,2,1:2:0:0:
251,180,25955,1,0,1:0:0:0:
411,63,26105,1,0,1:0:0:0:
169,123,26255,1,2,1:2:0:0:
363,366,26405,1,2,1:2:0:0:
380,330,26480,1,0,1:0:0:0:
370,286,26555,1,0,1:0:0:0:
337,261,26630,1,0,1:0:0:0:
296,264,26705,5,2,0:0:0:0:
259,276,26780,1,2,0:0:0:0:
212,268,26855,1,2,0:0:0:0:
172,230,26930,1,2,0:0:0:0:
161,167,27005,6,0,L|180:64,1,90,6|0,1:2|0:0,0:0:0:0:
454,170,27305,2,0,L|472:259,1,90,10|0,0:0|0:0,0:0:0:0:
256,179,27605,1,2,1:2:0:0:
383,133,27755,1,0,1:0:0:0:
177,78,27905,1,10,0:0:0:0:
327,316,28055,6,0,P|380:267|314:280,1,180,2|0,1:2|1:0,0:0:0:0:
478,369,28505,2,0,L|490:279,1,90,10|0,0:0|0:0,0:0:0:0:
304,227,28805,1,2,1:2:0:0:
506,197,28955,1,0,1:0:0:0:
285,143,29105,2,0,P|240:166|220:204,1,90,10|0,0:0|0:0,0:0:0:0:
0,209,29405,6,0,P|77:238|141:164,1,180,6|10,1:2|0:0,0:0:0:0:
194,365,29855,2,0,P|200:326|173:279,1,90,2|0,1:2|0:0,0:0:0:0:
62,161,30155,1,2,1:2:0:0:
123,336,30305,1,8,0:0:0:0:
303,177,30455,6,0,B|394:154|395:211|482:177,1,180,6|0,1:2|1:0,0:0:0:0:
429,93,30905,1,8,0:0:0:0:
345,274,31055,5,2,0:0:0:0:
512,304,31205,1,2,1:2:0:0:
248,262,31355,1,2,1:2:0:0:
417,360,31505,1,10,0:0:0:0:
479,178,31655,1,2,0:0:0:0:
284,347,31805,6,0,P|242:354|182:327,1,90,6|0,1:2|0:0,0:0:0:0:
102,357,32105,1,10,0:0:0:0:
248,262,32255,2,0,P|281:243|298:187,1,90,2|0,0:0|1:0,0:0:0:0:
224,86,32555,1,0,1:0:0:0:
479,178,32705,2,0,L|366:196,1,90,8|0,0:0|0:0,0:0:0:0:
203,0,33005,6,0,P|163:17|139:54,1,90,6|0,1:2|0:0,0:0:0:0:
55,119,33305,1,10,0:0:0:0:
224,86,33455,2,0,P|263:76|317:100,1,90,2|0,1:2|0:0,0:0:0:0:
156,136,33755,1,0,1:0:0:0:
286,241,33905,2,0,L|259:141,1,90,10|0,0:0|0:0,0:0:0:0:
473,0,34205,6,4,B|455:75|455:75|462:101|462:101|442:189,1,180,6|10,1:2|0:0,0:0:0:0:
295,338,34655,2,0,P|247:331|207:299,1,90,2|0,1:2|1:0,0:0:0:0:
431,264,34955,2,0,P|479:260|519:228,1,90,0|8,1:0|0:0,0:0:0:0:
177,139,35255,6,0,B|156:238|229:212|213:308,1,180,4|0,1:2|0:0,0:0:0:0:
92,120,35705,2,0,P|136:120|198:161,1,90,2|0,1:2|1:0,0:0:0:0:
319,103,36005,2,0,P|293:146|245:173,1,90,2|0,1:2|0:0,0:0:0:0:
212,308,36305,2,0,P|189:269|194:195,1,90,2|0,0:0|1:0,0:0:0:0:
456,361,36605,1,6,1:2:0:0:
392,39,36905,5,2,0:0:0:0:
469,272,37055,2,0,L|454:371,2,90,2|8|0,0:0|0:0|0:0,0:0:0:0:
177,139,37505,5,2,0:0:0:0:
408,197,37655,2,0,L|496:179,1,90,2|0,0:0|1:0,0:0:0:0:
377,280,37955,1,0,1:0:0:0:
16,188,38255,5,0,1:0:0:0:
227,60,38405,2,0,P|190:44|135:52,1,90,10|0,0:0|0:0,0:0:0:0:
139,241,38705,1,2,3:2:0:0:
295,117,38855,1,0,3:0:0:0:
234,288,39005,6,0,P|240:209|157:132,1,180,6|2,1:2|0:0,0:0:0:0:
76,299,39455,2,0,P|110:283|142:233,1,90,2|8,1:2|0:0,0:0:0:0:
199,45,39755,1,2,0:0:0:0:
223,30,39830,1,2,0:0:0:0:
262,28,39905,5,2,0:0:0:0:
283,68,39980,1,2,0:0:0:0:
326,97,40055,1,2,0:0:0:0:
378,100,40130,1,2,0:0:0:0:
424,68,40205,6,0,B|462:34|519:50,1,90,6|0,1:2|3:0,0:0:0:0:
448,211,40505,1,8,0:0:0:0:
349,11,40655,1,6,3:2:0:0:
269,261,40805,1,6,3:2:0:0:
482,133,40955,1,0,3:0:0:0:
209,73,41105,1,2,3:2:0:0:
167,67,41180,1,0,3:0:0:0:
126,60,41255,2,0,L|56:51,1,45,0|0,3:0|3:0,0:0:0:0:
329,362,41405,6,0,L|504:328,1,161.999995056153,6|0,1:2|0:0,0:0:0:0:
510,248,41705,2,0,P|487:287|492:342,1,90,10|0,0:2|0:0,0:0:0:0:
383,248,42005,1,2,1:2:0:0:
497,160,42155,1,0,1:0:0:0:
487,330,42305,1,10,0:0:0:0:
300,269,42455,6,0,P|350:268|385:245,1,90,2|0,1:2|0:0,0:0:0:0:
346,96,42755,2,0,P|385:118|407:157,1,90,2|8,1:2|0:0,0:0:0:0:
188,305,43055,2,0,P|196:214|260:158,1,180,2|0,1:2|1:0,0:0:0:0:
89,339,43505,2,0,L|-21:326,1,90,10|0,0:0|0:0,0:0:0:0:
145,41,43805,6,0,L|321:18,1,161.999995056153,6|0,1:2|0:0,0:0:0:0:
346,96,44105,2,0,P|315:63|309:1,1,90,10|0,0:0|0:0,0:0:0:0:
449,122,44405,1,2,1:2:0:0:
236,73,44555,1,0,1:0:0:0:
512,57,44705,1,10,0:0:0:0:
431,324,44855,6,0,P|379:311|336:326,1,90,6|0,1:2|0:0,0:0:0:0:
215,347,45155,2,0,P|252:308|260:263,1,90,2|8,1:2|0:0,0:0:0:0:
379,106,45455,2,0,L|408:221,1,90,2|0,1:2|0:0,0:0:0:0:
141,248,45755,5,0,1:0:0:0:
96,241,45830,1,0,1:0:0:0:
54,220,45905,1,10,3:0:0:0:
10,213,45980,1,2,0:0:0:0:
40,186,46055,1,2,3:2:0:0:
70,153,46130,1,2,0:0:0:0:
65,108,46205,5,6,1:2:0:0:
221,287,46355,1,0,1:0:0:0:
0,343,46505,1,0,1:0:0:0:
164,163,46655,5,4,1:2:0:0:
257,361,46805,1,0,1:0:0:0:
303,28,46955,1,0,1:0:0:0:
30,122,47105,5,4,1:2:0:0:
381,193,47255,1,0,1:0:0:0:
0,343,47405,1,0,1:0:0:0:
59,35,47555,5,4,1:2:0:0:
256,361,47705,1,0,1:0:0:0:
444,34,47855,1,0,1:0:0:0:
164,163,48005,6,0,L|102:144,1,53.9999983520508,2|0,1:2|0:0,0:0:0:0:
243,38,48155,2,0,L|312:62,1,53.9999983520508,2|0,1:2|0:0,0:0:0:0:
125,198,48305,2,0,L|57:177,1,53.9999983520508,2|0,1:2|0:0,0:0:0:0:
282,3,48455,2,0,L|348:26,1,53.9999983520508,2|0,1:2|0:0,0:0:0:0:
428,262,48605,6,0,L|246:316,1,180,6|8,1:2|0:0,0:0:0:0:
122,80,49055,1,2,1:2:0:0:
93,359,49205,1,8,0:0:0:0:
283,155,49355,1,0,1:0:0:0:
1,216,49505,2,0,L|27:114,1,90,10|0,0:0|1:0,0:0:0:0:
341,55,49805,6,0,L|368:172,1,107.999996704102,2|8,1:2|0:0,0:0:0:0:
338,268,50105,1,8,0:0:0:0:
166,21,50255,1,8,0:0:0:0:
115,316,50405,6,0,P|150:323|184:316,1,67.5,2|0,0:0|3:0,0:0:0:0:
251,288,50705,2,0,P|229:284|202:290,1,40.4999987640381,2|0,0:0|0:0,0:0:0:0:
255,384,51005,6,0,B|285:235|285:235|272:280|236:299,1,215.999993408203,6|8,1:2|0:0,0:0:0:0:
160,193,51455,1,0,0:0:0:0:
393,226,51605,2,0,L|254:238,1,107.999996704102,2|0,1:2|1:0,0:0:0:0:
230,26,51905,1,8,0:0:0:0:
419,100,52055,1,0,0:0:0:0:
80,232,52205,6,0,P|85:144|200:111,1,215.999993408203,2|8,1:2|0:0,0:0:0:0:
238,257,52655,1,0,0:0:0:0:
0,78,52805,2,0,L|122:96,1,107.999996704102,2|0,1:2|1:0,0:0:0:0:
360,0,53105,1,8,0:0:0:0:
193,108,53255,1,0,0:0:0:0:
485,217,53405,6,0,P|436:277|420:180,1,215.999993408203,6|8,1:2|0:0,0:0:0:0:
489,95,53855,1,0,0:0:0:0:
354,270,54005,2,0,L|236:292,1,107.999996704102,2|0,1:2|1:0,0:0:0:0:
47,141,54305,1,8,0:0:0:0:
157,307,54455,1,0,0:0:0:0:
376,177,54605,6,0,L|396:52,1,107.999996704102,2|0,1:2|0:0,0:0:0:0:
256,195,54905,1,8,0:0:0:0:
415,172,55055,1,0,1:0:0:0:
166,155,55205,5,10,0:0:0:0:
451,192,55355,1,0,1:0:0:0:
243,99,55505,5,10,0:0:0:0:
401,327,55655,1,0,1:0:0:0:
55,213,55805,6,0,P|8:218|77:284,1,215.999993408203,6|8,1:2|0:0,0:0:0:0:
188,313,56255,1,0,0:0:0:0:
73,106,56405,2,0,L|52:232,1,107.999996704102,2|0,1:2|1:0,0:0:0:0:
233,384,56705,1,8,0:0:0:0:
38,305,56855,1,0,0:0:0:0:
304,202,57005,6,0,B|414:156|406:253|511:197,1,215.999993408203,2|8,1:2|0:0,0:0:0:0:
454,117,57455,1,0,0:0:0:0:
360,278,57605,2,0,L|380:395,1,107.999996704102,2|0,1:2|1:0,0:0:0:0:
510,197,57905,1,8,0:0:0:0:
483,322,58055,1,0,0:0:0:0:
208,226,58205,6,0,L|80:186,1,107.999996704102,6|0,1:2|0:0,0:0:0:0:
219,55,58505,5,8,0:0:0:0:
1,165,58655,1,0,1:0:0:0:
298,121,58805,1,8,0:0:0:0:
230,374,58955,1,0,1:0:0:0:
105,194,59105,5,10,0:0:0:0:
506,106,59255,2,0,P|432:106|373:245,1,215.999993408203,10|2,0:0|1:2,0:0:0:0:
512,384,59705,1,10,0:0:0:0:
471,209,59855,5,2,1:2:0:0:
241,338,60005,1,10,0:0:0:0:
427,295,60155,1,2,1:2:0:0:
220,304,60305,1,10,0:0:0:0:
388,384,60455,1,2,1:2:0:0:
152,168,60605,6,0,P|195:97|217:189,1,215.999993408203,6|8,1:2|0:0,0:0:0:0:
62,162,61055,1,2,1:2:0:0:
288,44,61205,2,0,L|406:37,1,107.999996704102,2|0,1:2|0:0,0:0:0:0:
502,192,61505,1,8,0:0:0:0:
295,358,61655,6,0,P|292:305|333:242,1,107.999996704102,2|0,1:2|0:0,0:0:0:0:
493,295,61955,2,0,P|448:324|373:320,1,107.999996704102,2|8,1:2|0:0,0:0:0:0:
335,157,62255,2,0,P|382:180|377:344,1,215.999993408203,2|0,0:0|1:0,0:0:0:0:
238,191,62705,1,8,0:0:0:0:
443,125,62855,1,0,0:0:0:0:
175,64,63005,6,0,L|50:33,1,107.999996704102,2|0,1:2|0:0,0:0:0:0:
0,191,63305,1,10,0:0:0:0:
176,384,63455,2,0,L|265:291,1,107.999996704102,2|0,0:2|0:0,0:0:0:0:
92,130,63755,2,0,L|127:253,1,107.999996704102,2|8,1:2|0:0,0:0:0:0:
450,384,64055,6,0,B|470:295|470:295|494:272|494:272|514:177,1,215.999993408203,6|0,0:0|1:0,0:0:0:0:
245,157,64505,1,8,0:0:0:0:
434,104,64655,1,0,1:0:0:0:
150,193,64805,2,0,P|207:252|294:247,1,161.999995056153,6|0,1:2|0:0,0:0:0:0:
397,290,65105,2,0,P|333:228|239:245,1,161.999995056153,10|0,0:0|0:0,0:0:0:0:
500,261,65405,6,0,L|466:402,1,107.999996704102,6|0,1:2|0:0,0:0:0:0:
300,332,65705,1,10,0:0:0:0:
434,104,65855,2,0,B|399:4|399:4|286:55,1,215.999993408203,2|0,1:2|0:0,0:0:0:0:
123,134,66305,2,0,P|71:113|6:132,1,107.999996704102,10|0,0:0|0:0,0:0:0:0:
282,339,66605,6,0,L|396:323,1,107.999996704102,6|0,1:2|0:0,0:0:0:0:
493,188,66905,1,8,0:0:0:0:
180,42,67055,2,0,B|130:141|225:142|175:253,1,215.999993408203,2|0,1:2|0:0,0:0:0:0:
388,323,67505,2,0,P|437:345|497:336,1,107.999996704102,10|0,0:0|0:0,0:0:0:0:
334,166,67805,5,6,1:2:0:0:
152,328,67955,1,0,1:0:0:0:
510,229,68105,1,8,0:0:0:0:
292,61,68255,5,2,1:2:0:0:
319,384,68405,1,8,0:0:0:0:
451,13,68555,5,2,1:2:0:0:
49,126,68705,1,10,0:0:0:0:
449,289,68855,2,0,P|464:375|385:328,1,215.999993408203,10|0,0:0|0:0,0:0:0:0:
512,156,69305,1,0,1:0:0:0:
368,249,69455,1,0,1:0:0:0:
360,69,69605,6,0,P|394:70|400:134,1,108,2|0,0:0|0:0,0:0:0:0:
312,192,69905,2,0,P|292:208|297:228,1,40.4999987640381,2|0,0:0|0:0,0:0:0:0:
238,357,70205,6,0,P|166:371|36:293,1,215.999993408203,6|8,1:2|0:0,0:0:0:0:
102,152,70655,1,0,0:0:0:0:
403,260,70805,2,0,P|350:257|298:283,1,107.999996704102,2|0,1:2|1:0,0:0:0:0:
44,306,71105,1,8,0:0:0:0:
174,214,71255,1,0,0:0:0:0:
382,383,71405,6,0,P|430:305|420:154,1,215.999993408203,2|8,1:2|0:0,0:0:0:0:
265,247,71855,1,0,0:0:0:0:
278,42,72005,2,0,P|337:53|388:90,1,107.999996704102,2|0,1:2|1:0,0:0:0:0:
94,205,72305,1,8,0:0:0:0:
324,172,72455,1,0,0:0:0:0:
79,117,72605,6,0,P|29:143|65:289,1,215.999993408203,6|8,1:2|0:0,0:0:0:0:
212,226,73055,1,0,0:0:0:0:
121,24,73205,2,0,P|67:16|-12:51,1,107.999996704102,2|0,1:2|1:0,0:0:0:0:
206,80,73505,1,8,0:0:0:0:
94,205,73655,1,0,0:0:0:0:
328,254,73805,6,0,B|442:279,1,107.999996704102,2|0,1:2|0:0,0:0:0:0:
512,74,74105,1,8,0:0:0:0:
402,168,74255,1,0,1:0:0:0:
460,14,74405,5,10,0:0:0:0:
512,254,74555,1,0,1:0:0:0:
512,74,74705,5,10,0:0:0:0:
358,358,74855,1,0,1:0:0:0:
151,77,75005,6,0,P|164:-11|219:61,1,215.999993408203,6|8,1:2|0:0,0:0:0:0:
100,165,75455,1,0,0:0:0:0:
323,274,75605,2,0,L|454:309,1,107.999996704102,2|0,1:2|1:0,0:0:0:0:
512,106,75905,1,8,0:0:0:0:
348,182,76055,1,0,0:0:0:0:
112,62,76205,6,0,B|116:148|116:148|135:181|135:181|143:287,1,215.999993408203,2|8,1:2|0:0,0:0:0:0:
38,332,76655,1,0,0:0:0:0:
228,107,76805,2,0,L|222:-11,1,107.999996704102,2|0,1:2|1:0,0:0:0:0:
429,236,77105,1,8,0:0:0:0:
264,129,77255,1,0,0:0:0:0:
503,166,77405,6,0,P|527:213|521:281,1,107.999996704102,6|0,1:2|1:0,0:0:0:0:
252,296,77705,1,8,0:0:0:0:
429,236,77855,1,0,1:0:0:0:
129,275,78005,1,10,0:0:0:0:
451,331,78155,1,0,1:0:0:0:
321,0,78305,5,10,0:0:0:0:
169,380,78455,2,0,P|58:361|18:248,1,215.999993408203,10|0,0:0|0:0,0:0:0:0:
252,296,78905,1,8,0:0:0:0:
0,361,79055,5,2,1:2:0:0:
83,92,79205,1,10,0:0:0:0:
144,247,79355,1,2,1:2:0:0:
123,98,79505,1,10,0:0:0:0:
53,206,79655,1,2,1:2:0:0:
306,179,79805,6,0,B|408:136|408:234|513:178,1,215.999993408203,6|8,1:2|0:0,0:0:0:0:
449,100,80255,1,2,1:2:0:0:
354,268,80405,2,0,L|373:384,1,107.999996704102,2|0,1:2|0:0,0:0:0:0:
512,178,80705,1,8,0:0:0:0:
251,268,80855,6,0,P|213:232|199:171,1,107.999996704102,2|0,1:2|0:0,0:0:0:0:
356,89,81155,2,0,P|343:139|297:182,1,107.999996704102,2|8,1:2|0:0,0:0:0:0:
149,86,81455,2,0,P|252:89|305:178,1,215.999993408203,2|0,0:0|1:0,0:0:0:0:
66,125,81905,1,8,0:0:0:0:
252,42,82055,1,0,0:0:0:0:
357,287,82205,6,0,L|250:267,1,107.999996704102,2|0,1:2|0:0,0:0:0:0:
58,366,82505,1,10,0:0:0:0:
167,247,82655,2,0,L|278:228,1,107.999996704102,2|0,0:0|0:0,0:0:0:0:
495,85,82955,2,0,L|386:65,1,107.999996704102,2|8,1:2|0:0,0:0:0:0:
0,92,83255,6,0,B|89:107|89:107|116:129|116:129|225:144,1,215.999993408203,6|0,0:0|1:0,0:0:0:0:
434,50,83705,1,8,0:0:0:0:
241,123,83855,1,0,1:0:0:0:
490,218,84005,5,12,3:0:0:0:
512,296,84105,1,4,3:0:0:0:
447,346,84205,1,4,3:0:0:0:
373,312,84305,2,0,B|353:220|353:220|373:169,1,143.999995605469,12|4,3:0|3:0,0:0:0:0:
187,334,84605,6,0,P|124:335|49:282,1,135,6|0,1:2|0:0,0:0:0:0:
1,357,84905,1,2,0:0:0:0:
156,219,85055,6,0,L|184:82,1,135,2|0,1:2|0:0,0:0:0:0:
187,12,85355,2,0,P|191:47|204:13,1,90,2|0,0:0|1:0,0:0:0:0:
0,109,85655,2,0,B|41:90|62:39|62:39|93:42|106:77|106:77|87:89|52:86,1,180,2|0,1:2|0:0,0:0:0:0:
77,175,86105,2,0,P|62:146|75:65,1,90,2|0,0:0|0:0,0:0:0:0:
442,64,86405,2,0,P|481:79|490:129,1,90,2|0,0:0|0:0,0:0:0:0:
385,111,86705,2,0,P|393:154|434:170,1,90,2|0,0:0|0:0,0:0:0:0:
265,222,87005,2,0,B|283:152|227:91|227:91|260:103|279:133|279:133|288:94|323:64|323:64|284:103|292:147|292:147|344:149|360:202,1,472.500018024445,6|0,1:2|0:0,0:0:0:0:
147,187,88205,1,0,1:0:0:0:
450,28,88505,5,2,0:0:0:0:
418,136,88655,1,2,3:2:0:0:
208,68,88805,2,0,B|268:63|262:123|348:111,1,135,2|0,3:2|0:0,0:0:0:0:
418,136,89105,1,2,0:0:0:0:
373,132,89180,1,2,0:0:0:0:
329,162,89255,1,2,0:0:0:0:
317,216,89330,1,2,0:0:0:0:
346,271,89405,6,0,P|383:290|454:273,1,90,6|0,1:2|0:0,0:0:0:0:
398,94,89705,1,8,0:0:0:0:
468,219,89855,1,0,0:0:0:0:
202,272,90005,2,0,L|101:297,1,90,2|0,1:2|1:0,0:0:0:0:
84,72,90305,1,8,0:0:0:0:
35,220,90455,1,0,0:0:0:0:
329,162,90605,6,0,B|398:182|398:182|433:179|433:179|507:202,1,180,6|8,1:2|0:0,0:0:0:0:
272,36,91055,2,0,L|161:6,1,90,2|0,1:2|1:0,0:0:0:0:
177,127,91355,1,0,1:0:0:0:
407,50,91505,1,10,0:0:0:0:
329,162,91655,1,0,0:0:0:0:
60,82,91805,6,0,P|1:145|38:222,1,180,6|8,1:2|0:0,0:0:0:0:
177,127,92255,1,0,0:0:0:0:
24,298,92405,1,0,1:0:0:0:
247,338,92555,1,0,1:0:0:0:
36,220,92705,5,10,0:0:0:0:
44,175,92780,1,2,0:0:0:0:
51,130,92855,1,2,0:0:0:0:
60,82,92930,1,2,0:0:0:0:
70,38,93005,2,0,B|171:9,1,90,6|0,1:2|0:0,0:0:0:0:
430,160,93305,5,10,0:0:0:0:
177,127,93455,1,0,1:0:0:0:
466,57,93605,5,2,0:0:0:0:
146,229,93755,1,0,1:0:0:0:
361,18,93905,5,10,0:0:0:0:
512,345,94055,1,0,1:0:0:0:
45,284,94205,6,0,P|17:350|81:315,1,180,6|8,1:2|0:0,0:0:0:0:
51,167,94655,1,0,0:0:0:0:
204,343,94805,2,0,L|293:355,1,90,2|0,1:2|1:0,0:0:0:0:
417,199,95106,1,8,0:0:0:0:
264,260,95256,1,0,0:0:0:0:
493,173,95405,6,0,L|516:69,1,90,6|0,1:2|0:0,0:0:0:0:
288,86,95705,1,8,0:0:0:0:
434,279,95855,2,0,L|457:379,1,90,2|0,1:2|0:0,0:0:0:0:
366,380,96155,1,0,1:0:0:0:
493,173,96305,1,10,0:0:0:0:
221,142,96455,1,2,0:0:0:0:
455,367,96605,6,0,L|344:382,1,90,6|0,1:2|0:0,0:0:0:0:
132,127,96905,2,0,L|241:145,1,90,2|0,0:0|1:0,0:0:0:0:
366,380,97205,1,10,0:0:0:0:
497,44,97505,1,2,0:0:0:0:
82,43,97655,6,0,B|100:107|99:177|99:177|138:216,1,180,6|0,1:2|3:0,0:0:0:0:
0,126,98105,1,0,3:0:0:0:
178,373,98255,6,0,B|156:307|161:238|161:238|129:207,1,180,4|0,1:2|1:0,0:0:0:0:
265,297,98705,1,0,1:2:0:0:
449,73,99005,6,0,P|400:70|345:96,1,90,6|0,1:2|0:0,0:0:0:0:
265,297,99305,2,0,P|314:294|369:320,1,90,10|0,0:0|0:0,0:0:0:0:
415,163,99605,1,2,1:2:0:0:
462,363,99755,1,0,1:0:0:0:
265,297,99905,1,10,0:0:0:0:
508,275,100055,6,0,P|433:265|358:355,1,180,6|0,1:2|1:0,0:0:0:0:
125,353,100505,1,10,0:0:0:0:
265,297,100655,1,0,0:0:0:0:
134,166,100805,1,2,1:2:0:0:
165,367,100955,1,0,1:0:0:0:
256,205,101105,2,0,L|365:190,1,90,10|0,0:0|0:0,0:0:0:0:
150,277,101405,6,0,P|107:276|62:252,1,90,6|0,1:2|0:0,0:0:0:0:
119,56,101705,2,0,P|162:57|207:81,1,90,10|0,0:0|0:0,0:0:0:0:
362,224,102005,1,2,1:2:0:0:
231,257,102155,1,0,1:0:0:0:
282,52,102305,1,10,0:0:0:0:
457,200,102455,6,0,B|463:271|463:271|485:302|485:302|494:382,1,180,6|0,1:2|1:0,0:0:0:0:
231,257,102905,1,8,0:0:0:0:
390,134,103055,1,0,0:0:0:0:
413,336,103205,1,0,1:0:0:0:
247,223,103355,1,0,1:0:0:0:
457,200,103505,2,0,P|481:167|481:108,1,90,10|0,0:0|0:0,0:0:0:0:
220,117,103805,6,0,P|314:151|410:121,1,180,6|10,1:2|0:0,0:0:0:0:
152,48,104255,2,0,P|128:81|128:140,1,90,2|0,0:0|1:0,0:0:0:0:
198,254,104555,1,0,1:0:0:0:
0,149,104705,1,10,0:0:0:0:
220,117,104855,1,0,0:0:0:0:
180,384,105005,6,0,P|203:308|299:275,1,180,6|10,1:2|0:0,0:0:0:0:
139,190,105455,2,0,P|178:217|200:263,1,90,2|0,1:2|0:0,0:0:0:0:
77,309,105755,1,0,1:0:0:0:
159,151,105905,1,10,0:0:0:0:
290,273,106055,1,2,0:0:0:0:
90,84,106205,6,0,P|156:56|249:111,1,180,6|10,1:2|0:0,0:0:0:0:
441,24,106655,2,0,P|399:47|334:37,1,90,2|0,0:0|1:0,0:0:0:0:
185,24,106955,1,0,0:0:0:0:
332,126,107105,1,10,0:0:0:0:
159,151,107255,1,0,0:0:0:0:
372,133,107405,5,2,1:2:0:0:
283,372,107555,1,0,1:0:0:0:
94,317,107705,1,0,1:0:0:0:
481,261,107855,1,10,1:2:0:0:
249,380,108005,1,2,1:2:0:0:
240,337,108080,1,0,1:0:0:0:
214,306,108155,1,0,1:0:0:0:
176,290,108230,1,0,1:0:0:0:
134,291,108305,5,2,1:2:0:0:
94,317,108380,1,2,0:0:0:0:
35,316,108455,1,2,0:0:0:0:
0,262,108530,1,2,0:0:0:0:
13,200,108605,6,0,P|53:173|111:180,1,90,6|0,1:2|0:0,0:0:0:0:
150,381,108905,2,0,P|111:355|93:294,1,90,10|0,0:0|0:0,0:0:0:0:
277,277,109205,1,2,1:2:0:0:
75,246,109355,1,0,1:0:0:0:
296,185,109505,1,10,0:0:0:0:
457,383,109655,6,0,B|445:308|445:308|454:280|454:280|437:192,1,180,6|0,1:2|1:0,0:0:0:0:
334,3,110105,2,0,L|315:104,1,90,10|0,0:0|0:0,0:0:0:0:
113,177,110405,1,2,1:2:0:0:
278,106,110555,1,0,1:0:0:0:
95,90,110705,2,0,L|70:-3,1,90,10|0,0:0|0:0,0:0:0:0:
52,333,111005,6,0,P|128:324|240:395,1,180,6|10,1:2|0:0,0:0:0:0:
453,209,111455,2,0,P|407:210|356:241,1,90,2|0,1:2|0:0,0:0:0:0:
444,339,111755,1,2,1:2:0:0:
459,169,111905,1,8,0:0:0:0:
229,206,112055,6,0,P|199:136|233:13,1,180,6|0,1:2|1:0,0:0:0:0:
321,11,112505,1,8,0:0:0:0:
115,71,112655,5,2,0:0:0:0:
405,108,112805,1,2,1:2:0:0:
216,36,112955,1,2,1:2:0:0:
257,236,113105,1,10,0:0:0:0:
405,108,113255,1,2,0:0:0:0:
183,299,113405,6,0,P|163:261|165:205,1,90,6|0,1:2|0:0,0:0:0:0:
116,365,113705,1,10,0:0:0:0:
257,236,113855,2,0,P|284:198|324:180,1,90,2|0,0:0|1:0,0:0:0:0:
275,334,114155,1,0,1:0:0:0:
84,131,114305,2,0,L|1:50,1,90,8|0,0:0|0:0,0:0:0:0:
349,97,114605,6,0,P|346:137|305:194,1,90,6|0,1:2|0:0,0:0:0:0:
444,83,114905,1,10,0:0:0:0:
252,110,115055,2,0,P|222:135|146:140,1,90,2|0,1:2|0:0,0:0:0:0:
56,0,115355,1,0,1:0:0:0:
113,213,115505,2,0,L|95:308,1,90,10|0,0:0|0:0,0:0:0:0:
443,348,115805,6,0,P|495:330|425:302,1,180,6|10,1:2|0:0,0:0:0:0:
233,242,116255,2,0,L|360:279,1,90,2|0,1:2|1:0,0:0:0:0:
505,94,116555,2,0,L|402:117,1,90,0|8,1:0|0:0,0:0:0:0:
123,39,116855,6,0,B|136:115|136:115|124:140|124:140|136:217,1,180,4|0,1:2|1:0,0:0:0:0:
225,53,117305,1,10,0:0:0:0:
30,151,117455,1,0,1:0:0:0:
214,268,117605,5,4,3:0:0:0:
233,242,117705,2,0,L|297:229,1,60,4|4,3:0|3:0,1:0:0:0:
459,250,117905,1,4,3:0:0:0:
441,277,118005,2,0,L|378:264,1,60,4|4,3:0|3:0,0:0:0:0:
346,99,118205,1,4,1:2:0:0:
346,99,118505,5,2,0:0:0:0:
276,41,118655,2,0,P|328:10|407:29,1,125.999996154785,2|0,0:0|0:0,0:0:0:0:
439,103,119105,1,10,0:0:0:0:
155,45,119255,6,0,B|108:54|67:29|67:29|98:74|101:120|85:158|85:158|75:158|75:158|82:165|82:165|57:222|92:274,1,360,6|0,1:2|1:0,0:0:0:0:
258,194,120005,2,0,P|216:215|154:204,1,90,2|0,3:2|3:0,0:0:0:0:
197,124,120305,1,2,3:2:0:0:
495,321,120605,6,0,B|374:309|374:309|314:352,1,180,6|2,1:2|3:2,0:0:0:0:
303,257,121055,1,2,3:2:0:0:
420,357,121205,1,0,3:0:0:0:
461,178,121355,1,0,3:0:0:0:
326,343,121505,1,10,3:2:0:0:
512,245,121655,1,0,3:0:0:0:
216,268,121805,6,0,P|247:189|333:178,1,180,6|8,3:2|3:2,0:0:0:0:
326,343,122255,1,2,3:2:0:0:
222,64,122405,1,2,3:2:0:0:
512,115,122555,1,0,3:0:0:0:
166,315,122705,1,10,3:2:0:0:
129,307,122780,1,0,3:0:0:0:
90,298,122855,2,0,L|8:281,1,45,0|0,3:0|3:0,0:0:0:0:
295,40,123005,6,0,B|365:32|365:32|382:18|382:18|482:9,1,161.999995056153,6|0,1:2|0:0,0:0:0:0:
511,73,123305,2,0,P|472:50|449:-4,1,90,10|0,0:0|0:0,0:0:0:0:
222,64,123605,1,2,1:2:0:0:
449,146,123755,1,0,1:0:0:0:
260,287,123905,1,10,0:0:0:0:
222,64,124055,6,0,L|120:45,1,90,2|0,1:2|0:0,0:0:0:0:
0,322,124355,2,0,L|104:302,1,90,2|8,1:2|0:0,0:0:0:0:
460,313,124655,2,0,P|365:322|305:257,1,180,2|0,1:2|1:0,0:0:0:0:
133,47,125105,2,0,P|89:58|54:98,1,90,10|0,0:0|0:0,0:0:0:0:
405,227,125405,6,0,B|397:159|397:159|381:141|381:141|370:50,1,161.999995056153,6|0,1:2|0:0,0:0:0:0:
457,90,125705,2,0,P|413:91|366:66,1,90,10|0,0:0|0:0,0:0:0:0:
271,167,126005,1,2,1:2:0:0:
432,0,126155,1,0,1:0:0:0:
272,66,126305,1,10,0:0:0:0:
500,202,126455,6,0,L|481:302,1,90,6|0,1:2|0:0,0:0:0:0:
175,315,126755,2,0,L|272:305,1,90,2|8,1:2|0:0,0:0:0:0:
124,14,127055,2,0,L|149:141,1,90,2|0,1:2|1:0,0:0:0:0:
205,223,127355,5,0,1:0:0:0:
247,208,127430,1,0,1:0:0:0:
290,218,127505,1,10,0:3:0:0:
332,202,127580,1,2,0:0:0:0:
311,162,127655,1,2,3:2:0:0:
286,124,127730,1,2,0:0:0:0:
303,82,127805,5,6,1:2:0:0:
439,197,127955,1,0,1:0:0:0:
118,175,128105,1,0,1:0:0:0:
512,277,128255,5,4,1:2:0:0:
491,0,128405,1,0,1:0:0:0:
403,326,128555,1,0,1:0:0:0:
375,103,128705,5,4,1:2:0:0:
82,187,128855,1,0,1:0:0:0:
474,267,129005,1,0,1:0:0:0:
443,39,129155,5,4,1:2:0:0:
257,361,129305,1,0,1:0:0:0:
59,33,129455,1,0,1:0:0:0:
375,103,129605,6,0,L|437:124,1,53.9999983520508,2|0,1:2|0:0,0:0:0:0:
252,201,129755,2,0,L|183:177,1,53.9999983520508,2|0,1:2|0:0,0:0:0:0:
422,81,129905,2,0,L|489:104,1,53.9999983520508,2|0,1:2|0:0,0:0:0:0:
205,223,130055,2,0,L|139:200,1,53.9999983520508,2|0,1:2|0:0,0:0:0:0:
286,113,130205,5,6,1:2:0:0:
403,326,130355,1,0,1:0:0:0:
512,29,130505,1,8,0:0:0:0:
252,201,130655,2,0,P|199:155|223:38,1,180,2|0,1:2|3:0,0:0:0:0:
358,193,131105,2,0,P|356:241|309:291,1,90,10|0,0:0|3:0,0:0:0:0:
82,244,131405,5,6,1:2:0:0:
286,113,131555,1,0,1:0:0:0:
436,273,131705,1,8,0:0:0:0:
110,145,131855,1,0,3:0:0:0:
105,128,131930,1,0,3:0:0:0:
98,109,132005,5,2,3:2:0:0:
126,113,132080,1,0,3:0:0:0:
156,106,132155,1,0,3:0:0:0:
186,84,132230,1,0,3:0:0:0:
198,47,132305,5,2,3:0:0:0:
229,10,132380,1,2,3:0:0:0:
282,0,132455,1,2,3:0:0:0:
341,10,132530,1,2,3:0:0:0:
385,66,132605,6,0,P|378:176|294:223,1,215.999993408203,6|8,1:2|0:0,0:0:0:0:
286,113,133055,1,0,0:0:0:0:
415,356,133205,2,0,L|302:336,1,107.999996704102,2|0,1:2|1:0,0:0:0:0:
27,384,133505,1,8,0:0:0:0:
209,294,133655,1,0,0:0:0:0:
29,91,133805,6,0,P|33:42|100:110,1,215.999993408203,2|8,1:2|0:0,0:0:0:0:
28,230,134255,1,0,0:0:0:0:
220,42,134405,2,0,P|269:15|326:25,1,107.999996704102,2|0,1:2|1:0,0:0:0:0:
455,199,134705,1,8,0:0:0:0:
286,113,134855,1,0,0:0:0:0:
290,379,135005,6,0,P|354:317|266:325,1,215.999993408203,6|8,1:2|0:0,0:0:0:0:
146,296,135455,1,0,0:0:0:0:
397,326,135605,2,0,L|378:207,1,107.999996704102,2|0,1:2|1:0,0:0:0:0:
200,72,135905,1,8,0:0:0:0:
159,255,136055,1,0,0:0:0:0:
408,121,136205,6,0,P|454:149|481:207,1,107.999996704102,2|0,1:2|0:0,0:0:0:0:
182,164,136505,1,8,0:0:0:0:
379,219,136655,1,0,1:0:0:0:
230,345,136805,5,10,0:0:0:0:
200,72,136955,1,0,1:0:0:0:
147,296,137105,5,10,0:0:0:0:
342,49,137255,1,0,1:0:0:0:
495,352,137405,6,0,P|406:367|302:277,1,215.999993408203,6|8,1:2|0:0,0:0:0:0:
426,236,137855,1,0,0:0:0:0:
144,384,138005,2,0,L|49:326,1,107.999996704102,2|0,1:2|1:0,0:0:0:0:
262,132,138305,1,8,0:0:0:0:
309,295,138455,1,0,0:0:0:0:
26,213,138605,6,0,B|110:176|110:176|142:184|142:184|243:142,1,215.999993408203,2|8,1:2|0:0,0:0:0:0:
392,217,139055,1,0,0:0:0:0:
130,73,139205,2,0,L|16:119,1,107.999996704102,2|0,1:2|1:0,0:0:0:0:
230,249,139505,1,8,0:0:0:0:
338,95,139655,1,0,0:0:0:0:
460,372,139805,6,0,P|391:319|483:313,1,215.999993408203,6|8,1:2|0:0,0:0:0:0:
315,377,140255,1,0,1:0:0:0:
282,168,140405,1,8,0:0:0:0:
5,339,140555,1,0,1:0:0:0:
357,305,140705,5,10,0:0:0:0:
123,10,140855,2,0,B|105:95|105:95|115:133|115:133|92:223,1,215.999993408203,10|10,0:0|0:0,0:0:0:0:
269,302,141305,1,8,0:0:0:0:
5,339,141455,5,2,1:2:0:0:
115,132,141605,1,10,0:0:0:0:
178,316,141755,1,2,1:2:0:0:
311,166,141905,1,10,0:0:0:0:
149,224,142055,1,2,1:2:0:0:
452,273,142205,6,0,B|491:128|491:128|461:46,1,215.999993408203,6|8,1:2|0:0,0:0:0:0:
193,66,142655,1,2,1:2:0:0:
374,224,142805,2,0,L|341:343,1,107.999996704102,2|0,1:2|0:0,0:0:0:0:
110,366,143105,1,8,0:0:0:0:
89,56,143255,6,0,P|143:49|205:74,1,107.999996704102,2|0,1:2|0:0,0:0:0:0:
179,253,143555,2,0,P|145:209|136:143,1,107.999996704102,2|8,1:2|0:0,0:0:0:0:
301,81,143855,2,0,P|253:156|123:149,1,215.999993408203,2|0,0:0|1:0,0:0:0:0:
270,0,144305,1,8,0:0:0:0:
471,36,144455,1,0,0:0:0:0:
340,191,144605,6,0,L|380:308,1,107.999996704102,2|0,1:2|0:0,0:0:0:0:
406,112,144905,1,10,0:0:0:0:
259,284,145055,2,0,L|127:262,1,107.999996704102,2|0,0:0|0:0,0:0:0:0:
3,99,145355,2,0,L|141:82,1,107.999996704102,2|8,1:2|0:0,0:0:0:0:
510,127,145655,6,0,B|418:135|418:135|392:154|392:154|278:167,1,215.999993408203,6|0,1:2|1:0,0:0:0:0:
110,85,146105,1,8,0:0:0:0:
325,0,146255,1,0,1:0:0:0:
349,313,146405,2,0,P|384:301|321:269,1,161.999995056153,6|0,1:2|0:0,0:0:0:0:
278,362,146705,2,0,P|333:343|436:390,1,161.999995056153,10|0,0:0|0:0,0:0:0:0:
512,214,147005,6,0,L|386:232,1,107.999996704102,6|0,1:2|0:0,0:0:0:0:
250,26,147305,1,10,0:0:0:0:
153,245,147455,2,0,B|314:270|314:270|250:284,1,215.999993408203,2|0,1:2|1:0,0:0:0:0:
60,315,147905,2,0,L|42:193,1,107.999996704102,10|0,0:0|0:0,0:0:0:0:
422,49,148205,6,0,P|427:100|395:167,1,107.999996704102,6|0,1:2|0:0,0:0:0:0:
207,115,148505,1,10,0:0:0:0:
507,259,148655,2,0,P|409:297|311:259,1,215.999993408203,2|0,1:2|1:0,0:0:0:0:
117,35,149105,2,0,L|90:159,1,107.999996704102,10|0,0:0|0:0,0:0:0:0:
0,318,149405,5,6,1:2:0:0:
207,115,149555,1,0,1:0:0:0:
0,197,149705,1,8,0:0:0:0:
344,341,149855,5,2,1:2:0:0:
415,26,150005,1,8,0:0:0:0:
438,310,150155,5,2,1:2:0:0:
234,0,150305,1,10,0:0:0:0:
0,318,150455,2,0,P|73:347|39:258,1,215.999993408203,10|0,0:0|0:0,0:0:0:0:
171,369,150905,1,0,1:0:0:0:
128,141,151055,1,0,1:0:0:0:
266,275,151205,6,0,P|312:286|340:223,1,108,2|0,0:0|0:0,0:0:0:0:
452,178,151505,2,0,P|475:178|487:195,1,40.4999987640381,2|0,0:0|0:0,0:0:0:0:
273,189,151805,6,0,P|257:133|357:11,1,215.999993408203,6|8,1:2|0:0,0:0:0:0:
380,130,152255,1,0,0:0:0:0:
143,21,152405,2,0,L|24:46,1,107.999996704102,2|0,1:2|1:0,0:0:0:0:
0,282,152705,1,8,0:0:0:0:
111,128,152855,1,0,0:0:0:0:
266,340,153005,6,0,B|357:352|357:352|382:373|382:373|496:386,1,215.999993408203,2|8,1:2|0:0,0:0:0:0:
450,255,153455,1,0,0:0:0:0:
183,277,153605,2,0,P|162:326|170:379,1,107.999996704102,2|0,1:2|1:0,0:0:0:0:
364,201,153905,1,8,0:0:0:0:
132,174,154055,1,0,0:0:0:0:
452,151,154205,6,0,P|450:254|359:301,1,215.999993408203,6|8,1:2|0:0,0:0:0:0:
256,191,154655,1,0,0:0:0:0:
379,23,154805,2,0,L|524:46,1,107.999996704102,2|0,1:2|1:0,0:0:0:0:
502,266,155105,1,8,0:0:0:0:
320,107,155255,1,0,0:0:0:0:
162,320,155405,6,0,L|55:336,1,107.999996704102,2|0,1:2|0:0,0:0:0:0:
8,111,155705,1,8,0:0:0:0:
89,232,155855,1,0,1:0:0:0:
233,40,156005,5,10,0:0:0:0:
9,195,156155,1,0,1:0:0:0:
326,257,156305,5,10,0:0:0:0:
87,79,156455,1,0,1:0:0:0:
457,39,156605,6,0,B|444:127|444:127|460:163|460:163|441:291,1,215.999993408203,6|8,1:2|0:0,0:0:0:0:
364,151,157055,1,0,0:0:0:0:
148,341,157205,2,0,P|96:337|28:277,1,107.999996704102,2|0,1:2|1:0,0:0:0:0:
68,75,157505,1,8,0:0:0:0:
130,238,157655,1,0,0:0:0:0:
390,77,157805,6,0,P|437:87|357:135,1,215.999993408203,2|8,1:2|0:0,0:0:0:0:
415,0,158255,1,0,0:0:0:0:
455,205,158405,2,0,L|480:332,1,107.999996704102,2|0,1:2|1:0,0:0:0:0:
255,179,158705,1,8,0:0:0:0:
497,130,158855,1,0,0:0:0:0:
203,100,159005,6,0,P|171:136|170:215,1,107.999996704102,6|0,0:2|1:0,0:0:0:0:
338,341,159305,1,8,0:0:0:0:
255,179,159455,1,0,1:0:0:0:
30,366,159605,1,10,0:0:0:0:
97,109,159755,1,0,1:0:0:0:
439,203,159905,5,10,0:0:0:0:
0,257,160055,2,0,P|99:274|142:376,1,215.999993408203,10|0,0:0|0:0,0:0:0:0:
302,218,160505,1,8,0:0:0:0:
107,238,160655,5,2,1:2:0:0:
367,314,160805,1,10,0:0:0:0:
162,150,160955,1,2,1:2:0:0:
207,274,161105,1,10,0:0:0:0:
252,150,161255,1,2,1:2:0:0:
512,323,161405,6,0,B|421:331|421:331|397:354|397:354|294:364,1,215.999993408203,6|8,0:2|0:0,0:0:0:0:
207,274,161855,1,2,1:2:0:0:
406,186,162005,2,0,L|441:310,1,107.999996704102,2|0,1:2|0:0,0:0:0:0:
512,136,162305,1,8,0:0:0:0:
305,228,162455,6,0,P|250:209|214:165,1,107.999996704102,2|0,1:2|0:0,0:0:0:0:
319,16,162755,2,0,P|330:73|309:126,1,107.999996704102,2|8,1:2|0:0,0:0:0:0:
131,103,163055,2,0,P|227:63|315:119,1,215.999993408203,2|0,0:0|1:0,0:0:0:0:
114,209,163505,1,8,0:0:0:0:
142,0,163655,1,0,0:0:0:0:
314,118,163805,6,0,L|438:61,1,107.999996704102,2|0,1:2|0:0,0:0:0:0:
512,218,164105,1,10,0:0:0:0:
212,254,164255,2,0,L|88:197,1,107.999996704102,2|0,0:0|0:0,0:0:0:0:
412,72,164555,2,0,L|536:15,1,107.999996704102,2|8,1:2|0:0,0:0:0:0:
82,51,164855,6,0,B|62:138|62:138|72:173|72:173|47:286,1,215.999993408203,6|0,0:0|1:0,0:0:0:0:
287,316,165305,1,8,0:0:0:0:
109,343,165455,1,0,1:0:0:0:
302,223,165605,5,12,3:0:0:0:
368,271,165705,1,4,3:0:0:0:
449,261,165805,1,4,3:0:0:0:
498,194,165905,2,0,B|475:102|475:102|493:46,1,143.999995605469,12|4,3:0|3:0,0:0:0:0:
322,33,166205,22,0,B|256:48|257:13|176:34,1,135,6|0,1:2|0:0,0:0:0:0:
122,66,166505,1,2,0:0:0:0:
306,283,166655,22,0,L|290:139,1,135,0|0,1:2|0:0,0:0:0:0:
363,172,166955,2,0,B|344:212|344:212|370:250,1,90,2|0,0:0|1:0,0:0:0:0:
37,173,167255,2,0,B|71:142|75:88|75:88|105:81|129:110|129:110|114:128|80:135,1,180,2|0,1:2|3:0,0:0:0:0:
131,212,167705,2,0,P|108:189|96:108,1,90,2|0,0:0|0:0,0:0:0:0:
390,135,168005,2,0,P|400:179|460:185,1,90,2|0,0:0|0:0,0:0:0:0:
497,145,168305,2,0,P|487:103|447:87,1,90,2|0,0:0|0:0,0:0:0:0:
232,82,168605,2,0,B|201:36|258:7|298:52|263:89|263:89|187:146|203:295|203:295|197:230|223:183,1,472.500018024445,6|0,1:2|3:0,0:0:0:0:
345,263,169805,1,0,3:0:0:0:
303,190,169955,1,0,3:0:0:0:
113,283,170105,5,2,3:2:0:0:
69,292,170180,1,0,3:0:0:0:
28,272,170255,1,0,3:0:0:0:
15,228,170330,1,0,3:0:0:0:
33,186,170405,2,0,L|23:137,3,45,2|0|0|0,3:2|3:0|3:0|3:0,0:0:0:0:
116,10,170705,1,2,3:2:0:0:
160,15,170780,1,0,3:0:0:0:
204,22,170855,2,0,L|279:36,1,45,2|0,3:2|3:0,0:0:0:0:
343,273,171005,6,0,B|416:262|416:262|441:240|441:240|525:226,1,180,4|8,1:2|0:0,0:0:0:0:
336,49,171455,2,0,L|233:26,1,90,0|0,1:0|1:0,0:0:0:0:
163,123,171755,1,0,1:0:0:0:
412,11,171905,1,8,0:0:0:0:
343,273,172055,6,0,P|282:309|311:241,1,180,4|0,1:2|0:0,0:0:0:0:
491,379,172505,1,8,0:0:0:0:
293,355,172655,1,0,0:0:0:0:
412,202,172805,2,0,L|376:99,1,90,0|0,1:0|1:0,0:0:0:0:
171,273,173105,2,0,L|141:357,1,90,8|0,0:0|0:0,0:0:0:0:
29,50,173405,6,0,P|112:40|207:103,1,180,4|8,1:2|0:0,0:0:0:0:
131,134,173855,6,0,P|103:117|69:117,1,67.5,0|0,1:0|0:0,0:0:0:0:
84,190,174155,5,0,1:0:0:0:
256,31,174305,1,8,0:0:0:0:
320,266,174455,2,0,P|403:275|498:213,1,180,4|0,1:2|1:0,0:0:0:0:
242,194,174905,2,0,P|216:250|220:303,1,90,8|0,0:0|0:0,0:0:0:0:
131,134,175205,5,0,1:0:0:0:
372,117,175355,1,8,0:0:0:0:
272,359,175505,1,8,0:0:0:0:
238,69,175655,1,0,3:0:0:0:
209,34,175730,1,0,3:0:0:0:
167,16,175805,6,0,P|109:12|18:88,1,180,4|8,0:0|0:0,0:0:0:0:
128,300,176255,2,0,L|243:269,1,90,0|0,1:0|1:0,0:0:0:0:
376,199,176555,1,0,1:0:0:0:
131,134,176705,1,8,0:0:0:0:
350,331,176855,6,0,L|377:190,1,135,4|0,1:2|0:0,0:0:0:0:
449,139,177155,2,0,L|464:245,1,90,0|8,1:0|0:0,0:0:0:0:
98,49,177455,2,0,P|142:43|195:67,1,90,0|0,0:0|1:0,0:0:0:0:
367,115,177755,2,0,P|324:127|280:122,1,90,0|8,1:0|0:0,0:0:0:0:
317,27,178055,1,0,0:0:0:0:
466,263,178205,5,4,1:2:0:0:
208,277,178355,1,0,0:0:0:0:
444,384,178505,1,8,0:0:0:0:
195,147,178655,2,0,L|182:53,1,90,4|0,1:2|0:0,0:0:0:0:
304,203,178955,5,0,1:0:0:0:
42,233,179105,1,8,0:0:0:0:
317,27,179255,2,0,L|407:41,1,90,4|0,1:2|0:0,0:0:0:0:
340,311,179555,5,0,1:0:0:0:
221,15,179705,1,0,1:0:0:0:
134,371,179855,2,0,B|45:354,1,90,4|0,1:2|0:0,0:0:0:0:
327,143,180155,6,0,L|332:203,1,45,0|0,1:0|0:0,0:0:0:0:
258,284,180305,1,10,0:0:0:0:
297,310,180380,1,2,0:0:0:0:
340,311,180455,1,2,0:0:0:0:
383,301,180530,1,2,0:0:0:0:
414,269,180605,6,0,P|448:237|505:232,1,90,4|0,1:2|0:0,0:0:0:0:
469,55,180905,1,8,0:0:0:0:
174,87,181055,2,0,P|135:80|91:42,1,90,0|0,1:0|0:0,0:0:0:0:
296,0,181355,1,0,1:0:0:0:
332,221,181505,1,8,0:0:0:0:
60,145,181655,6,0,P|5:128|47:192,1,180,4|0,1:2|1:0,0:0:0:0:
322,83,182105,2,0,P|315:39|295:0,1,90,8|0,0:0|0:0,0:0:0:0:
162,214,182405,1,0,1:0:0:0:
448,147,182555,1,0,1:0:0:0:
272,159,182705,6,0,L|191:129,1,67.5,8|0,0:0|0:0,0:0:0:0:
162,214,183005,6,0,B|220:289|220:289|204:341,1,135,4|0,1:2|0:0,0:0:0:0:
101,346,183305,1,8,0:0:0:0:
322,323,183455,2,0,P|374:285|450:291,1,135,0|0,1:0|0:0,0:0:0:0:
475,203,183755,2,0,L|439:293,1,90,0|8,1:0|0:0,0:0:0:0:
61,252,184055,6,0,B|47:179|47:179|27:155|27:155|8:67,1,180,4|0,1:2|1:0,0:0:0:0:
191,0,184505,1,8,0:0:0:0:
512,118,184655,2,0,P|457:111|391:161,1,135,4|0,1:2|0:0,0:0:0:0:
269,208,184955,5,0,3:0:0:0:
273,163,185030,1,0,3:0:0:0:
276,118,185105,2,0,L|280:58,1,45,2|0,3:0|3:0,0:0:0:0:
475,203,185255,2,0,L|481:259,1,45,2|0,3:0|3:0,0:0:0:0:
360,320,185405,5,4,1:2:0:0:
126,176,185555,1,0,1:0:0:0:
394,154,185705,1,8,0:0:0:0:
140,276,185855,6,0,P|69:258|31:150,1,180,4|0,1:2|1:0,0:0:0:0:
106,17,186305,1,8,0:0:0:0:
394,154,186455,2,0,P|447:117|371:115,1,180,4|0,1:2|3:0,0:0:0:0:
262,384,186905,5,8,0:0:0:0:
267,339,186980,1,0,3:0:0:0:
272,294,187055,1,0,3:0:0:0:
277,249,187130,1,0,3:0:0:0:
282,204,187205,1,0,1:0:0:0:
284,190,187355,5,4,1:2:0:0:
132,243,187505,1,0,0:0:0:0:
409,334,187655,1,0,0:0:0:0:
66,356,187805,6,0,P|20:304|27:172,1,180,4|8,1:2|0:0,0:0:0:0:
170,36,188255,1,0,1:0:0:0:
132,243,188405,1,8,0:0:0:0:
0,24,188555,1,0,1:0:0:0:
205,186,188705,1,8,0:0:0:0:
459,57,188855,6,0,P|519:90|443:89,1,180,4|0,1:2|1:0,0:0:0:0:
188,112,189305,1,10,0:0:0:0:
432,206,189455,1,0,1:0:0:0:
205,186,189605,1,2,0:0:0:0:
459,57,189755,1,0,1:0:0:0:
328,249,189905,1,2,1:2:0:0:
288,27,190055,1,2,0:0:0:0:
215,321,190205,6,0,L|94:307,1,90,4|0,1:2|0:0,0:0:0:0:
23,89,190505,2,0,P|66:71|132:85,1,90,10|0,0:0|0:0,0:0:0:0:
288,253,190805,1,2,1:2:0:0:
78,164,190955,1,0,1:0:0:0:
266,180,191105,1,8,0:0:0:0:
21,315,191255,6,0,P|55:373|66:296,1,180,6|0,1:2|0:0,0:0:0:0:
288,253,191705,2,0,P|330:275|378:274,1,90,10|0,0:0|0:0,0:0:0:0:
336,68,192005,1,2,1:2:0:0:
191,201,192155,1,0,1:0:0:0:
424,167,192305,2,0,L|515:147,1,90,10|0,0:0|0:0,0:0:0:0:
244,37,192605,6,0,B|169:19|169:19|144:29|144:29|71:12,1,180,6|8,1:2|0:0,0:0:0:0:
75,134,193055,1,0,0:0:0:0:
336,68,193205,1,2,1:2:0:0:
140,63,193355,1,0,1:0:0:0:
392,199,193505,1,10,0:0:0:0:
94,301,193655,6,0,P|58:231|78:130,1,180,6|0,1:2|1:0,0:0:0:0:
283,216,194105,2,0,P|279:265|248:313,1,90,10|0,0:0|0:0,0:0:0:0:
419,319,194405,1,2,1:2:0:0:
177,231,194555,1,0,1:0:0:0:
425,190,194705,2,0,L|551:166,1,90,10|0,0:0|0:0,0:0:0:0:
164,57,195005,6,0,P|122:43|51:59,1,90,6|0,1:2|0:0,0:0:0:0:
293,124,195305,2,0,P|307:88|307:31,1,90,10|0,0:0|0:0,0:0:0:0:
172,181,195605,1,2,1:2:0:0:
390,98,195755,1,0,1:0:0:0:
164,57,195905,1,8,0:0:0:0:
368,279,196055,6,0,P|423:286|373:228,1,180,6|0,1:2|1:0,0:0:0:0:
117,342,196505,2,0,P|66:336|20:303,1,90,10|0,0:0|1:0,0:0:0:0:
125,166,196805,1,2,1:2:0:0:
199,377,196955,1,0,1:0:0:0:
252,132,197105,2,0,L|355:105,1,90,10|0,0:0|0:0,0:0:0:0:
512,321,197405,6,0,B|437:309|437:309|411:322|411:322|324:309,1,180,6|8,1:2|0:0,0:0:0:0:
199,377,197855,1,0,0:0:0:0:
387,217,198005,2,0,L|370:128,1,90,2|0,1:2|1:0,0:0:0:0:
512,26,198305,1,10,0:0:0:0:
230,99,198455,6,0,B|140:129|141:62|44:104,1,180,6|0,1:2|1:0,0:0:0:0:
188,0,198905,1,8,0:0:0:0:
99,200,199055,1,0,1:0:0:0:
414,199,199205,2,0,L|434:314,1,90,2|0,1:2|1:0,0:0:0:0:
84,289,199505,2,0,L|99:200,1,90,10|0,0:0|0:0,0:0:0:0:
412,43,199805,6,0,B|423:114|423:114|442:138|442:138|457:232,1,180,6|10,1:2|0:0,0:0:0:0:
219,369,200255,2,0,P|141:366|84:261,1,180,2|0,1:2|0:0,0:0:0:0:
254,239,200705,2,0,P|220:272|164:283,1,90,10|0,0:0|0:0,0:0:0:0:
0,119,201005,6,0,P|88:117|179:189,1,180,6|10,1:2|0:0,0:0:0:0:
437,89,201455,2,0,P|362:137|274:135,1,180,2|0,1:2|1:0,0:0:0:0:
377,38,201905,2,0,P|338:63|288:56,1,90,8|0,0:0|0:0,0:0:0:0:
512,168,202205,6,0,B|497:294|497:294|453:345,1,180,6|8,1:2|0:0,0:0:0:0:
237,370,202655,1,0,1:0:0:0:
398,216,202805,2,0,B|376:32,1,180,2|10,1:2|0:0,0:0:0:0:
55,146,203255,6,0,P|58:213|107:155,1,180,6|0,1:2|1:0,0:0:0:0:
0,301,203705,1,8,0:0:0:0:
249,259,203855,1,0,3:0:0:0:
58,0,204005,5,6,1:2:0:0:
142,384,204305,5,6,1:2:0:0:
350,144,204605,5,6,1:2:0:0:
249,259,204755,1,2,1:2:0:0:
505,189,204905,1,2,1:2:0:0:
201,104,205055,2,0,L|87:73,1,90,10|0,0:0|0:0,0:0:0:0:
249,259,205355,1,2,3:2:0:0:
319,9,205505,1,0,1:0:0:0:
409,316,205655,6,0,P|459:348|437:275,1,180,6|0,1:2|1:0,0:0:0:0:
219,358,206105,1,2,1:2:0:0:
489,384,206255,1,0,1:0:0:0:
379,179,206405,1,10,0:0:0:0:
350,144,206480,1,8,0:0:0:0:
308,125,206555,1,8,0:0:0:0:
263,123,206630,1,8,0:0:0:0:
220,138,206705,2,0,P|187:169|170:228,1,90,2|0,1:2|1:0,0:0:0:0:
505,292,207005,5,2,1:2:0:0:
285,237,207155,1,0,1:0:0:0:
198,3,207305,1,8,0:0:0:0:
379,179,207455,1,0,1:0:0:0:
196,378,207605,1,8,0:0:0:0:
284,138,207755,1,0,1:0:0:0:
375,288,207905,5,10,0:0:0:0:
17,348,208055,2,0,P|104:347|159:257,1,180,10|0,0:0|0:0,0:0:0:0:
284,138,208505,1,8,0:0:0:0:
375,288,208655,1,8,0:0:0:0:
62,258,208805,5,2,0:0:0:0:
39,203,208880,1,2,0:0:0:0:
65,135,208955,1,2,0:0:0:0:
145,112,209030,1,2,0:0:0:0:
216,168,209105,1,2,1:2:0:0:
317,157,209180,1,2,0:0:0:0:
371,61,209255,2,0,L|386:-12,1,60,8|2,0:0|0:0,0:0:0:0:
364,35,212405,6,0,L|437:35,1,67.5,2|0,0:0|0:0,0:0:0:0:
333,66,212705,2,0,P|339:33|335:0,1,67.5,2|0,1:2|0:0,0:0:0:0:
256,33,213005,1,14,0:0:0:0:
256,353,213155,1,10,0:0:0:0:
256,353,213605,6,0,L|185:352,1,67.5,2|0,0:0|0:0,0:0:0:0:
97,351,213905,1,0,1:0:0:0:
248,237,214055,6,0,P|310:208|381:242,1,144,4|0,1:2|1:0,0:0:0:0:
312,296,214505,1,0,1:0:0:0:
188,80,214655,2,0,P|131:120|126:189,1,144,4|0,1:2|1:0,0:0:0:0:
141,217,215030,1,0,1:0:0:0:
164,235,215105,1,8,0:0:0:0:
414,127,215405,5,14,1:2:0:0:
245,134,215555,1,0,3:0:0:0:
315,83,215705,1,8,1:2:0:0:
427,225,215855,1,0,3:0:0:0:
414,127,216005,1,8,3:2:0:0:
163,195,216155,1,0,3:0:0:0:
315,83,216305,1,8,1:2:0:0:
444,366,216455,1,0,3:0:0:0:
398,21,216605,5,8,1:2:0:0:
305,256,216755,1,8,3:2:0:0:
315,83,216905,1,8,1:2:0:0:
444,366,217055,1,8,3:2:0:0:
132,310,217205,6,0,L|79:318,1,45,10|0,3:2|3:0,0:0:0:0:
188,154,217355,2,0,L|241:146,1,45,0|0,3:0|3:0,0:0:0:0:
113,346,217505,2,0,L|60:354,1,45,10|0,3:2|3:0,0:0:0:0:
0,37,217655,2,0,L|53:29,1,45,8|0,3:2|3:0,0:0:0:0:
355,356,217805,6,0,P|304:304|404:302,1,215.999993408203,6|8,1:2|0:0,0:0:0:0:
209,353,218255,1,0,0:0:0:0:
230,104,218405,2,0,L|350:125,1,107.999996704102,2|0,1:2|1:0,0:0:0:0:
503,296,218705,1,8,0:0:0:0:
456,148,218855,1,0,0:0:0:0:
141,189,219005,6,0,B|-20:219|-20:219|37:183,1,215.999993408203,2|8,1:2|0:0,0:0:0:0:
113,58,219455,1,0,0:0:0:0:
267,251,219605,2,0,P|267:304|225:368,1,107.999996704102,2|0,1:2|1:0,0:0:0:0:
24,191,219905,1,8,0:0:0:0:
158,275,220055,1,0,0:0:0:0:
362,41,220205,6,0,P|417:60|334:114,1,215.999993408203,6|8,1:2|0:0,0:0:0:0:
483,0,220655,1,0,1:0:0:0:
512,220,220805,1,8,0:0:0:0:
189,96,220955,1,0,1:0:0:0:
501,136,221105,5,10,0:0:0:0:
207,375,221255,2,0,B|120:353|120:353|89:367|89:367|-1:346,1,215.999993408203,10|0,0:0|0:0,0:0:0:0:
89,93,221705,1,8,0:0:0:0:
191,261,221855,5,2,1:2:0:0:
410,69,222005,1,10,0:0:0:0:
185,165,222155,1,2,1:2:0:0:
329,139,222305,1,10,0:0:0:0:
119,116,222455,1,2,1:2:0:0:
391,337,222605,6,0,P|487:353|424:293,1,215.999993408203,6|8,1:2|0:0,0:0:0:0:
296,330,223055,1,2,1:2:0:0:
471,208,223205,2,0,B|484:92,1,107.999996704102,2|0,1:2|0:0,0:0:0:0:
321,15,223505,1,8,0:0:0:0:
95,232,223655,6,0,P|138:259|215:259,1,107.999996704102,2|0,1:2|0:0,0:0:0:0:
249,90,223955,2,0,P|201:115|171:159,1,107.999996704102,2|8,1:2|0:0,0:0:0:0:
305,285,224255,2,0,P|271:186|171:159,1,215.999993408203,2|0,0:0|1:0,0:0:0:0:
7,322,224705,1,8,0:0:0:0:
194,264,224855,1,0,0:0:0:0:
49,107,225005,6,0,L|73:-3,1,107.999996704102,2|0,1:2|0:2,0:0:0:0:
329,37,225305,1,8,0:0:0:0:
171,159,225455,2,0,L|194:264,1,107.999996704102,2|0,0:0|0:0,0:0:0:0:
512,309,225755,2,0,L|401:294,1,107.999996704102,2|8,1:2|0:0,0:0:0:0:
116,55,226055,6,0,B|208:40|208:40|236:50|236:50|341:35,1,215.999993408203,6|0,0:2|1:0,0:0:0:0:
382,234,226505,1,8,0:0:0:0:
171,159,226655,1,0,1:0:0:0:
454,153,226805,2,0,P|490:215|458:315,1,161.999995056153,6|0,1:2|0:0,0:0:0:0:
349,356,227105,2,0,P|402:318|502:342,1,161.999995056153,10|0,0:0|0:0,0:0:0:0:
382,234,227405,6,0,L|267:218,1,107.999996704102,6|0,1:2|0:0,0:0:0:0:
444,44,227705,1,10,0:0:0:0:
133,76,227855,2,0,B|120:163|120:163|131:201|131:201|114:304,1,215.999993408203,2|0,1:2|1:0,0:0:0:0:
16,109,228305,2,0,P|14:50|39:0,1,107.999996704102,10|0,0:0|0:0,0:0:0:0:
344,117,228605,6,0,L|228:139,1,107.999996704102,6|0,1:2|0:0,0:0:0:0:
383,26,228905,1,10,0:0:0:0:
503,294,229055,2,0,P|410:302|308:224,1,215.999993408203,2|0,1:2|0:0,0:0:0:0:
160,53,229505,2,0,L|283:30,1,107.999996704102,10|0,0:0|0:0,0:0:0:0:
440,165,229805,5,6,1:2:0:0:
261,137,229955,1,0,1:0:0:0:
490,71,230105,1,8,0:0:0:0:
340,365,230255,5,2,1:2:0:0:
232,41,230405,1,8,0:0:0:0:
503,294,230555,5,2,1:2:0:0:
47,268,230705,1,10,0:0:0:0:
364,15,230855,2,0,P|424:48|329:71,1,215.999993408203,10|0,0:0|0:0,0:0:0:0:
105,43,231305,1,0,1:0:0:0:
159,264,231455,1,0,1:0:0:0:
271,150,231605,6,0,P|311:185|375:200,1,108,2|0,0:0|0:0,0:0:0:0:
428,276,231905,2,0,P|411:287|392:293,1,40.4999987640381,2|0,0:0|0:0,0:0:0:0:
493,319,232205,6,0,P|500:305|503:287,1,27,2|0,1:2|0:0,0:0:0:0:
420,121,232505,6,0,B|371:145|371:145|301:140,1,107.999996704102,12|0,0:2|0:0,0:0:0:0:
70,20,232805,2,0,P|125:14|181:46,1,107.999996704102,2|0,1:2|1:0,0:0:0:0:
208,262,233105,1,8,0:0:0:0:
107,107,233255,1,0,0:0:0:0:
407,29,233405,6,0,B|391:114|391:114|400:153|400:153|382:250,1,215.999993408203,2|8,1:2|0:0,0:0:0:0:
494,91,233855,1,0,0:0:0:0:
293,182,234005,2,0,P|251:178|180:118,1,107.999996704102,2|0,1:2|1:0,0:0:0:0:
407,29,234305,1,8,0:0:0:0:
486,215,234455,1,0,0:0:0:0:
202,286,234605,6,0,P|113:277|-1:359,1,215.999993408203,6|8,1:2|0:0,0:0:0:0:
35,198,235055,1,0,0:0:0:0:
283,352,235205,2,0,P|305:301|288:229,1,107.999996704102,2|0,1:2|1:0,0:0:0:0:
65,94,235505,1,8,0:0:0:0:
221,184,235655,1,0,0:0:0:0:
347,8,235805,6,0,B|468:-2,1,107.999996704102,2|0,1:2|0:0,0:0:0:0:
172,83,236105,2,0,B|52:95,1,107.999996704102,8|0,0:0|0:0,0:0:0:0:
299,250,236405,5,10,0:0:0:0:
224,28,236555,1,0,1:0:0:0:
101,348,236705,5,10,0:0:0:0:
336,88,236855,1,8,1:2:0:0:
0,134,237005,6,0,B|87:148|87:148|115:170|115:170|219:186,1,215.999993408203,6|8,1:2|0:0,0:0:0:0:
29,227,237455,1,0,0:0:0:0:
354,311,237605,2,0,L|345:201,1,107.999996704102,2|0,1:2|1:0,0:0:0:0:
62,42,237905,1,8,0:0:0:0:
339,124,238055,1,0,0:0:0:0:
81,283,238205,6,0,P|58:373|134:330,1,215.999993408203,2|8,1:2|0:0,0:0:0:0:
110,199,238655,1,0,0:0:0:0:
387,330,238805,2,0,P|444:327|496:292,1,107.999996704102,2|0,1:2|1:0,0:0:0:0:
446,44,239105,1,8,0:0:0:0:
408,225,239255,1,0,0:0:0:0:
136,115,239405,6,0,L|-9:153,1,107.999996704102,6|0,1:2|0:0,0:0:0:0:
230,308,239705,1,8,0:0:0:0:
169,0,239855,1,0,1:0:0:0:
40,384,240005,1,2,1:2:0:0:
408,225,240155,1,0,1:0:0:0:
2,67,240305,5,10,0:0:0:0:
387,330,240455,2,0,P|474:315|514:201,1,215.999993408203,10|0,0:0|0:0,0:0:0:0:
262,105,240905,1,8,0:0:0:0:
317,275,241055,5,2,1:2:0:0:
381,44,241205,1,10,0:0:0:0:
182,160,241355,1,2,1:2:0:0:
355,140,241505,1,10,0:0:0:0:
138,71,241655,1,2,1:2:0:0:
267,345,241805,6,0,P|226:365|245:267,1,215.999993408203,6|8,1:2|0:0,0:0:0:0:
362,357,242255,1,2,1:2:0:0:
31,383,242405,2,0,L|49:271,1,107.999996704102,2|0,1:2|0:0,0:0:0:0:
83,49,242705,1,8,0:0:0:0:
269,200,242855,6,0,P|323:198|375:161,1,107.999996704102,2|0,1:2|0:0,0:0:0:0:
318,0,243155,2,0,P|292:47|298:111,1,107.999996704102,2|8,1:2|0:0,0:0:0:0:
464,148,243455,2,0,P|393:73|294:99,1,215.999993408203,2|0,0:0|0:0,0:0:0:0:
486,243,243905,1,8,0:0:0:0:
440,47,244055,1,0,0:0:0:0:
178,226,244205,6,0,L|57:195,1,107.999996704102,2|0,1:2|0:0,0:0:0:0:
0,26,244505,1,10,0:0:0:0:
318,0,244655,2,0,L|337:124,1,107.999996704102,2|0,0:0|0:0,0:0:0:0:
502,349,244955,2,0,L|483:225,1,107.999996704102,2|8,1:2|0:0,0:0:0:0:
171,224,245255,6,0,P|181:306|249:242,1,215.999993408203,6|0,0:2|1:0,0:0:0:0:
132,121,245705,1,8,0:0:0:0:
338,263,245855,1,0,1:0:0:0:
60,202,246005,2,0,B|26:90,1,107.999996704102,6|0,1:2|0:0,0:0:0:0:
380,19,246305,2,0,B|348:122,1,107.999996704102,14|0,0:0|0:0,0:0:0:0:
0,351,246605,6,0,B|62:385|62:385|214:347,1,215.999993408203,6|10,1:2|0:0,0:0:0:0:
508,220,247055,2,0,L|400:196,1,107.999996704102,2|0,1:2|0:0,0:0:0:0:
309,5,247355,1,2,1:2:0:0:
308,278,247505,1,8,0:0:0:0:
29,136,247655,6,0,B|192:97|192:97|113:74,1,215.999993408203,2|0,1:2|1:0,0:0:0:0:
47,274,248105,2,0,L|63:396,1,107.999996704102,10|0,0:0|0:0,0:0:0:0:
308,278,248405,1,2,1:2:0:0:
146,193,248555,1,0,1:0:0:0:
393,322,248705,2,0,L|500:304,1,107.999996704102,10|0,0:0|0:0,0:0:0:0:
244,24,249005,6,0,B|231:112|231:112|246:146|246:146|231:243,1,215.999993408203,6|10,1:2|0:0,0:0:0:0:
27,380,249455,2,0,L|48:263,1,107.999996704102,2|0,1:2|0:0,0:0:0:0:
232,234,249755,1,0,1:0:0:0:
0,176,249905,1,8,0:0:0:0:
331,81,250055,6,0,B|491:52|491:52|425:99,1,215.999993408203,4|0,1:2|1:0,0:0:0:0:
244,24,250505,1,8,0:0:0:0:
415,165,250655,5,2,1:2:0:0:
189,261,250805,1,10,0:0:0:0:
331,81,250955,1,2,1:2:0:0:
331,300,251105,1,10,0:0:0:0:
261,172,251255,1,2,1:2:0:0:
490,308,251405,6,0,P|408:300|302:383,1,215.999993408203,6|8,1:2|0:0,0:0:0:0:
182,301,251855,1,2,1:2:0:0:
418,257,252005,2,0,L|446:130,1,107.999996704102,2|0,1:2|0:0,0:0:0:0:
474,0,252305,1,8,0:0:0:0:
281,201,252455,6,0,P|230:203|160:161,1,107.999996704102,2|0,1:2|0:0,0:0:0:0:
216,3,252755,2,0,P|243:46|241:127,1,107.999996704102,2|8,1:2|0:0,0:0:0:0:
79,159,253055,2,0,P|147:81|248:102,1,215.999993408203,2|0,0:0|1:0,0:0:0:0:
107,247,253505,1,8,0:0:0:0:
36,47,253655,1,0,1:0:0:0:
342,130,253805,6,0,L|461:166,1,107.999996704102,2|0,1:2|0:0,0:0:0:0:
512,0,254105,1,10,0:0:0:0:
401,277,254255,2,0,L|424:398,1,107.999996704102,2|0,0:0|0:0,0:0:0:0:
107,247,254555,2,0,L|127:140,1,107.999996704102,2|8,1:2|0:0,0:0:0:0:
512,0,254855,2,0,B|421:9|421:9|392:27|392:27|293:37,1,215.999993408203,6|0,0:2|1:0,0:0:0:0:
6,288,255305,5,4,3:0:0:0:
85,269,255405,1,4,3:0:0:0:
159,305,255505,1,4,3:0:0:0:
177,384,255605,2,0,P|231:345|225:259,1,143.999995605469,12|4,3:0|3:0,0:0:0:0:
258,193,255905,5,12,3:0:0:0:
343,195,256005,1,4,3:0:0:0:
377,270,256105,1,4,3:0:0:0:
324,333,256205,6,0,P|262:323|210:368,1,135,6|0,1:2|0:0,0:0:0:0:
177,384,256505,1,2,0:0:0:0:
258,193,256655,6,0,L|244:48,1,135,2|0,1:2|0:0,0:0:0:0:
317,85,256955,2,0,B|297:124|297:124|322:163,1,90,2|0,1:2|0:0,0:0:0:0:
0,119,257255,2,0,B|34:88|38:34|38:34|68:27|92:56|92:56|77:74|43:81,1,180,2|0,1:2|1:0,0:0:0:0:
94,159,257705,2,0,P|71:136|59:55,1,90,2|0,0:0|0:0,0:0:0:0:
167,245,258005,2,0,L|177:155,1,90,2|0,0:0|0:0,0:0:0:0:
186,37,258305,2,0,P|188:69|205:38,1,90,10|0,0:0|0:0,0:0:0:0:
455,149,258605,2,0,B|535:-7|389:-44|283:12|330:184|527:213,1,472.500018024445,6|8,0:0|3:2,0:0:0:0:
502,234,259730,1,8,3:2:0:0:
509,264,259805,1,4,1:2:0:0:
160,0,260105,5,2,0:0:0:0:
21,91,260255,1,0,3:0:0:0:
175,170,260405,1,2,3:2:0:0:
115,103,260555,5,0,3:0:0:0:
157,84,260630,1,0,3:0:0:0:
210,89,260705,1,2,0:0:0:0:
252,128,260780,1,2,0:0:0:0:
306,174,260855,1,2,0:0:0:0:
382,170,260930,1,2,0:0:0:0:
438,106,261005,6,0,P|441:65|477:12,1,90,6|0,1:2|0:0,0:0:0:0:
502,241,261305,1,8,0:0:0:0:
338,64,261455,1,0,0:0:0:0:
267,319,261605,2,0,L|166:303,1,90,2|0,1:2|1:0,0:0:0:0:
16,136,261905,1,8,0:0:0:0:
95,291,262055,1,0,0:0:0:0:
373,254,262205,6,0,B|505:232|505:232|433:201,1,180,6|8,1:2|0:0,0:0:0:0:
162,136,262655,2,0,L|148:229,1,90,2|0,1:2|0:0,0:0:0:0:
267,319,262955,1,0,1:0:0:0:
54,161,263105,1,10,0:0:0:0:
95,291,263255,1,0,0:0:0:0:
335,103,263405,6,0,P|391:126|319:140,1,180,6|8,1:2|0:0,0:0:0:0:
417,17,263855,1,0,0:0:0:0:
483,260,264005,1,0,1:0:0:0:
178,0,264155,1,0,1:0:0:0:
74,323,264305,5,10,0:0:0:0:
127,286,264380,1,2,0:0:0:0:
190,288,264455,1,2,0:0:0:0:
246,315,264530,1,2,0:0:0:0:
277,368,264605,2,0,P|321:385|387:374,1,90,6|0,1:2|0:0,0:0:0:0:
483,260,264905,5,10,0:0:0:0:
74,323,265055,1,0,1:0:0:0:
506,296,265205,5,10,0:0:0:0:
99,111,265355,1,0,1:0:0:0:
512,338,265505,5,10,0:0:0:0:
280,8,265655,1,2,1:2:0:0:
394,330,265805,6,0,P|336:377|360:314,1,180,6|8,1:2|0:0,0:0:0:0:
512,338,266255,1,0,0:0:0:0:
228,384,266405,1,2,1:2:0:0:
334,148,266555,1,0,1:0:0:0:
497,382,266705,1,8,0:0:0:0:
295,244,266855,1,0,0:0:0:0:
482,213,267005,6,0,L|379:232,1,90,6|0,1:2|0:0,0:0:0:0:
137,177,267305,1,8,0:0:0:0:
385,0,267455,2,0,L|411:115,1,90,2|0,1:2|0:0,0:0:0:0:
236,163,267755,1,0,1:0:0:0:
482,213,267905,1,10,0:0:0:0:
198,256,268055,1,2,0:0:0:0:
14,18,268205,22,0,P|63:14|110:35,1,90,6|0,1:2|0:0,0:0:0:0:
249,338,268505,2,0,P|206:353|162:347,1,90,2|0,1:2|3:0,0:0:0:0:
137,177,268805,1,10,0:0:0:0:
29,237,269105,1,2,1:2:0:0:
372,196,269255,22,0,B|423:166|445:92|426:32|426:32|500:9|563:54|533:127|488:144|440:134|440:134|489:177|490:243,1,540.000020599366,6|0,0:0|0:0,0:0:0:0:
172,64,270605,6,0,B|147:-13|57:-22|-45:29|-24:152|31:207|134:163|93:360,1,506.250019311906,4|0,0:0|0:0,0:0:0:0:
370,266,271805,2,0,B|434:204|536:266|532:324|490:362|446:365|411:318,1,270.000010299683,4|0,0:0|0:0,0:0:0:0:
107,308,272519,2,0,B|125:277|161:190|262:276|304:221|337:164|339:53|240:33|195:50,1,438.750016736985,4|0,0:0|0:0,0:0:0:0:
171,62,273569,22,0,B|133:-32|20:-34|-56:80|-29:162|30:178|95:194|102:231|102:282|98:310|92:350|92:350|106:299|132:236|173:228|228:249|238:240|312:216|346:170|328:82|290:43|219:31|188:54,1,998.99996951294,4|0,0:0|0:0,0:0:0:0:
