osu file format v14

[General]
AudioFilename: audio.mp3
AudioLeadIn: 0
PreviewTime: 212255
Countdown: 0
SampleSet: Soft
StackLeniency: 0.5
Mode: 0
LetterboxInBreaks: 0
WidescreenStoryboard: 1

[Editor]
Bookmarks: 1646,2846,4046,5246,6146,6446,11246,16046,20846,25646,30446,35246,40046,44846,49646,54446,59246,64046,68846,73646,78446,83246,88046,92846,97646,102446,107246,112046,116846,117896,118646,119246,120146,121646,126446,131246,136046,140846,145646,150446,155246,160046,164846,169646,174446,179246,184046,188846,193646,198446,203246,208046,211646,216446,221246,226046,231146,235646,240446,245246,250046,254846,259646,264446,269246,270446,271196,272246,277646
DistanceSpacing: 1
BeatDivisor: 4
GridSize: 32
TimelineZoom: 1.6

[Metadata]
Title:Aozora Jumping Heart
TitleUnicode:青空Jumping Heart
Artist:Aqours
ArtistUnicode:Aqours
Creator:Sakurauchi Riko
Version:Normal!!
Source:ラブライブ!サンシャイン!!
Tags:Phyloukz 桜内梨子 full ver love live! sunshine anime school idol project japanese Inami Anju 伊波杏樹 Aida Rikako 逢田梨香子 Suwa Nanaka 諏訪ななか Komiya Arisa 小宮有紗 Saito Shuka 斉藤朱夏 Kobayashi Aika 小林愛香 Takatsuki Kanako 高槻かなこ Suzuki Aina 鈴木愛奈 Furihata Ai 降幡 愛 Takami Chika 高海千歌 Matsuura Kanan 松浦果南 Kurosawa Dia 黒澤ダイヤ Watanabe You 渡辺 曜 Tsushima Yoshiko 津島善子 Kunikida Hanamaru 国木田花丸 Ohara Mari 小原鞠莉 Kurosawa Ruby 黒澤ルビィ Kyle Y akitoshi corinn -Laura-
BeatmapID:2097063
BeatmapSetID:611367

[Difficulty]
HPDrainRate:3
CircleSize:3
OverallDifficulty:5
ApproachRate:5
SliderMultiplier:0.999999999999999
SliderTickRate:1

[Events]
//Background and Video events
0,0,"newbgiloverikoo.jpg",0,0
//Break Periods
2,209455,211805
//Storyboard Layer 0 (Background)
//Storyboard Layer 1 (Fail)
//Storyboard Layer 2 (Pass)
//Storyboard Layer 3 (Foreground)
//Storyboard Layer 4 (Overlay)
//Storyboard Sound Samples

[TimingPoints]
1805,300,4,2,1,40,1,0
2180,-100,4,2,1,5,0,0
2255,-100,4,2,1,50,0,0
2630,-100,4,2,1,5,0,0
2705,-100,4,2,1,60,0,0
3530,-100,4,2,1,5,0,0
3605,-100,4,2,1,50,0,0
5405,-100,4,2,1,80,0,0
5705,-100,4,2,1,40,0,0
6005,-100,4,2,1,50,0,0
6305,-100,4,2,1,60,0,0
6455,-100,4,2,1,70,0,0
6605,-100,4,2,1,80,0,0
16955,-100,4,2,1,50,0,0
17405,-100,4,2,1,70,0,0
32030,-100,4,2,1,5,0,0
32105,-100,4,2,1,70,0,0
33230,-100,4,2,1,5,0,0
33305,-100,4,2,1,70,0,0
35930,-100,4,2,1,5,0,0
36005,-100,4,2,1,70,0,0
36230,-100,4,2,1,5,0,0
36305,-100,4,2,1,70,0,0
36605,-100,4,2,1,50,0,0
40205,-100,4,2,1,60,0,0
41405,-100,4,2,1,80,0,0
41630,-100,4,2,1,5,0,0
41705,-100,4,2,1,70,0,0
43805,-100,4,2,1,80,0,0
44030,-100,4,2,1,5,0,0
44105,-100,4,2,1,70,0,0
46205,-100,4,2,1,80,0,0
48605,-100,4,2,1,60,0,0
50405,-100,4,2,1,50,0,0
50630,-100,4,2,1,5,0,0
50705,-100,4,2,1,50,0,0
50930,-100,4,2,1,5,0,0
51005,-100,4,2,1,80,0,1
65030,-100,4,2,1,5,0,1
65105,-100,4,2,1,80,0,1
65330,-100,4,2,1,5,0,1
65405,-100,4,2,1,80,0,1
69605,-100,4,2,1,60,0,0
69830,-100,4,2,1,5,0,0
69905,-100,4,2,1,60,0,0
70130,-100,4,2,1,5,0,0
70205,-100,4,2,1,80,0,1
84005,-100,4,2,1,60,0,1
84605,-100,4,2,1,70,0,0
84830,-100,4,2,1,5,0,0
84905,-100,4,2,1,70,0,0
85280,-100,4,2,1,5,0,0
85355,-100,4,2,1,70,0,0
85580,-100,4,2,1,5,0,0
85655,-100,4,2,1,70,0,0
87005,-100,4,2,1,80,0,0
99005,-100,4,2,1,70,0,0
113630,-100,4,2,1,5,0,0
113705,-100,4,2,1,70,0,0
114830,-100,4,2,1,5,0,0
114905,-100,4,2,1,70,0,0
117605,-100,4,2,1,50,0,0
118205,-100,4,2,1,70,0,0
118505,-100,4,2,1,50,0,0
118955,-100,4,2,1,5,0,0
119105,-100,4,2,1,50,0,0
119255,-100,4,2,1,70,0,0
119855,-100,4,2,1,50,0,0
120605,-100,4,2,1,60,0,0
123005,-100,4,2,1,70,0,0
123230,-100,4,2,1,5,0,0
123305,-100,4,2,1,70,0,0
125630,-100,4,2,1,5,0,0
125705,-100,4,2,1,70,0,0
127805,-100,4,2,1,80,0,0
130205,-100,4,2,1,60,0,0
131405,-100,4,2,1,80,0,0
132605,-100,4,2,1,80,0,1
146630,-100,4,2,1,5,0,1
146705,-100,4,2,1,80,0,1
146930,-100,4,2,1,5,0,1
147005,-100,4,2,1,80,0,1
151205,-100,4,2,1,60,0,0
151430,-100,4,2,1,5,0,0
151505,-100,4,2,1,60,0,0
151730,-100,4,2,1,5,0,0
151805,-100,4,2,1,80,0,1
165605,-100,4,2,1,60,0,1
166205,-100,4,2,1,70,0,0
166430,-100,4,2,1,5,0,0
166505,-100,4,2,1,70,0,0
166880,-100,4,2,1,5,0,0
166955,-100,4,2,1,70,0,0
167180,-100,4,2,1,5,0,0
167255,-100,4,2,1,80,0,0
177080,-100,4,2,1,5,0,0
177155,-100,4,2,1,80,0,0
182930,-100,4,2,1,5,0,0
183005,-100,4,2,1,80,0,0
183230,-100,4,2,1,5,0,0
183305,-100,4,2,1,80,0,0
183680,-100,4,2,1,5,0,0
183755,-100,4,2,1,80,0,0
184880,-100,4,2,1,5,0,0
184955,-100,4,2,1,80,0,0
190430,-100,4,2,1,5,0,0
190505,-100,4,2,1,70,0,0
195230,-100,4,2,1,5,0,0
195305,-100,4,2,1,70,0,0
207005,-100,4,2,1,80,0,0
212405,-100,4,2,1,30,0,0
212630,-100,4,2,1,5,0,0
212705,-100,4,2,1,30,0,0
212930,-100,4,2,1,5,0,0
213005,-100,4,2,1,80,0,0
213605,-100,4,2,1,40,0,0
213830,-100,4,2,1,5,0,0
213905,-100,4,2,1,40,0,0
214055,-100,4,2,1,80,0,0
214355,-100,4,2,1,40,0,0
214655,-100,4,2,1,80,0,0
214955,-100,4,2,1,40,0,0
215405,-100,4,2,1,80,0,0
215555,-100,4,2,1,40,0,0
216005,-100,4,2,1,60,0,0
216305,-100,4,2,1,70,0,0
216605,-100,4,2,1,80,0,0
217805,-100,4,2,1,80,0,1
227030,-100,4,2,1,5,0,1
227105,-100,4,2,1,80,0,1
227330,-100,4,2,1,5,0,1
227405,-100,4,2,1,80,0,1
231605,-100,4,2,1,60,0,0
231830,-100,4,2,1,5,0,0
231905,-100,4,2,1,60,0,0
232130,-100,4,2,1,5,0,0
232205,-100,4,2,1,60,0,0
232430,-100,4,2,1,5,0,0
232505,-100,4,2,1,80,0,1
255305,-100,4,2,1,60,0,1
256205,-100,4,2,1,70,0,0
256430,-100,4,2,1,5,0,0
256505,-100,4,2,1,70,0,0
256880,-100,4,2,1,5,0,0
256955,-100,4,2,1,70,0,0
257180,-100,4,2,1,5,0,0
257255,-100,4,2,1,70,0,0
258605,-100,4,2,1,80,0,0
259655,-100,4,2,1,5,0,0
259730,-100,4,2,1,50,0,0
260105,-100,4,2,1,60,0,0
261005,-100,4,2,1,80,0,0
264605,-100,4,2,1,80,0,1
265805,-100,4,2,1,80,0,0
270455,-100,4,2,1,5,0,0
270605,-100,4,2,1,80,0,0
271655,-100,4,2,1,5,0,0
271805,-100,4,2,1,80,0,0
272405,-100,4,2,1,5,0,0
272519,300,4,2,1,80,1,0
273419,-100,4,2,1,5,0,0
273569,-100,4,2,1,80,0,0
279119,-100,4,2,1,5,0,0

[Colours]
Combo1 : 135,136,146
Combo2 : 184,37,67
Combo3 : 252,177,65

[HitObjects]
53,55,1805,6,0,L|66:163,1,99.9999999999999,2|0,0:0|0:0,0:0:0:0:
97,203,2255,2,0,L|263:218,1,150,2|2,0:0|0:0,0:0:0:0:
345,227,3005,1,6,1:2:0:0:
511,337,3605,6,0,L|407:346,1,99.9999999999999,2|2,0:0|0:0,0:0:0:0:
311,355,4205,2,0,L|201:365,1,99.9999999999999,6|2,1:2|0:0,0:0:0:0:
119,324,4805,1,2,3:2:0:0:
82,230,5105,1,2,3:2:0:0:
115,135,5405,6,0,P|165:97|262:87,1,150,6|0,1:2|1:0,0:0:0:0:
291,112,6005,2,0,P|357:126|449:103,1,150,8|8,1:2|1:2,0:0:0:0:
477,80,6605,1,12,1:2:0:0:
510,174,6905,1,2,0:0:0:0:
492,272,7205,2,0,L|452:372,1,99.9999999999999,2|2,3:2|3:0,0:0:0:0:
358,337,7805,6,0,P|305:328|242:344,1,99.9999999999999,6|8,1:2|0:0,0:0:0:0:
211,351,8255,1,0,0:0:0:0:
165,370,8405,2,0,P|143:329|141:272,1,99.9999999999999,2|8,1:2|0:0,0:0:0:0:
206,201,9005,2,0,P|168:182|100:182,1,99.9999999999999,6|8,1:2|0:0,0:0:0:0:
64,196,9455,2,0,L|52:96,1,99.9999999999999,2|0,1:2|1:0,0:0:0:0:
48,46,9905,1,10,0:0:0:0:
143,14,10205,6,0,P|191:5|257:21,1,99.9999999999999,6|8,1:2|0:0,0:0:0:0:
311,84,10805,1,0,1:0:0:0:
407,109,11105,2,0,L|452:81,1,50,10|2,0:0|0:0,0:0:0:0:
499,90,11405,2,0,L|515:204,1,99.9999999999999,6|10,1:2|0:0,0:0:0:0:
494,235,11855,1,0,1:0:0:0:
471,279,12005,2,0,L|359:267,1,99.9999999999999,10|10,0:0|0:0,0:0:0:0:
291,208,12605,6,0,P|273:245|284:319,1,99.9999999999999,6|8,1:2|0:0,0:0:0:0:
356,362,13205,1,2,1:2:0:0:
371,268,13505,1,8,0:0:0:0:
383,168,13805,2,0,P|350:126|293:108,1,99.9999999999999,6|8,1:2|0:0,0:0:0:0:
260,126,14255,2,0,P|208:137|146:117,1,99.9999999999999,2|0,1:2|1:0,0:0:0:0:
121,98,14705,1,10,0:0:0:0:
25,128,15005,6,0,L|9:245,1,99.9999999999999,6|2,1:2|0:0,0:0:0:0:
30,273,15455,1,0,1:0:0:0:
56,315,15605,2,0,L|163:304,1,99.9999999999999,10|2,0:0|0:0,0:0:0:0:
189,267,16055,6,0,P|275:226|229:376,1,350,6|0,1:2|1:0,0:0:0:0:
145,353,17405,6,0,L|31:364,1,99.9999999999999,6|2,1:2|1:2,0:0:0:0:
25,264,18005,2,0,L|4:150,1,99.9999999999999,2|2,1:2|1:2,0:0:0:0:
23,118,18455,1,2,0:2:0:0:
51,77,18605,2,0,P|97:85|166:66,1,99.9999999999999,4|2,1:2|1:2,0:0:0:0:
232,20,19205,2,0,P|280:9|329:17,1,99.9999999999999,2|2,1:2|1:2,0:0:0:0:
391,96,19805,5,6,1:2:0:0:
360,191,20105,1,2,1:2:0:0:
327,285,20405,2,0,B|293:285|293:285|230:245,1,99.9999999999999,2|2,1:2|1:2,0:0:0:0:
197,219,20855,1,2,0:0:0:0:
154,192,21005,2,0,L|53:252,1,99.9999999999999,4|0,1:2|1:0,0:0:0:0:
1,168,21605,1,0,1:0:0:0:
7,68,21905,1,2,1:2:0:0:
93,17,22205,6,0,B|126:31|126:31|201:22,1,99.9999999999999,6|2,1:2|1:2,0:0:0:0:
239,15,22655,2,0,P|289:31|328:79,1,99.9999999999999,2|0,0:0|0:0,0:0:0:0:
305,113,23105,1,2,1:2:0:0:
271,207,23405,2,0,P|313:212|370:189,1,99.9999999999999,6|2,1:2|1:2,0:0:0:0:
388,147,23855,2,0,B|410:114|410:114|475:93,1,99.9999999999999,2|0,0:0|0:0,0:0:0:0:
510,121,24304,1,2,1:2:0:0:
510,221,24605,5,6,1:2:0:0:
474,314,24905,2,0,L|374:327,1,99.9999999999999,2|2,1:2|1:2,0:0:0:0:
287,277,25505,1,2,1:2:0:0:
189,255,25805,2,0,L|79:237,1,99.9999999999999,2|0,1:2|1:0,0:0:0:0:
51,207,26255,1,2,1:2:0:0:
15,171,26405,2,0,L|0:61,1,99.9999999999999,2|2,1:2|0:0,0:0:0:0:
82,12,27005,6,0,L|97:122,1,99.9999999999999,6|10,1:2|0:0,0:0:0:0:
182,159,27605,2,0,P|234:147|294:167,1,99.9999999999999,2|10,1:2|0:0,0:0:0:0:
316,190,28055,2,0,L|292:302,1,99.9999999999999,2|0,1:2|1:0,0:0:0:0:
284,336,28505,1,10,0:0:0:0:
184,349,28805,1,2,1:2:0:0:
84,362,29105,1,10,0:0:0:0:
35,277,29405,6,0,P|25:225|44:165,1,99.9999999999999,6|10,1:2|0:0,0:0:0:0:
71,145,29855,1,2,1:2:0:0:
171,145,30155,1,2,1:2:0:0:
256,96,30455,2,0,P|269:140|246:208,1,99.9999999999999,6|0,1:2|1:0,0:0:0:0:
225,230,30905,1,8,0:0:0:0:
216,329,31205,2,0,L|156:338,2,50,2|2|10,1:2|1:2|0:0,0:0:0:0:
308,290,31805,6,0,L|412:307,1,99.9999999999999,6|10,1:2|0:0,0:0:0:0:
446,275,32255,2,0,L|427:176,1,99.9999999999999,2|0,0:0|1:0,0:0:0:0:
462,141,32705,1,8,0:0:0:0:
402,65,33005,2,0,P|354:55|302:65,1,99.9999999999999,6|10,1:2|0:0,0:0:0:0:
263,92,33455,2,0,P|214:101|165:91,1,99.9999999999999,2|0,1:2|1:0,0:0:0:0:
123,62,33905,1,10,0:0:0:0:
26,87,34205,6,0,L|36:203,1,99.9999999999999,6|10,1:2|0:0,0:0:0:0:
41,236,34655,1,2,1:2:0:0:
139,254,34955,1,0,1:0:0:0:
237,272,35255,2,0,L|341:287,1,99.9999999999999,4|0,1:2|0:0,0:0:0:0:
382,267,35705,2,0,P|400:307|396:378,2,99.9999999999999,2|2|2,1:2|1:2|0:0,0:0:0:0:
320,188,36605,6,0,P|356:170|420:174,1,99.9999999999999,6|2,1:2|0:0,0:0:0:0:
460,191,37055,2,0,B|488:157|488:157|502:41,1,150,2|2,0:0|0:0,0:0:0:0:
470,11,37655,2,0,L|305:28,1,150,2|0,0:0|0:0,0:0:0:0:
221,12,38405,2,0,L|202:122,1,99.9999999999999,10|2,0:0|3:2,0:0:0:0:
229,207,39005,6,0,P|181:209|120:171,1,99.9999999999999,6|2,1:2|0:0,0:0:0:0:
108,144,39455,2,0,P|60:149|6:189,1,99.9999999999999,2|2,1:2|0:0,0:0:0:0:
0,223,39905,1,2,0:0:0:0:
30,318,40205,2,0,L|139:335,1,99.9999999999999,6|8,1:2|0:0,0:0:0:0:
175,314,40655,1,6,3:2:0:0:
219,291,40805,2,0,L|324:281,1,99.9999999999999,6|2,3:2|3:2,0:0:0:0:
407,326,41405,6,0,P|418:277|392:216,1,99.9999999999999,6|10,1:2|0:2,0:0:0:0:
314,184,42005,2,0,P|339:152|397:128,1,99.9999999999999,2|10,1:2|0:0,0:0:0:0:
442,133,42455,2,0,L|464:12,1,99.9999999999999,2|2,1:2|1:2,0:0:0:0:
364,4,43055,2,0,L|258:16,1,99.9999999999999,2|0,1:2|1:0,0:0:0:0:
215,21,43505,1,10,0:0:0:0:
169,110,43805,5,6,1:2:0:0:
132,203,44105,2,0,L|11:191,2,99.9999999999999,10|2|10,0:0|1:2|0:0,0:0:0:0:
181,209,44855,2,0,P|208:254|208:314,1,99.9999999999999,6|2,1:2|1:2,0:0:0:0:
290,361,45455,2,0,P|337:371|392:361,1,99.9999999999999,2|0,1:2|1:0,0:0:0:0:
430,336,45905,1,10,3:0:0:0:
399,240,46205,6,0,L|411:120,1,99.9999999999999,6|0,1:2|1:0,0:0:0:0:
374,104,46655,2,0,L|257:116,1,99.9999999999999,4|0,1:2|1:0,0:0:0:0:
234,143,47105,2,0,L|115:153,1,99.9999999999999,4|0,1:2|1:0,0:0:0:0:
85,139,47555,2,0,L|119:257,1,99.9999999999999,4|0,1:2|1:0,0:0:0:0:
129,282,48005,1,2,1:2:0:0:
216,331,48305,1,2,1:2:0:0:
309,327,48605,6,0,P|354:318|401:279,1,99.9999999999999,6|8,1:2|0:0,0:0:0:0:
410,237,49055,2,0,P|401:193|419:132,1,99.9999999999999,2|0,1:2|1:0,0:0:0:0:
446,102,49505,1,10,0:0:0:0:
388,19,49805,2,0,L|280:29,1,99.9999999999999,2|8,1:2|0:0,0:0:0:0:
203,80,50405,1,2,0:0:0:0:
174,175,50705,1,2,0:0:0:0:
148,271,51005,6,0,B|191:289|191:289|307:279,1,150,6|0,1:2|0:0,0:0:0:0:
343,273,51605,2,0,L|362:170,1,99.9999999999999,2|8,1:2|0:0,0:0:0:0:
435,106,52205,2,0,P|369:73|292:101,1,150,2|0,1:2|0:0,0:0:0:0:
267,133,52805,2,0,P|211:135|167:114,1,99.9999999999999,2|8,1:2|0:0,0:0:0:0:
88,61,53405,6,0,L|62:166,1,99.9999999999999,6|8,1:2|0:0,0:0:0:0:
107,248,54005,1,2,1:2:0:0:
146,339,54305,1,8,0:0:0:0:
241,369,54605,2,0,B|305:331|305:331|395:331,1,150,2|0,1:2|1:0,0:0:0:0:
430,331,55205,1,10,0:0:0:0:
483,246,55505,1,10,0:0:0:0:
483,146,55805,6,0,L|316:146,1,150,6|0,1:2|0:0,0:0:0:0:
283,146,56405,2,0,L|232:47,1,99.9999999999999,2|8,1:2|0:0,0:0:0:0:
141,27,57005,2,0,P|85:30|10:98,1,150,2|0,1:2|0:0,0:0:0:0:
25,137,57605,2,0,P|42:187|34:245,1,99.9999999999999,2|8,1:2|0:0,0:0:0:0:
76,326,58205,5,6,1:2:0:0:
173,348,58505,1,8,0:0:0:0:
262,300,58805,2,0,L|360:316,1,99.9999999999999,8|10,0:0|0:0,0:0:0:0:
408,299,59255,2,0,P|441:254|442:196,1,99.9999999999999,10|2,0:0|1:2,0:0:0:0:
401,124,59855,1,2,1:2:0:0:
353,108,60005,2,0,P|304:116|241:106,1,99.9999999999999,10|10,0:0|0:0,0:0:0:0:
164,65,60605,6,0,P|154:112|167:169,1,99.9999999999999,6|8,1:2|0:0,0:0:0:0:
198,198,61055,1,2,1:2:0:0:
240,224,61205,2,0,P|249:272|239:321,1,99.9999999999999,2|8,1:2|0:0,0:0:0:0:
215,364,61655,1,2,1:2:0:0:
115,364,61955,1,2,1:2:0:0:
34,304,62255,2,0,B|17:266|17:266|17:152,1,150,2|8,0:0|0:0,0:0:0:0:
63,69,63005,6,0,P|110:79|174:62,1,99.9999999999999,2|10,1:2|0:0,0:0:0:0:
202,41,63455,1,2,0:2:0:0:
288,91,63755,1,2,1:2:0:0:
365,153,64055,2,0,L|340:264,1,99.9999999999999,6|0,0:0|1:0,0:0:0:0:
332,299,64505,1,8,0:0:0:0:
417,350,64805,2,0,L|440:249,1,99.9999999999999,6|10,1:2|0:0,0:0:0:0:
463,155,65405,6,0,P|453:108|404:62,1,99.9999999999999,6|10,1:2|0:0,0:0:0:0:
369,64,65855,2,0,P|325:85|269:83,1,99.9999999999999,2|0,1:2|0:0,0:0:0:0:
229,61,66305,1,10,0:0:0:0:
144,8,66605,2,0,L|114:121,1,99.9999999999999,6|8,1:2|0:0,0:0:0:0:
79,136,67055,2,0,L|103:239,1,99.9999999999999,2|0,1:2|0:0,0:0:0:0:
113,282,67505,1,10,0:0:0:0:
193,340,67805,6,0,P|239:331|306:346,1,99.9999999999999,6|8,1:2|0:0,0:0:0:0:
337,357,68255,2,0,P|378:328|409:268,1,99.9999999999999,2|2,1:2|1:2,0:0:0:0:
406,236,68705,1,10,0:0:0:0:
382,191,68855,2,0,B|336:169|336:169|227:193,1,150,10|0,0:0|1:0,0:0:0:0:
146,154,69605,1,2,0:0:0:0:
100,243,69905,1,2,0:0:0:0:
57,333,70205,6,0,P|132:336|187:284,1,150,6|0,1:2|0:0,0:0:0:0:
223,256,70805,2,0,P|271:252|325:283,1,99.9999999999999,2|8,1:2|0:0,0:0:0:0:
378,353,71405,2,0,B|411:317|411:317|421:209,1,150,2|0,1:2|0:0,0:0:0:0:
424,166,72005,2,0,L|311:143,1,99.9999999999999,2|8,1:2|0:0,0:0:0:0:
253,76,72605,6,0,P|231:115|235:182,1,99.9999999999999,6|8,1:2|0:0,0:0:0:0:
300,241,73205,1,2,1:2:0:0:
202,263,73505,1,8,0:0:0:0:
104,285,73805,2,0,L|29:210,1,99.9999999999999,2|8,1:2|0:0,0:0:0:0:
29,164,74255,1,0,1:0:0:0:
28,114,74405,2,0,L|24:3,1,99.9999999999999,10|10,0:0|0:0,0:0:0:0:
122,34,75005,6,0,P|185:51|271:24,1,150,6|0,1:2|0:0,0:0:0:0:
310,8,75605,2,0,P|364:28|395:64,1,99.9999999999999,2|8,1:2|0:0,0:0:0:0:
357,152,76205,2,0,B|345:200|345:200|377:309,1,150,2|0,1:2|0:0,0:0:0:0:
358,344,76805,2,0,L|254:336,1,99.9999999999999,2|8,1:2|0:0,0:0:0:0:
163,370,77405,5,6,1:2:0:0:
175,270,77705,1,8,0:0:0:0:
219,179,78005,2,0,P|206:131|171:96,1,99.9999999999999,10|10,0:0|0:0,0:0:0:0:
121,96,78455,2,0,P|71:128|48:184,1,99.9999999999999,10|0,0:0|0:0,0:0:0:0:
54,265,79055,1,2,1:2:0:0:
72,311,79205,2,0,P|119:301|171:308,1,99.9999999999999,10|10,0:0|0:0,0:0:0:0:
257,355,79805,6,0,L|295:256,1,99.9999999999999,6|8,1:2|0:0,0:0:0:0:
314,216,80255,1,2,1:2:0:0:
333,169,80405,2,0,L|436:206,1,99.9999999999999,2|8,1:2|0:0,0:0:0:0:
472,180,80855,1,2,1:2:0:0:
480,80,81155,1,2,1:2:0:0:
399,20,81455,2,0,P|329:38|241:9,1,150,2|8,0:0|0:0,0:0:0:0:
159,45,82205,6,0,L|180:153,1,99.9999999999999,2|10,1:2|0:0,0:0:0:0:
143,179,82655,2,0,L|43:168,1,99.9999999999999,2|2,0:0|1:2,0:0:0:0:
3,259,83255,2,0,L|161:277,1,150,6|8,0:0|0:0,0:0:0:0:
251,289,84005,1,12,3:0:0:0:
350,302,84305,1,12,3:0:0:0:
421,231,84605,6,0,L|407:132,1,99.9999999999999,6|2,1:2|0:0,0:0:0:0:
374,93,85055,2,0,P|319:99|269:75,1,99.9999999999999,2|2,1:2|0:0,0:0:0:0:
194,28,85655,2,0,P|176:102|218:167,1,150,2|2,1:2|0:0,0:0:0:0:
306,194,86405,1,2,0:0:0:0:
404,210,86705,1,2,0:0:0:0:
463,292,87005,6,0,B|424:334|424:334|270:353,1,200,6|0,1:2|0:0,0:0:0:0:
154,197,88205,2,0,L|44:180,1,99.9999999999999,0|2,1:0|0:0,0:0:0:0:
0,98,88805,2,0,B|38:86|38:86|101:95,1,99.9999999999999,2|2,3:2|0:0,0:0:0:0:
194,115,89405,6,0,P|228:142|245:199,1,99.9999999999999,6|8,1:2|0:0,0:0:0:0:
237,244,89855,1,0,0:0:0:0:
217,290,90005,2,0,B|241:314|241:314|320:314,1,99.9999999999999,2|8,1:2|0:0,0:0:0:0:
399,275,90605,2,0,L|420:161,1,99.9999999999999,6|8,1:2|0:0,0:0:0:0:
399,129,91055,2,0,P|357:111|284:117,1,99.9999999999999,2|0,1:2|1:0,0:0:0:0:
257,131,91505,1,10,0:0:0:0:
193,207,91805,6,0,P|148:226|97:223,1,99.9999999999999,6|8,1:2|0:0,0:0:0:0:
46,137,92405,1,0,1:0:0:0:
86,45,92705,2,0,L|139:55,1,50,10|2,0:0|0:0,0:0:0:0:
181,36,93005,2,0,L|286:23,1,99.9999999999999,6|10,1:2|0:0,0:0:0:0:
330,18,93455,1,0,1:0:0:0:
379,11,93605,2,0,L|360:115,1,99.9999999999999,2|10,0:0|0:0,0:0:0:0:
297,186,94205,6,0,P|332:206|390:206,1,99.9999999999999,6|8,1:2|0:0,0:0:0:0:
484,170,94805,1,2,1:2:0:0:
470,269,95105,1,8,0:0:0:0:
378,308,95405,2,0,L|283:351,1,99.9999999999999,6|8,1:2|0:0,0:0:0:0:
236,346,95855,2,0,P|192:325|130:326,1,99.9999999999999,2|0,1:2|1:0,0:0:0:0:
99,349,96305,1,10,0:0:0:0:
8,306,96605,6,0,L|21:206,1,99.9999999999999,6|2,1:2|0:0,0:0:0:0:
30,157,97055,1,0,1:0:0:0:
41,108,97205,2,0,P|92:90|148:97,1,99.9999999999999,10|2,0:0|0:0,0:0:0:0:
176,124,97655,2,0,L|195:239,1,99.9999999999999,6|0,1:2|3:0,0:0:0:0:
275,278,98255,2,0,B|291:177|291:177|331:141,1,150,4|0,1:2|1:2,0:0:0:0:
414,96,99005,6,0,P|426:146|405:201,1,99.9999999999999,6|10,1:2|0:0,0:0:0:0:
377,284,99605,2,0,B|390:349|390:349|414:376,1,99.9999999999999,2|10,1:2|0:0,0:0:0:0:
462,381,100055,2,0,P|501:323|489:233,1,150,6|10,1:2|0:0,0:0:0:0:
412,191,100805,2,0,P|373:183|311:203,1,99.9999999999999,2|10,1:2|0:0,0:0:0:0:
234,257,101405,5,6,1:2:0:0:
134,248,101705,1,10,0:0:0:0:
34,234,102005,2,0,B|24:122,1,99.9999999999999,2|10,1:2|0:0,0:0:0:0:
47,89,102455,2,0,P|102:77|157:91,1,99.9999999999999,6|0,1:2|1:0,0:0:0:0:
182,117,102905,1,8,0:0:0:0:
281,105,103205,1,0,1:0:0:0:
350,32,103505,1,10,0:0:0:0:
385,125,103805,6,0,P|364:175|367:237,1,99.9999999999999,6|10,1:2|0:0,0:0:0:0:
372,269,104255,2,0,P|420:259|477:271,1,99.9999999999999,2|0,0:0|1:0,0:0:0:0:
502,305,104705,1,10,0:0:0:0:
423,366,105005,2,0,P|372:378|312:362,1,99.9999999999999,6|10,1:2|0:0,0:0:0:0:
283,343,105455,2,0,B|265:228,1,99.9999999999999,2|0,1:2|1:0,0:0:0:0:
260,194,105904,1,10,0:0:0:0:
164,224,106205,6,0,P|115:233|44:216,1,99.9999999999999,6|10,1:2|0:0,0:0:0:0:
35,185,106655,2,0,L|16:86,1,99.9999999999999,2|0,0:0|0:0,0:0:0:0:
9,37,107105,1,10,0:0:0:0:
106,15,107405,2,0,P|151:9|214:16,1,99.9999999999999,2|0,1:2|1:0,0:0:0:0:
248,40,107855,1,10,1:2:0:0:
280,77,108005,2,0,P|329:82|379:75,1,99.9999999999999,2|2,1:2|1:2,0:0:0:0:
470,33,108605,6,0,L|485:143,1,99.9999999999999,6|10,1:2|0:0,0:0:0:0:
426,213,109205,2,0,L|415:316,1,99.9999999999999,2|10,1:2|0:0,0:0:0:0:
381,348,109655,2,0,P|328:369|268:360,1,99.9999999999999,6|0,1:2|1:0,0:0:0:0:
239,348,110105,1,10,0:0:0:0:
197,257,110405,1,2,1:2:0:0:
108,209,110705,1,10,0:0:0:0:
8,216,111005,6,0,P|21:258|60:297,1,99.9999999999999,6|10,1:2|0:0,0:0:0:0:
108,308,111455,1,2,1:2:0:0:
197,257,111755,1,2,1:2:0:0:
281,203,112055,2,0,L|400:220,1,99.9999999999999,6|0,1:2|1:0,0:0:0:0:
429,227,112505,1,8,0:0:0:0:
441,127,112805,2,0,L|374:137,2,50,2|2|10,1:2|1:2|0:0,0:0:0:0:
395,37,113405,6,0,P|352:19|289:27,1,99.9999999999999,6|10,1:2|0:0,0:0:0:0:
254,44,113855,2,0,P|203:48|145:20,1,99.9999999999999,2|0,0:0|1:0,0:0:0:0:
119,62,114305,1,8,0:0:0:0:
108,160,114605,2,0,L|137:273,1,99.9999999999999,6|10,1:2|0:0,0:0:0:0:
176,282,115055,2,0,L|277:268,1,99.9999999999999,2|0,1:2|1:0,0:0:0:0:
325,262,115505,1,10,0:0:0:0:
404,201,115805,6,0,P|424:247|409:314,1,99.9999999999999,6|10,1:2|0:0,0:0:0:0:
393,338,116255,1,2,1:2:0:0:
296,364,116555,1,0,1:0:0:0:
226,292,116855,2,0,P|223:243|257:183,1,99.9999999999999,4|0,1:2|1:0,0:0:0:0:
285,169,117305,2,0,B|269:134|269:134|202:94,2,99.9999999999999,10|2|2,0:0|1:2|1:2,0:0:0:0:
374,215,118205,6,0,L|481:228,1,99.9999999999999,4|2,1:2|0:0,0:0:0:0:
509,192,118655,1,2,0:0:0:0:
428,75,119105,1,10,0:0:0:0:
428,75,119255,2,0,B|348:110|314:40|228:81,1,200,6|0,1:2|1:0,0:0:0:0:
191,107,120005,2,0,L|172:217,1,99.9999999999999,2|2,3:2|3:2,0:0:0:0:
110,282,120605,6,0,P|154:303|203:299,1,99.9999999999999,6|2,1:2|3:2,0:0:0:0:
237,262,121055,2,0,P|278:235|328:229,1,99.9999999999999,2|0,3:2|3:0,0:0:0:0:
376,242,121505,1,10,3:2:0:0:
449,310,121805,2,0,P|473:262|471:214,1,99.9999999999999,6|8,3:2|3:2,0:0:0:0:
448,172,122255,1,2,3:2:0:0:
413,136,122405,2,0,B|376:124|376:124|311:135,1,99.9999999999999,2|10,3:2|3:2,0:0:0:0:
218,109,123005,6,0,P|215:56|177:5,1,99.9999999999999,6|10,1:2|0:0,0:0:0:0:
94,43,123605,2,0,P|96:91|125:142,1,99.9999999999999,2|10,1:2|0:0,0:0:0:0:
161,164,124055,2,0,P|147:212|110:255,1,99.9999999999999,2|2,1:2|1:2,0:0:0:0:
54,329,124655,2,0,L|162:348,1,99.9999999999999,2|0,1:2|1:0,0:0:0:0:
201,357,125105,1,10,0:0:0:0:
272,286,125405,5,6,1:2:0:0:
370,305,125705,2,0,B|440:319|440:319|487:301,2,99.9999999999999,10|2|10,0:0|1:2|0:0,0:0:0:0:
348,259,126455,2,0,B|335:226|335:226|349:156,1,99.9999999999999,6|2,1:2|1:2,0:0:0:0:
397,75,127055,2,0,P|349:63|297:75,1,99.9999999999999,2|0,1:2|1:0,0:0:0:0:
263,107,127505,1,10,0:3:0:0:
167,135,127805,6,0,L|135:22,1,99.9999999999999,6|0,1:2|1:0,0:0:0:0:
99,9,128255,2,0,P|44:26|7:71,1,99.9999999999999,4|0,1:2|1:0,0:0:0:0:
13,105,128705,2,0,P|48:136|66:205,1,99.9999999999999,4|0,1:2|1:0,0:0:0:0:
90,228,129155,2,0,L|56:340,1,99.9999999999999,4|0,1:2|1:0,0:0:0:0:
44,371,129605,1,2,1:2:0:0:
144,368,129905,1,2,1:2:0:0:
232,321,130205,6,0,P|277:312|335:324,1,99.9999999999999,6|8,1:2|0:0,0:0:0:0:
379,318,130655,2,0,L|400:216,1,99.9999999999999,2|0,1:2|3:0,0:0:0:0:
410,171,131105,1,10,0:0:0:0:
358,85,131405,2,0,P|303:95|249:83,1,99.9999999999999,6|8,1:2|0:0,0:0:0:0:
168,47,132005,1,2,3:2:0:0:
181,146,132305,1,2,3:0:0:0:
195,244,132605,6,0,B|238:262|238:262|285:228|354:252,1,150,6|0,1:2|0:0,0:0:0:0:
383,265,133205,2,0,P|400:224|391:162,1,99.9999999999999,2|8,1:2|0:0,0:0:0:0:
334,89,133805,2,0,B|271:47|271:47|192:54,1,150,2|0,1:2|0:0,0:0:0:0:
154,79,134405,2,0,L|51:67,1,99.9999999999999,2|8,1:2|0:0,0:0:0:0:
11,157,135005,6,0,P|0:207|16:263,1,99.9999999999999,6|8,1:2|0:0,0:0:0:0:
98,302,135605,1,2,1:2:0:0:
185,254,135905,1,8,0:0:0:0:
283,239,136205,2,0,P|361:253|421:302,1,150,2|0,1:2|1:0,0:0:0:0:
441,338,136805,1,10,0:0:0:0:
479,245,137105,1,10,0:0:0:0:
509,150,137405,6,0,B|458:124|458:124|364:150,1,150,6|0,1:2|0:0,0:0:0:0:
320,144,138005,2,0,P|284:104|269:45,1,99.9999999999999,2|8,1:2|0:0,0:0:0:0:
175,27,138605,2,0,B|117:21|81:54|81:54|75:107,1,150,2|0,1:2|0:0,0:0:0:0:
95,149,139205,2,0,L|106:257,1,99.9999999999999,2|8,1:2|0:0,0:0:0:0:
68,341,139805,5,6,1:2:0:0:
167,334,140105,1,8,0:0:0:0:
254,276,140405,2,0,L|361:297,1,99.9999999999999,8|10,0:0|0:0,0:0:0:0:
401,288,140855,2,0,B|428:243|428:243|417:180,1,99.9999999999999,10|10,0:0|0:0,0:0:0:0:
399,98,141455,1,2,1:2:0:0:
385,49,141605,2,0,P|336:39|274:53,1,99.9999999999999,10|10,0:0|0:0,0:0:0:0:
203,108,142205,6,0,L|184:219,1,99.9999999999999,6|8,1:2|0:0,0:0:0:0:
196,255,142655,1,2,1:2:0:0:
208,303,142805,2,0,L|90:320,1,99.9999999999999,2|8,1:2|0:0,0:0:0:0:
59,324,143255,1,2,1:2:0:0:
10,236,143555,1,2,1:2:0:0:
10,135,143855,2,0,P|82:127|145:184,1,150,2|8,0:0|0:0,0:0:0:0:
196,255,144605,6,0,L|308:237,1,99.9999999999999,2|10,1:2|0:0,0:0:0:0:
332,205,145055,1,2,0:0:0:0:
426,236,145355,1,2,1:2:0:0:
465,327,145655,2,0,L|364:346,1,99.9999999999999,6|0,1:2|1:0,0:0:0:0:
317,355,146105,1,8,0:0:0:0:
218,369,146405,2,0,P|170:338|126:337,1,99.9999999999999,6|10,1:2|0:0,0:0:0:0:
34,372,147005,6,0,L|14:256,1,99.9999999999999,6|10,1:2|0:0,0:0:0:0:
36,226,147455,2,0,P|84:221|132:190,1,99.9999999999999,2|0,1:2|1:0,0:0:0:0:
152,152,147905,1,10,0:0:0:0:
102,65,148205,2,0,P|149:52|212:69,1,99.9999999999999,6|10,1:2|0:0,0:0:0:0:
238,92,148655,2,0,P|286:101|334:88,1,99.9999999999999,2|0,1:2|1:0,0:0:0:0:
377,62,149105,1,10,0:0:0:0:
470,98,149405,6,0,L|457:202,1,99.9999999999999,6|8,1:2|0:0,0:0:0:0:
426,236,149855,2,0,B|389:252|389:252|319:233,1,99.9999999999999,2|2,1:2|1:2,0:0:0:0:
284,220,150305,1,10,0:0:0:0:
235,206,150455,2,0,P|210:266|240:350,1,150,10|0,0:0|1:0,0:0:0:0:
333,362,151205,1,2,0:0:0:0:
431,379,151505,1,2,0:0:0:0:
494,298,151805,6,0,B|510:195|510:195|490:137,1,150,6|0,1:2|0:0,0:0:0:0:
475,105,152405,2,0,P|430:82|381:86,1,99.9999999999999,2|8,1:2|0:0,0:0:0:0:
295,138,153005,2,0,B|254:170|198:156|198:156|176:98,1,150,2|0,1:2|0:0,0:0:0:0:
165,64,153605,2,0,L|66:94,1,99.9999999999999,2|8,1:2|0:0,0:0:0:0:
12,175,154205,6,0,P|1:222|17:283,1,99.9999999999999,6|8,1:2|0:0,0:0:0:0:
82,343,154805,1,2,1:2:0:0:
182,343,155105,1,8,0:0:0:0:
251,271,155405,2,0,P|261:221|251:171,1,99.9999999999999,2|8,1:2|0:0,0:0:0:0:
229,128,155855,1,0,1:0:0:0:
192,93,156005,6,0,P|221:61|286:40,1,99.9999999999999,10|10,0:0|0:0,0:0:0:0:
355,98,156605,2,0,B|401:112|401:112|452:96|452:96|499:111,1,150,6|0,1:2|0:0,0:0:0:0:
509,159,157205,2,0,L|491:272,1,99.9999999999999,2|8,1:2|0:0,0:0:0:0:
422,328,157805,2,0,P|357:347|271:323,1,150,2|0,1:2|0:0,0:0:0:0:
245,290,158405,2,0,P|200:279|140:293,1,99.9999999999999,2|8,1:2|0:0,0:0:0:0:
66,347,159005,5,6,0:2:0:0:
53,247,159305,1,8,0:0:0:0:
99,155,159605,2,0,L|203:155,1,99.9999999999999,10|10,0:0|0:0,0:0:0:0:
242,129,160055,2,0,B|288:105|288:105|354:118,1,99.9999999999999,10|0,0:0|0:0,0:0:0:0:
432,139,160655,1,2,1:2:0:0:
479,153,160805,2,0,L|495:258,1,99.9999999999999,10|10,0:0|0:0,0:0:0:0:
420,320,161405,6,0,P|374:311|312:321,1,99.9999999999999,6|8,0:2|0:0,0:0:0:0:
276,339,161855,1,2,1:2:0:0:
236,369,162005,2,0,L|144:320,1,99.9999999999999,2|8,1:2|0:0,0:0:0:0:
104,296,162455,1,2,1:2:0:0:
120,197,162755,1,2,1:2:0:0:
140,99,163055,2,0,P|62:115|24:170,1,150,2|8,0:0|0:0,0:0:0:0:
12,271,163805,6,0,P|54:296|104:295,1,99.9999999999999,2|10,1:2|0:0,0:0:0:0:
152,275,164255,2,0,P|197:256|258:260,1,99.9999999999999,2|2,0:0|1:2,0:0:0:0:
329,314,164855,2,0,P|349:260|308:176,1,150,6|8,0:0|0:0,0:0:0:0:
213,165,165605,1,12,3:0:0:0:
151,85,165905,1,12,3:0:0:0:
90,5,166205,6,0,B|27:30|27:30|5:64,1,99.9999999999999,6|2,1:2|0:0,0:0:0:0:
0,106,166655,2,0,L|14:221,1,99.9999999999999,0|2,1:2|0:0,0:0:0:0:
71,284,167255,2,0,B|163:311|140:266|229:290,1,150,2|2,1:2|0:0,0:0:0:0:
301,344,168005,1,2,0:0:0:0:
387,294,168305,1,2,0:0:0:0:
470,238,168605,6,0,P|453:152|382:200,1,200,6|2,1:2|0:0,0:0:0:0:
387,294,169505,1,0,0:0:0:0:
334,379,169805,2,0,P|282:381|226:357,1,99.9999999999999,0|2,3:0|3:2,0:0:0:0:
194,339,170255,1,0,3:0:0:0:
171,294,170405,2,0,P|173:244|151:188,1,99.9999999999999,2|2,3:2|3:2,0:0:0:0:
104,111,171005,6,0,B|140:97|140:97|203:106,1,99.9999999999999,4|8,1:2|0:0,0:0:0:0:
244,131,171455,2,0,P|293:142|350:126,1,99.9999999999999,0|0,1:0|1:0,0:0:0:0:
432,91,172055,2,0,B|442:129|442:129|426:196|426:196|438:243,1,150,4|8,1:2|0:0,0:0:0:0:
379,318,172805,1,0,1:0:0:0:
280,337,173105,1,8,0:0:0:0:
192,288,173405,6,0,P|145:251|42:265,1,150,4|0,1:2|1:0,0:0:0:0:
39,156,174155,2,0,L|39:94,1,50,0|8,1:0|0:0,0:0:0:0:
78,74,174455,2,0,B|112:58|112:58|185:69,1,99.9999999999999,4|0,1:2|1:0,0:0:0:0:
222,77,174905,1,8,0:0:0:0:
318,52,175205,2,0,P|322:26|332:3,2,50,0|8|8,1:0|0:0|0:0,0:0:0:0:
330,100,175655,1,0,3:0:0:0:
361,139,175805,6,0,P|399:165|465:170,1,99.9999999999999,4|8,0:0|0:0,0:0:0:0:
501,165,176255,2,0,B|512:197|512:197|512:263,1,99.9999999999999,0|0,1:0|1:0,0:0:0:0:
484,304,176705,1,8,0:0:0:0:
456,345,176855,2,0,L|353:345,1,99.9999999999999,4|0,1:2|1:0,0:0:0:0:
284,275,177455,1,0,0:0:0:0:
241,184,177755,2,0,L|272:79,1,99.9999999999999,0|0,1:0|0:0,0:0:0:0:
293,44,178205,6,0,P|268:28|250:10,2,50,4|0|8,1:2|0:0|0:0,0:0:0:0:
342,33,178655,1,4,1:2:0:0:
443,47,178955,2,0,L|460:103,1,50,0|8,1:0|0:0,0:0:0:0:
501,106,179255,2,0,L|482:219,1,99.9999999999999,4|0,1:2|1:0,0:0:0:0:
474,253,179705,1,0,1:0:0:0:
462,301,179855,2,0,B|392:322|385:277|314:309,1,150,4|10,1:2|0:0,0:0:0:0:
221,344,180605,6,0,L|207:242,1,99.9999999999999,4|8,1:2|0:0,0:0:0:0:
235,203,181055,2,0,L|249:102,1,99.9999999999999,0|0,1:0|1:0,0:0:0:0:
317,30,181655,2,0,P|371:20|422:30,1,99.9999999999999,4|0,1:2|1:0,0:0:0:0:
455,56,182105,1,8,0:0:0:0:
412,146,182405,2,0,L|352:132,2,50,0|0|8,1:0|1:0|0:0,0:0:0:0:
482,217,183005,6,0,L|373:245,1,99.9999999999999,4|8,1:2|0:0,0:0:0:0:
336,229,183455,2,0,P|323:277|336:327,1,99.9999999999999,0|0,1:0|1:0,0:0:0:0:
251,381,184055,2,0,L|152:359,1,99.9999999999999,4|0,1:2|1:0,0:0:0:0:
123,318,184505,1,8,0:0:0:0:
99,274,184655,2,0,L|99:164,1,99.9999999999999,4|0,1:2|3:0,0:0:0:0:
99,124,185105,1,2,3:0:0:0:
163,47,185405,6,0,P|139:31|121:9,2,50,4|0|8,1:2|1:0|0:0,0:0:0:0:
212,43,185855,2,0,P|257:31|315:44,1,99.9999999999999,4|0,1:2|1:0,0:0:0:0:
341,78,186305,1,8,0:0:0:0:
359,124,186455,2,0,B|371:157|371:157|357:236,1,99.9999999999999,4|0,1:2|3:0,0:0:0:0:
332,262,186905,1,8,0:0:0:0:
233,277,187205,1,0,1:0:0:0:
196,242,187355,2,0,P|155:218|99:216,1,99.9999999999999,4|0,1:2|0:0,0:0:0:0:
55,230,187805,6,0,P|28:183|28:119,1,99.9999999999999,4|8,1:2|0:0,0:0:0:0:
44,91,188255,1,0,1:0:0:0:
130,40,188555,1,0,1:0:0:0:
218,86,188855,2,0,B|265:97|265:97|325:86,1,99.9999999999999,4|0,1:2|1:0,0:0:0:0:
364,77,189305,2,0,P|380:43|449:6,2,99.9999999999999,10|2|2,0:0|0:0|1:2,0:0:0:0:
367,176,190205,5,4,1:2:0:0:
413,264,190505,2,0,B|449:277|449:277|528:265,2,99.9999999999999,10|2|8,0:0|1:2|0:0,0:0:0:0:
363,268,191255,2,0,L|294:348,1,99.9999999999999,6|0,1:2|0:0,0:0:0:0:
263,380,191705,1,10,0:0:0:0:
164,361,192005,1,2,1:2:0:0:
112,275,192305,1,10,0:0:0:0:
96,176,192605,6,0,P|119:134|117:75,1,99.9999999999999,6|8,1:2|0:0,0:0:0:0:
22,110,193205,2,0,P|-1:152|1:211,1,99.9999999999999,2|10,1:2|0:0,0:0:0:0:
15,249,193655,2,0,L|115:275,1,99.9999999999999,6|0,1:2|1:0,0:0:0:0:
159,289,194105,1,10,0:0:0:0:
238,228,194405,2,0,L|341:198,1,99.9999999999999,2|10,1:2|0:0,0:0:0:0:
385,114,195005,5,6,1:2:0:0:
337,25,195305,2,0,P|383:12|439:26,2,99.9999999999999,10|2|8,0:0|1:2|0:0,0:0:0:0:
301,59,196055,2,0,P|253:72|204:61,1,99.9999999999999,6|0,1:2|1:0,0:0:0:0:
162,35,196505,1,10,0:0:0:0:
76,86,196805,1,2,1:2:0:0:
59,184,197105,1,10,0:0:0:0:
96,276,197405,6,0,B|132:290|132:290|201:277,1,99.9999999999999,6|8,1:2|0:0,0:0:0:0:
263,208,198005,2,0,P|290:249|289:309,1,99.9999999999999,2|10,1:2|0:0,0:0:0:0:
298,348,198455,2,0,B|333:359|333:359|402:350,1,99.9999999999999,6|0,1:2|1:0,0:0:0:0:
445,342,198905,1,8,0:0:0:0:
486,251,199205,2,0,L|497:141,1,99.9999999999999,2|10,1:2|0:0,0:0:0:0:
431,74,199805,6,0,P|387:65|322:77,1,99.9999999999999,6|10,1:2|0:0,0:0:0:0:
293,104,200255,2,0,P|243:111|194:102,1,99.9999999999999,2|0,1:2|0:0,0:0:0:0:
152,76,200705,1,10,0:0:0:0:
54,96,201005,2,0,L|66:211,1,99.9999999999999,6|10,1:2|0:0,0:0:0:0:
70,245,201455,2,0,B|104:257|104:257|167:249,1,99.9999999999999,2|0,1:2|1:0,0:0:0:0:
216,240,201905,1,8,0:0:0:0:
293,176,202205,6,0,P|316:222|311:280,1,99.9999999999999,6|8,1:2|0:0,0:0:0:0:
240,336,202805,2,0,P|273:363|332:370,1,99.9999999999999,2|10,1:2|0:0,0:0:0:0:
373,348,203255,2,0,P|406:315|460:298,1,99.9999999999999,6|0,1:2|1:0,0:0:0:0:
505,307,203705,1,8,0:0:0:0:
472,212,204005,2,0,B|458:179|458:179|458:112,1,99.9999999999999,6|6,1:2|1:2,0:0:0:0:
380,52,204605,6,0,B|346:41|346:41|265:54,1,99.9999999999999,6|2,1:2|1:2,0:0:0:0:
239,76,205055,2,0,L|128:52,1,99.9999999999999,10|2,0:0|3:2,0:0:0:0:
47,90,205655,2,0,P|46:139|72:189,1,99.9999999999999,6|0,1:2|1:0,0:0:0:0:
111,207,206105,1,2,1:2:0:0:
210,194,206405,1,10,0:0:0:0:
298,239,206705,1,2,1:2:0:0:
299,340,207005,6,0,P|251:329|215:296,1,99.9999999999999,2|8,1:2|0:0,0:0:0:0:
210,194,207605,2,0,P|206:138|177:96,1,99.9999999999999,8|10,0:0|0:0,0:0:0:0:
133,95,208055,2,0,B|31:153|81:204|-6:268|-6:268|11:229|2:196,1,300,10|2,0:0|0:0,0:0:0:0:
0,96,209255,1,8,0:0:0:0:
131,109,213005,6,0,L|127:167,1,50,14|10,0:0|0:0,0:0:0:0:
186,296,213605,2,0,P|235:298|293:335,1,99.9999999999999,2|0,0:0|1:0,0:0:0:0:
329,323,214055,2,0,B|351:247|306:248|330:174,1,150,4|0,1:2|1:0,0:0:0:0:
360,136,214655,2,0,P|318:89|234:114,1,150,4|8,1:2|0:0,0:0:0:0:
173,180,215405,6,0,L|65:167,2,99.9999999999999,14|8|8,1:2|1:2|3:2,0:0:0:0:
205,274,216305,1,8,1:2:0:0:
159,363,216605,2,0,B|58:355|58:355|-4:273,1,200,8|10,1:2|3:2,0:0:0:0:
10,176,217505,1,10,3:2:0:0:
71,96,217805,6,0,B|109:125|165:100|165:100|181:124|213:131,1,150,6|0,1:2|0:0,0:0:0:0:
255,132,218405,2,0,P|280:177|279:244,1,99.9999999999999,2|8,1:2|0:0,0:0:0:0:
209,291,219005,2,0,P|265:323|347:301,1,150,2|0,1:2|0:0,0:0:0:0:
382,270,219605,2,0,P|428:251|485:257,1,99.9999999999999,2|8,1:2|0:0,0:0:0:0:
502,351,220205,5,6,1:2:0:0:
403,369,220505,1,8,0:0:0:0:
308,334,220805,2,0,B|272:335|272:335|211:365,1,99.9999999999999,8|10,0:0|0:0,0:0:0:0:
164,363,221255,2,0,B|83:305,1,99.9999999999999,10|0,0:0|0:0,0:0:0:0:
72,205,221855,1,2,1:2:0:0:
67,155,222005,2,0,L|182:136,1,99.9999999999999,10|10,0:0|0:0,0:0:0:0:
246,78,222605,6,0,P|268:125|254:187,1,99.9999999999999,6|8,1:2|0:0,0:0:0:0:
239,215,223055,1,2,1:2:0:0:
203,249,223205,2,0,B|229:273|229:273|302:273,1,99.9999999999999,2|8,1:2|0:0,0:0:0:0:
343,273,223655,1,2,1:2:0:0:
391,185,223955,1,2,1:2:0:0:
439,97,224255,2,0,B|364:66|361:112|292:87,1,150,2|8,0:0|0:0,0:0:0:0:
210,30,225005,6,0,P|191:74|199:130,1,99.9999999999999,2|8,1:2|0:0,0:0:0:0:
225,165,225455,1,2,0:0:0:0:
320,194,225755,1,2,1:2:0:0:
392,263,226055,2,0,P|397:312|378:357,1,99.9999999999999,6|0,0:2|1:0,0:0:0:0:
335,382,226505,1,8,0:0:0:0:
238,355,226805,2,0,P|191:330|139:330,1,99.9999999999999,6|10,1:2|0:0,0:0:0:0:
47,352,227405,6,0,L|27:236,1,99.9999999999999,6|10,1:2|0:0,0:0:0:0:
64,217,227855,2,0,L|79:110,1,99.9999999999999,2|0,1:2|1:0,0:0:0:0:
86,68,228305,1,10,0:0:0:0:
178,105,228605,2,0,P|227:115|285:105,1,99.9999999999999,6|10,1:2|0:0,0:0:0:0:
321,86,229055,2,0,L|342:189,1,99.9999999999999,2|0,1:2|0:0,0:0:0:0:
349,233,229505,1,10,0:0:0:0:
330,331,229805,6,0,B|293:343|293:343|220:325,1,99.9999999999999,6|8,1:2|0:0,0:0:0:0:
196,294,230255,2,0,P|144:290|85:320,1,99.9999999999999,2|2,1:2|1:2,0:0:0:0:
62,341,230705,1,10,0:0:0:0:
30,380,230855,2,0,B|0:343|0:343|0:226,1,150,10|0,0:0|1:0,0:0:0:0:
46,152,231605,1,2,0:0:0:0:
143,131,231905,2,0,L|258:131,1,99.9999999999999,2|2,0:0|1:2,0:0:0:0:
313,60,232505,5,12,0:2:0:0:
397,112,232805,2,0,P|389:160|402:215,1,99.9999999999999,2|8,1:2|0:0,0:0:0:0:
455,292,233405,2,0,B|403:307|403:307|355:294|355:294|303:310,1,150,2|0,1:2|0:0,0:0:0:0:
275,342,234005,2,0,P|225:342|172:306,1,99.9999999999999,2|8,1:2|0:0,0:0:0:0:
129,232,234605,6,0,P|149:189|151:125,1,99.9999999999999,6|8,1:2|0:0,0:0:0:0:
108,47,235205,1,2,1:2:0:0:
199,7,235505,1,8,0:0:0:0:
290,47,235805,2,0,B|326:60|326:60|390:49,1,99.9999999999999,2|8,1:2|0:0,0:0:0:0:
435,39,236255,1,0,0:0:0:0:
484,29,236405,2,0,L|472:131,1,99.9999999999999,10|10,0:0|0:0,0:0:0:0:
411,207,237005,6,0,B|356:221|314:194|314:194|276:241,1,150,6|0,1:2|0:0,0:0:0:0:
235,248,237605,2,0,L|150:190,1,99.9999999999999,2|8,1:2|0:0,0:0:0:0:
125,95,238205,2,0,P|72:124|49:215,1,150,2|0,1:2|0:0,0:0:0:0:
66,251,238805,2,0,P|75:303|64:355,1,99.9999999999999,2|8,1:2|0:0,0:0:0:0:
160,383,239405,5,6,1:2:0:0:
255,352,239705,1,8,0:0:0:0:
321,275,240005,2,0,P|370:278|417:303,1,99.9999999999999,2|10,1:2|0:0,0:0:0:0:
457,326,240455,2,0,P|480:276|472:214,1,99.9999999999999,10|0,0:0|0:0,0:0:0:0:
421,152,241055,1,2,1:2:0:0:
371,149,241205,2,0,P|323:175|269:174,1,99.9999999999999,10|10,0:0|0:0,0:0:0:0:
184,140,241805,6,0,B|180:72|180:72|156:36,1,99.9999999999999,6|8,1:2|0:0,0:0:0:0:
115,27,242255,1,2,1:2:0:0:
67,41,242405,2,0,P|24:73|3:119,1,99.9999999999999,2|8,1:2|0:0,0:0:0:0:
8,164,242855,1,2,1:2:0:0:
102,196,243155,1,2,1:2:0:0:
184,140,243455,2,0,P|199:220|157:280,1,150,2|8,0:0|0:0,0:0:0:0:
98,350,244205,6,0,P|140:375|190:374,1,99.9999999999999,2|10,1:2|0:0,0:0:0:0:
229,343,244655,2,0,P|275:319|335:328,1,99.9999999999999,2|2,0:0|1:2,0:0:0:0:
409,370,245255,2,0,L|435:206,1,150,6|8,0:2|0:0,0:0:0:0:
401,126,246005,1,6,1:2:0:0:
368,31,246305,1,14,0:0:0:0:
300,104,246605,6,0,B|267:117|267:117|199:104,1,99.9999999999999,6|10,1:2|0:0,0:0:0:0:
154,96,247055,1,2,1:2:0:0:
74,156,247355,1,2,1:2:0:0:
47,252,247655,2,0,P|49:309|69:354,1,99.9999999999999,2|0,1:2|1:0,0:0:0:0:
102,381,248105,1,10,0:0:0:0:
196,348,248405,2,0,B|245:338|245:338|303:348,1,99.9999999999999,2|10,1:2|0:0,0:0:0:0:
388,380,249005,6,0,L|406:260,1,99.9999999999999,6|10,1:2|0:0,0:0:0:0:
433,241,249455,2,0,L|417:135,1,99.9999999999999,2|0,1:2|1:0,0:0:0:0:
343,75,250055,2,0,B|301:46|245:67|245:67|231:120,1,150,4|8,1:2|0:0,0:0:0:0:
222,161,250655,1,2,1:2:0:0:
210,209,250805,2,0,P|161:228|99:218,1,99.9999999999999,10|10,0:0|0:0,0:0:0:0:
19,191,251405,6,0,L|34:304,1,99.9999999999999,6|8,1:2|0:0,0:0:0:0:
65,327,251855,1,2,1:2:0:0:
100,362,252005,2,0,L|203:373,1,99.9999999999999,2|8,1:2|0:0,0:0:0:0:
248,381,252455,1,2,1:2:0:0:
316,307,252755,1,2,1:2:0:0:
379,230,253055,2,0,B|391:192|391:192|372:124|372:124|382:77,1,150,2|8,0:0|0:0,0:0:0:0:
314,9,253805,6,0,L|216:30,1,99.9999999999999,2|10,1:2|0:0,0:0:0:0:
182,67,254255,2,0,P|129:72|83:47,1,99.9999999999999,2|2,0:0|1:2,0:0:0:0:
11,115,254855,2,0,B|1:157|1:157|34:260,1,150,6|4,0:2|3:0,0:0:0:0:
124,301,255605,1,12,3:0:0:0:
215,261,255905,1,12,3:0:0:0:
305,217,256205,6,0,P|315:263|300:317,1,99.9999999999999,6|2,1:2|0:0,0:0:0:0:
272,353,256655,2,0,B|311:380|311:380|366:380,1,99.9999999999999,2|2,1:2|1:2,0:0:0:0:
452,334,257255,2,0,B|473:255|428:278|455:186,1,150,2|2,1:2|0:0,0:0:0:0:
397,105,258005,1,2,0:0:0:0:
332,28,258305,1,10,0:0:0:0:
236,57,258605,6,0,B|200:102|150:102|150:102|119:168|143:251|191:272|216:277,1,300,6|0,0:0|0:0,0:0:0:0:
272,201,259805,2,0,L|369:220,1,99.9999999999999,4|2,1:2|0:0,0:0:0:0:
418,231,260255,1,0,3:0:0:0:
465,246,260405,2,0,P|477:296|460:351,1,99.9999999999999,2|2,3:2|0:0,0:0:0:0:
372,378,261005,6,0,L|256:378,1,99.9999999999999,6|8,1:2|0:0,0:0:0:0:
222,378,261455,1,0,0:0:0:0:
172,378,261605,2,0,P|136:346|120:291,1,99.9999999999999,2|8,1:2|0:0,0:0:0:0:
178,216,262205,2,0,P|140:199|77:206,1,99.9999999999999,6|8,1:2|0:0,0:0:0:0:
36,222,262655,2,0,P|18:175|24:122,1,99.9999999999999,2|0,1:2|1:0,0:0:0:0:
51,84,263105,1,10,0:0:0:0:
143,46,263405,6,0,P|191:56|251:46,1,99.9999999999999,6|8,1:2|0:0,0:0:0:0:
341,45,264005,1,0,1:0:0:0:
419,106,264305,2,0,L|429:172,1,50,10|2,0:0|0:0,0:0:0:0:
408,201,264605,2,0,L|388:316,1,99.9999999999999,6|10,1:2|0:0,0:0:0:0:
352,331,265055,1,0,1:0:0:0:
308,355,265205,2,0,P|257:366|194:347,1,99.9999999999999,10|10,0:0|0:0,0:0:0:0:
127,300,265805,6,0,L|110:180,1,99.9999999999999,6|8,1:2|0:0,0:0:0:0:
52,121,266405,1,2,1:2:0:0:
114,43,266705,1,8,0:0:0:0:
213,29,267005,2,0,L|326:45,1,99.9999999999999,6|8,1:2|0:0,0:0:0:0:
355,68,267455,2,0,P|371:113|366:169,1,99.9999999999999,2|0,1:2|1:0,0:0:0:0:
341,207,267905,1,10,0:0:0:0:
244,234,268205,6,0,P|272:281|318:307,1,99.9999999999999,6|2,1:2|1:2,0:0:0:0:
359,307,268655,1,0,3:0:0:0:
403,284,268805,2,0,P|456:273|506:287,1,99.9999999999999,10|2,0:0|1:2,0:0:0:0:
490,234,269255,6,0,B|417:155|461:46|461:46|344:109|337:-13|208:56,1,450,6|4,0:0|0:0,0:0:0:0:
123,186,271805,1,4,0:0:0:0:
347,264,272519,1,4,0:0:0:0:
347,264,273569,5,4,0:0:0:0:
256,192,273719,12,0,279119,0:0:0:0:
