osu file format v14

[General]
AudioFilename: audio.mp3
AudioLeadIn: 0
PreviewTime: 212255
Countdown: 0
SampleSet: Soft
StackLeniency: 0.5
Mode: 0
LetterboxInBreaks: 0
WidescreenStoryboard: 1

[Editor]
Bookmarks: 97646,107246,116846,121646,131246,164846,169646,188846,208046,211646,214046,215396,215846,216446,245246,250046,254846,259646,267896
DistanceSpacing: 1
BeatDivisor: 4
GridSize: 16
TimelineZoom: 2

[Metadata]
Title:Aozora Jumping Heart
TitleUnicode:青空Jumping Heart
Artist:Aqours
ArtistUnicode:Aqours
Creator:Sakurauchi Riko
Version:Insane!!
Source:ラブライブ!サンシャイン!!
Tags:Phyloukz 桜内梨子 full ver love live! sunshine anime school idol project japanese Inami Anju 伊波杏樹 Aida Rikako 逢田梨香子 Suwa Nanaka 諏訪ななか Komiya Arisa 小宮有紗 Saito Shuka 斉藤朱夏 Kobayashi Aika 小林愛香 Takatsuki Kanako 高槻かなこ Suzuki Aina 鈴木愛奈 Furihata Ai 降幡 愛 Takami Chika 高海千歌 Matsuura Kanan 松浦果南 Kurosawa Dia 黒澤ダイヤ Watanabe You 渡辺 曜 Tsushima Yoshiko 津島善子 Kunikida Hanamaru 国木田花丸 Ohara Mari 小原鞠莉 Kurosawa Ruby 黒澤ルビィ Kyle Y akitoshi corinn -Laura-
BeatmapID:1516673
BeatmapSetID:611367

[Difficulty]
HPDrainRate:5
CircleSize:4
OverallDifficulty:7.5
ApproachRate:9
SliderMultiplier:1.4
SliderTickRate:1

[Events]
//Background and Video events
0,0,"newbgiloverikoo.jpg",0,0
//Break Periods
2,209455,211805
//Storyboard Layer 0 (Background)
//Storyboard Layer 1 (Fail)
//Storyboard Layer 2 (Pass)
//Storyboard Layer 3 (Foreground)
//Storyboard Layer 4 (Overlay)
//Storyboard Sound Samples

[TimingPoints]
1805,300,4,2,1,60,1,0
1805,-133.333333333333,4,2,1,40,0,0
2180,-133.333333333333,4,2,1,5,0,0
2255,-133.333333333333,4,2,1,50,0,0
2630,-133.333333333333,4,2,1,5,0,0
2705,-133.333333333333,4,2,1,60,0,0
3530,-133.333333333333,4,2,1,5,0,0
3605,-133.333333333333,4,2,1,50,0,0
5405,-133.333333333333,4,2,1,80,0,0
5705,-133.333333333333,4,2,1,40,0,0
6005,-133.333333333333,4,2,1,50,0,0
6305,-133.333333333333,4,2,1,60,0,0
6455,-133.333333333333,4,2,1,70,0,0
6605,-133.333333333333,4,2,1,80,0,0
6905,-133.333333333333,4,2,1,80,0,0
7805,-100,4,2,1,80,0,0
16955,-100,4,2,1,50,0,0
17405,-100,4,2,1,70,0,0
32030,-100,4,2,1,5,0,0
32105,-100,4,2,1,70,0,0
33230,-100,4,2,1,5,0,0
33305,-100,4,2,1,70,0,0
35930,-100,4,2,1,5,0,0
36005,-100,4,2,1,70,0,0
36230,-100,4,2,1,5,0,0
36305,-100,4,2,1,70,0,0
36605,-100,4,2,1,50,0,0
40205,-100,4,2,1,60,0,0
41405,-83.3333333333333,4,2,1,80,0,0
41630,-83.3333333333333,4,2,1,5,0,0
41705,-100,4,2,1,70,0,0
43805,-83.3333333333333,4,2,1,80,0,0
44030,-83.3333333333333,4,2,1,5,0,0
44105,-100,4,2,1,70,0,0
46205,-100,4,2,1,80,0,0
48605,-100,4,2,1,60,0,0
50405,-200,4,2,1,50,0,0
50630,-200,4,2,1,5,0,0
50705,-200,4,2,1,50,0,0
50930,-200,4,2,1,5,0,0
51005,-100,4,2,1,80,0,1
65030,-100,4,2,1,5,0,1
65105,-100,4,2,1,80,0,1
65330,-100,4,2,1,5,0,1
65405,-100,4,2,1,80,0,1
69605,-200,4,2,1,60,0,0
69830,-200,4,2,1,5,0,0
69905,-200,4,2,1,60,0,0
70130,-200,4,2,1,5,0,0
70205,-100,4,2,1,80,0,1
84005,-100,4,2,1,60,0,1
84605,-100,4,2,1,70,0,0
84830,-100,4,2,1,5,0,0
84905,-100,4,2,1,70,0,0
85280,-100,4,2,1,5,0,0
85355,-100,4,2,1,70,0,0
85580,-100,4,2,1,5,0,0
85655,-100,4,2,1,70,0,0
87005,-100,4,2,1,80,0,0
99005,-100,4,2,1,70,0,0
113630,-100,4,2,1,5,0,0
113705,-100,4,2,1,70,0,0
114830,-100,4,2,1,5,0,0
114905,-100,4,2,1,70,0,0
117605,-100,4,2,1,50,0,0
118205,-100,4,2,1,70,0,0
118505,-100,4,2,1,50,0,0
118955,-100,4,2,1,5,0,0
119105,-100,4,2,1,50,0,0
119255,-100,4,2,1,70,0,0
119855,-100,4,2,1,50,0,0
120605,-100,4,2,1,60,0,0
123005,-83.3333333333333,4,2,1,70,0,0
123230,-83.3333333333333,4,2,1,5,0,0
123305,-100,4,2,1,70,0,0
125405,-83.3333333333333,4,2,1,70,0,0
125630,-83.3333333333333,4,2,1,5,0,0
125705,-100,4,2,1,70,0,0
127805,-100,4,2,1,80,0,0
130205,-100,4,2,1,60,0,0
131405,-100,4,2,1,80,0,0
132605,-100,4,2,1,80,0,1
146630,-100,4,2,1,5,0,1
146705,-100,4,2,1,80,0,1
146930,-100,4,2,1,5,0,1
147005,-100,4,2,1,80,0,1
151205,-200,4,2,1,60,0,0
151430,-200,4,2,1,5,0,0
151505,-200,4,2,1,60,0,0
151730,-200,4,2,1,5,0,0
151805,-100,4,2,1,80,0,1
165605,-100,4,2,1,60,0,1
166205,-100,4,2,1,70,0,0
166430,-100,4,2,1,5,0,0
166505,-100,4,2,1,70,0,0
166880,-100,4,2,1,5,0,0
166955,-100,4,2,1,70,0,0
167180,-100,4,2,1,5,0,0
167255,-100,4,2,1,80,0,0
177080,-100,4,2,1,5,0,0
177155,-100,4,2,1,80,0,0
182705,-100,4,2,1,80,0,0
182930,-100,4,2,1,5,0,0
183005,-100,4,2,1,80,0,0
183230,-100,4,2,1,5,0,0
183305,-100,4,2,1,80,0,0
183680,-100,4,2,1,5,0,0
183755,-100,4,2,1,80,0,0
184880,-100,4,2,1,5,0,0
184955,-100,4,2,1,80,0,0
190430,-100,4,2,1,5,0,0
190505,-100,4,2,1,70,0,0
195230,-100,4,2,1,5,0,0
195305,-100,4,2,1,70,0,0
207005,-100,4,2,1,80,0,0
212405,-200,4,2,1,30,0,0
212630,-200,4,2,1,5,0,0
212705,-200,4,2,1,30,0,0
212930,-200,4,2,1,5,0,0
213005,-200,4,2,1,80,0,1
213155,-200,4,2,1,80,0,0
213605,-200,4,2,1,40,0,0
213830,-200,4,2,1,5,0,0
213905,-200,4,2,1,40,0,0
214055,-200,4,2,1,80,0,0
214355,-200,4,2,1,40,0,0
214655,-200,4,2,1,80,0,0
214955,-200,4,2,1,40,0,0
215405,-100,4,2,1,80,0,0
215555,-100,4,2,1,40,0,0
216005,-100,4,2,1,60,0,0
216305,-100,4,2,1,70,0,0
216605,-100,4,2,1,80,0,0
217805,-100,4,2,1,80,0,1
227030,-100,4,2,1,5,0,1
227105,-100,4,2,1,80,0,1
227330,-100,4,2,1,5,0,1
227405,-100,4,2,1,80,0,1
231605,-200,4,2,1,60,0,0
231830,-200,4,2,1,5,0,0
231905,-200,4,2,1,60,0,0
232130,-200,4,2,1,5,0,0
232205,-200,4,2,1,60,0,0
232430,-200,4,2,1,5,0,0
232505,-100,4,2,1,80,0,1
255305,-100,4,2,1,60,0,1
256205,-100,4,2,1,70,0,0
256430,-100,4,2,1,5,0,0
256505,-100,4,2,1,70,0,0
256880,-100,4,2,1,5,0,0
256955,-100,4,2,1,70,0,0
257180,-100,4,2,1,5,0,0
257255,-100,4,2,1,70,0,0
258605,-100,4,2,1,80,0,0
259655,-100,4,2,1,5,0,0
259730,-100,4,2,1,50,0,0
260105,-100,4,2,1,60,0,0
261005,-100,4,2,1,80,0,0
264605,-100,4,2,1,80,0,1
265805,-100,4,2,1,80,0,0
269255,-100,4,2,1,80,0,0
270455,-133.333333333333,4,2,1,5,0,0
270605,-133.333333333333,4,2,1,80,0,0
271655,-133.333333333333,4,2,1,5,0,0
271805,-133.333333333333,4,2,1,80,0,0
272405,-133.333333333333,4,2,1,5,0,0
272519,300,4,2,1,80,1,0
273419,-100,4,2,1,5,0,0
273569,-100,4,2,1,80,0,0
279119,-133.333333333333,4,2,1,5,0,0

[Colours]
Combo1 : 135,136,146
Combo2 : 184,37,67
Combo3 : 252,177,65

[HitObjects]
97,153,1805,6,0,P|139:188|222:178,1,131.25000500679,2|0,0:0|0:0,0:0:0:0:
240,161,2255,2,0,L|218:295,1,131.25000500679,2|0,0:0|0:0,0:0:0:0:
213,327,2705,1,2,0:0:0:0:
483,284,3005,6,0,P|421:258|328:323,1,183.750007009506,6|0,1:2|0:0,0:0:0:0:
348,349,3605,2,0,L|328:228,1,105.000004005432,2|2,0:0|0:0,0:0:0:0:
125,112,4205,2,0,L|193:99,1,52.5000020027161,6|0,1:2|0:0,0:0:0:0:
252,86,4505,1,2,0:0:0:0:
96,187,4805,1,2,3:2:0:0:
324,211,5105,1,2,3:2:0:0:
66,55,5405,5,6,1:2:0:0:
281,21,5705,2,0,L|293:86,1,52.5000020027161,0|0,1:0|1:0,0:0:0:0:
384,58,6005,2,0,L|377:121,1,52.5000020027161,8|8,1:2|1:2,0:0:0:0:
451,169,6305,1,8,1:2:0:0:
463,88,6455,1,8,1:2:0:0:
367,196,6605,1,12,1:2:0:0:
155,173,6905,6,0,P|150:147|132:118,1,52.5000020027161,2|0,0:0|0:0,0:0:0:0:
54,184,7205,2,0,L|161:222,1,105.000004005432,2|2,3:2|3:0,0:0:0:0:
294,111,7655,1,2,3:0:0:0:
294,111,7730,1,0,3:0:0:0:
294,111,7805,6,0,P|347:72|430:80,1,140,6|8,1:2|0:0,0:0:0:0:
471,145,8255,1,0,0:0:0:0:
283,206,8405,2,0,L|251:60,1,140,2|8,1:2|0:0,0:0:0:0:
174,17,8855,1,0,0:0:0:0:
152,193,9005,6,0,P|215:220|283:206,1,140,6|8,1:2|0:0,0:0:0:0:
125,99,9455,2,0,P|75:131|54:216,1,140,2|0,1:2|1:0,0:0:0:0:
181,300,9905,1,10,0:0:0:0:
152,193,10055,1,0,0:0:0:0:
312,274,10205,6,0,B|277:300|277:300|166:300,1,140,6|8,1:2|0:0,0:0:0:0:
152,193,10655,1,0,0:0:0:0:
307,191,10805,1,0,1:0:0:0:
307,191,10955,1,0,1:0:0:0:
195,121,11105,2,0,L|177:34,1,70,10|2,0:0|0:0,0:0:0:0:
335,71,11405,6,0,L|256:61,1,70,6|0,1:2|0:0,0:0:0:0:
408,36,11705,1,10,0:0:0:0:
389,141,11855,1,0,1:0:0:0:
447,18,12005,1,10,0:0:0:0:
476,147,12155,1,0,1:0:0:0:
371,55,12305,2,0,P|332:71|305:116,1,70,10|0,0:0|1:0,0:0:0:0:
381,228,12605,6,0,P|445:207|476:146,1,140,6|8,1:2|0:0,0:0:0:0:
389,141,13055,1,0,0:0:0:0:
293,227,13205,1,2,1:2:0:0:
293,227,13355,1,0,1:0:0:0:
333,308,13505,2,0,L|349:392,1,70,8|0,0:0|0:0,0:0:0:0:
171,300,13805,6,0,B|106:284|106:326|33:298,1,140,6|8,1:2|0:0,0:0:0:0:
143,384,14255,2,0,L|163:240,1,140,2|0,1:2|1:0,0:0:0:0:
136,159,14705,1,10,0:0:0:0:
74,225,14855,1,2,0:0:0:0:
248,250,15005,6,0,P|292:242|323:216,1,70,6|0,1:2|0:0,0:0:0:0:
486,217,15305,2,0,P|449:189|434:153,1,70,2|0,0:0|1:0,0:0:0:0:
317,93,15605,2,0,P|327:57|325:7,1,70,10|0,0:0|0:0,0:0:0:0:
200,41,15905,1,2,0:0:0:0:
341,126,16055,6,0,B|409:155|431:98|499:137|499:137|531:173|513:236|513:236|526:254|526:254|482:314|500:376|500:376|486:329|437:314,1,490,6|0,1:2|1:0,0:0:0:0:
218,276,17405,6,0,L|309:255,1,70,6|0,1:2|0:0,0:0:0:0:
209,365,17705,2,0,L|118:386,1,70,2|0,1:2|0:0,0:0:0:0:
95,249,18005,2,0,P|147:234|224:289,1,140,2|2,1:2|1:2,0:0:0:0:
252,185,18455,1,2,0:2:0:0:
384,234,18605,6,0,L|396:307,1,70,4|0,1:2|0:0,0:0:0:0:
428,160,18905,2,0,L|438:90,1,70,2|0,1:2|0:0,0:0:0:0:
300,46,19205,1,2,1:2:0:0:
379,25,19355,1,0,0:0:0:0:
219,74,19505,2,0,L|133:57,1,70,2|0,1:2|0:0,0:0:0:0:
25,144,19805,6,0,P|18:181|29:227,1,70,6|0,1:2|0:0,0:0:0:0:
126,292,20105,2,0,P|133:255|122:209,1,70,2|0,1:2|0:0,0:0:0:0:
240,168,20405,2,0,L|325:154,1,70,2|0,1:2|0:0,0:0:0:0:
371,91,20705,1,2,1:2:0:0:
389,238,20855,1,2,0:0:0:0:
240,168,21005,6,0,P|263:144|315:126,1,70,4|0,1:2|0:0,0:0:0:0:
399,162,21305,2,0,P|432:174|463:217,1,70,0|0,1:0|0:0,0:0:0:0:
438,301,21605,2,0,P|438:336|408:379,1,70,0|0,1:0|0:0,0:0:0:0:
226,326,21905,2,0,P|257:311|303:314,1,70,2|0,1:2|0:0,0:0:0:0:
151,384,22205,6,0,P|131:319|177:243,1,140,6|2,1:2|1:2,0:0:0:0:
272,220,22655,2,0,P|221:230|146:166,1,140,2|0,0:0|0:0,0:0:0:0:
282,135,23105,1,2,1:2:0:0:
354,184,23255,1,2,0:0:0:0:
342,331,23405,6,0,B|305:313|305:313|267:206,1,140,6|2,1:2|1:2,0:0:0:0:
390,117,23855,2,0,L|368:263,1,140,2|0,0:0|0:0,0:0:0:0:
512,305,24305,1,2,1:2:0:0:
429,319,24455,1,2,0:0:0:0:
300,242,24605,6,0,L|393:259,1,70,6|0,1:2|0:0,0:0:0:0:
406,143,24905,2,0,L|397:95,3,35,2|2|2|2,1:2|0:0|0:0|0:0,0:0:0:0:
430,80,25205,2,0,L|439:32,3,35,2|2|2|2,1:2|0:0|0:0|0:0,0:0:0:0:
412,9,25505,1,2,1:2:0:0:
194,155,25805,5,2,1:2:0:0:
165,48,25955,1,0,1:0:0:0:
175,183,26105,1,0,1:0:0:0:
254,80,26255,1,2,1:2:0:0:
120,120,26405,2,0,P|97:150|90:192,1,70,2|0,1:2|1:0,0:0:0:0:
161,277,26705,5,2,0:0:0:0:
195,271,26780,1,2,0:0:0:0:
229,266,26855,1,2,0:0:0:0:
263,261,26930,1,2,0:0:0:0:
297,254,27005,6,0,P|325:279|337:326,1,70,6|0,1:2|0:0,0:0:0:0:
460,380,27305,2,0,P|465:346|487:316,1,70,10|0,0:0|0:0,0:0:0:0:
405,186,27605,2,0,P|343:196|293:268,1,140,2|10,1:2|0:0,0:0:0:0:
134,340,28055,6,0,P|74:341|1:279,1,140,2|0,1:2|1:0,0:0:0:0:
157,243,28505,2,0,L|137:333,1,70,10|0,0:0|0:0,0:0:0:0:
110,165,28805,1,2,1:2:0:0:
246,224,28955,1,0,1:0:0:0:
56,233,29105,2,0,P|32:204|24:160,1,70,10|0,0:0|0:0,0:0:0:0:
152,39,29405,6,0,P|115:90|111:172,1,140,6|10,1:2|0:0,0:0:0:0:
246,224,29855,2,0,P|311:200|392:212,1,140,2|2,1:2|1:2,0:0:0:0:
432,280,30305,1,8,0:0:0:0:
388,116,30455,6,0,P|379:80|434:110,1,140,6|0,1:2|1:0,0:0:0:0:
380,207,30905,1,8,0:0:0:0:
274,162,31055,1,2,0:0:0:0:
269,80,31205,2,0,L|189:68,1,70,2|2,1:2|1:2,0:0:0:0:
69,11,31505,2,0,L|138:0,1,70,10|2,0:0|0:0,0:0:0:0:
111,151,31805,6,0,P|98:193|139:283,1,140,6|10,1:2|0:0,0:0:0:0:
273,209,32255,2,0,P|251:201|185:204,2,70,2|0|0,0:0|1:0|1:0,0:0:0:0:
332,270,32705,1,8,0:0:0:0:
388,211,32855,1,0,0:0:0:0:
265,86,33005,6,0,P|213:130|215:224,1,140,6|10,1:2|0:0,0:0:0:0:
332,165,33455,2,0,P|274:173|322:204,1,140,2|0,1:2|1:0,0:0:0:0:
413,125,33905,2,0,P|393:95|363:74,1,70,10|0,0:0|0:0,0:0:0:0:
408,216,34205,6,0,P|465:204|508:130,1,140,6|10,1:2|0:0,0:0:0:0:
332,165,34655,2,0,L|402:228,1,70,2|0,1:2|1:0,0:0:0:0:
364,353,34955,2,0,L|294:290,1,70,0|8,1:0|0:0,0:0:0:0:
161,279,35255,2,0,P|154:315|214:288,1,140,4|0,1:2|0:0,0:0:0:0:
142,208,35705,5,2,1:2:0:0:
256,15,36005,1,2,1:2:0:0:
370,208,36305,1,2,0:0:0:0:
181,143,36605,5,6,1:2:0:0:
331,143,36905,1,2,0:0:0:0:
369,43,37055,2,0,L|343:114,1,70,2|8,0:0|0:0,0:0:0:0:
181,143,37505,1,2,0:0:0:0:
143,43,37655,2,0,L|169:114,1,70,2|0,0:0|1:0,0:0:0:0:
195,183,37955,1,0,1:0:0:0:
369,43,38255,5,0,1:0:0:0:
474,12,38405,2,0,L|398:32,1,70,10|0,0:0|0:0,0:0:0:0:
355,130,38705,2,0,L|431:110,1,70,2|0,3:2|3:0,0:0:0:0:
288,73,39005,2,0,P|266:135|305:203,1,140,6|2,1:2|0:0,0:0:0:0:
390,217,39455,2,0,P|333:220|275:280,1,140,2|2,1:2|0:0,0:0:0:0:
433,293,39905,1,2,0:0:0:0:
480,219,40055,1,2,0:0:0:0:
374,148,40205,6,0,L|392:228,1,70,6|0,1:2|3:0,0:0:0:0:
296,240,40505,2,0,L|351:300,1,70,8|6,0:0|3:2,0:0:0:0:
433,293,40805,1,6,3:2:0:0:
300,361,40955,1,0,3:0:0:0:
157,307,41105,2,0,L|106:249,1,70,2|0,3:2|3:0,0:0:0:0:
174,131,41405,6,0,P|177:199|121:259,1,125.999996154785,6|0,1:2|0:0,0:0:0:0:
110,254,41705,1,10,0:2:0:0:
156,5,42005,1,2,1:2:0:0:
254,26,42155,1,0,1:0:0:0:
352,51,42305,1,10,0:0:0:0:
272,158,42455,5,2,1:2:0:0:
156,5,42755,1,2,1:2:0:0:
254,26,42905,1,8,0:0:0:0:
174,131,43055,2,0,P|101:121|44:70,1,140,2|0,1:2|1:0,0:0:0:0:
26,187,43505,2,0,L|38:277,1,70,10|0,0:0|0:0,0:0:0:0:
170,298,43805,6,0,P|130:251|68:246,1,125.999996154785,6|0,1:2|0:0,0:0:0:0:
35,256,44105,1,10,0:0:0:0:
257,217,44405,1,2,1:2:0:0:
277,124,44555,1,0,1:0:0:0:
298,33,44705,1,10,0:0:0:0:
442,109,44855,5,6,1:2:0:0:
210,60,45155,2,0,L|121:45,1,70,2|8,1:2|0:0,0:0:0:0:
22,29,45455,2,0,P|76:44|111:141,1,140,2|0,1:2|1:0,0:0:0:0:
49,217,45905,5,10,3:0:0:0:
83,223,45980,1,2,0:0:0:0:
117,229,46055,1,2,3:2:0:0:
151,234,46130,1,2,0:0:0:0:
185,240,46205,6,0,L|207:323,1,70,6|0,1:2|1:0,0:0:0:0:
282,359,46505,1,0,1:0:0:0:
327,203,46655,2,0,L|344:135,1,70,4|0,1:2|1:0,0:0:0:0:
369,45,46955,1,0,1:0:0:0:
220,98,47105,6,0,P|182:98|139:73,1,70,4|0,1:2|1:0,0:0:0:0:
111,6,47405,1,0,1:0:0:0:
30,148,47555,2,0,P|20:185|23:226,1,70,4|0,1:2|1:0,0:0:0:0:
72,296,47855,1,0,1:0:0:0:
223,227,48005,1,2,1:2:0:0:
111,218,48155,1,2,1:2:0:0:
251,315,48305,1,2,1:2:0:0:
212,190,48455,1,2,1:2:0:0:
57,328,48605,6,0,B|88:361|88:361|197:374,1,140,6|8,1:2|0:0,0:0:0:0:
376,359,49055,2,0,B|345:326|345:326|236:313,1,140,2|0,1:2|1:0,0:0:0:0:
142,182,49505,2,0,L|221:191,1,70,10|0,0:0|1:0,0:0:0:0:
274,116,49805,1,2,1:2:0:0:
405,186,49955,1,8,0:0:0:0:
391,271,50105,1,8,0:0:0:0:
376,359,50255,1,8,0:0:0:0:
235,311,50405,6,0,L|304:299,1,70,2|2,0:0|0:0,0:0:0:0:
394,131,51005,6,0,P|359:113|246:141,1,140,6|8,1:2|0:0,0:0:0:0:
324,213,51455,1,0,0:0:0:0:
415,55,51605,2,0,P|412:121|468:182,1,140,2|8,1:2|0:0,0:0:0:0:
487,274,52055,1,0,0:0:0:0:
322,336,52205,6,0,B|276:352|276:352|169:330,1,140,2|8,1:2|0:0,0:0:0:0:
141,252,52655,1,0,0:0:0:0:
330,226,52805,2,0,L|356:375,1,140,2|8,1:2|0:0,0:0:0:0:
456,366,53255,1,0,0:0:0:0:
421,186,53405,6,0,L|437:96,1,70,6|0,1:2|0:0,0:0:0:0:
304,29,53705,2,0,L|316:97,1,70,8|0,0:0|0:0,0:0:0:0:
231,167,54005,1,2,1:2:0:0:
116,132,54155,1,0,1:0:0:0:
261,141,54305,2,0,L|323:92,1,70,8|0,0:0|0:0,0:0:0:0:
484,47,54605,6,0,P|500:83|500:125,1,70,2|0,1:2|0:0,0:0:0:0:
396,235,54905,2,0,P|381:266|378:301,1,70,8|0,0:0|1:0,0:0:0:0:
490,206,55205,1,10,0:0:0:0:
366,220,55355,1,0,1:0:0:0:
415,108,55505,1,10,0:0:0:0:
471,230,55655,1,0,1:0:0:0:
292,125,55805,6,0,B|222:104|225:147|155:123,1,140,6|8,1:2|0:0,0:0:0:0:
194,40,56255,1,0,0:0:0:0:
256,210,56405,2,0,P|302:182|323:84,1,140,2|8,1:2|0:0,0:0:0:0:
403,41,56855,1,0,0:0:0:0:
393,208,57005,6,0,B|326:227|325:183|243:214,1,140,2|8,1:2|0:0,0:0:0:0:
293,294,57455,1,0,0:0:0:0:
361,120,57605,2,0,P|401:143|423:239,1,140,2|8,1:2|0:0,0:0:0:0:
393,324,58055,1,0,0:0:0:0:
198,267,58205,6,0,P|161:271|130:288,1,70,6|0,1:2|0:0,0:0:0:0:
63,187,58505,2,0,P|32:208|14:239,1,70,8|0,0:0|1:0,0:0:0:0:
39,326,58805,1,8,0:0:0:0:
192,359,58955,1,0,1:0:0:0:
145,199,59105,1,10,0:0:0:0:
29,370,59255,6,0,P|6:309|16:235,1,140,10|2,0:0|1:2,0:0:0:0:
104,179,59705,1,10,0:0:0:0:
274,252,59855,2,0,P|314:252|358:236,1,70,2|10,1:2|0:0,0:0:0:0:
322,74,60155,2,0,P|282:74|238:90,1,70,2|10,1:2|0:0,0:0:0:0:
298,164,60455,1,2,1:2:0:0:
347,0,60605,6,0,P|274:-1|197:26,1,140,6|8,1:2|0:0,0:0:0:0:
157,104,61055,1,2,1:2:0:0:
289,199,61205,2,0,P|354:224|432:217,1,140,2|8,1:2|0:0,0:0:0:0:
318,96,61655,6,0,L|294:176,1,70,2|0,1:2|0:0,0:0:0:0:
148,200,61955,2,0,L|229:180,1,70,2|8,1:2|0:0,0:0:0:0:
324,292,62255,2,0,L|266:231,1,70,2|0,0:0|0:0,0:0:0:0:
236,109,62555,1,0,1:0:0:0:
205,261,62705,1,8,0:0:0:0:
352,214,62855,1,0,0:0:0:0:
148,200,63005,6,0,P|127:234|160:332,1,140,2|10,1:2|0:0,0:0:0:0:
298,286,63455,2,0,L|215:265,1,70,2|0,0:2|0:0,0:0:0:0:
378,222,63755,2,0,L|461:243,1,70,2|8,1:2|0:0,0:0:0:0:
344,67,64055,6,0,L|234:173,1,140,6|0,0:0|1:0,0:0:0:0:
150,139,64505,1,8,0:0:0:0:
171,235,64655,1,0,1:0:0:0:
215,68,64805,2,0,L|200:0,1,70,6|0,1:2|0:0,0:0:0:0:
310,100,65105,2,0,L|325:168,1,70,10|0,0:0|0:0,0:0:0:0:
470,253,65405,6,0,P|468:195|430:236,1,140,6|10,1:2|0:0,0:0:0:0:
491,375,65855,2,0,P|508:331|468:251,1,140,2|0,1:2|0:0,0:0:0:0:
354,313,66305,2,0,L|438:324,1,70,10|0,0:0|0:0,0:0:0:0:
281,384,66605,6,0,B|185:371|185:371|145:331,1,140,6|8,1:2|0:0,0:0:0:0:
238,196,67055,1,2,1:2:0:0:
330,220,67205,1,0,0:0:0:0:
354,313,67355,1,0,0:0:0:0:
320,174,67505,2,0,L|339:95,1,70,10|0,0:0|0:0,0:0:0:0:
217,19,67805,6,0,P|174:29|146:56,1,70,6|0,1:2|1:0,0:0:0:0:
48,0,68105,2,0,P|35:42|44:79,1,70,8|2,0:0|1:2,0:0:0:0:
117,153,68405,1,8,0:0:0:0:
226,113,68555,1,2,1:2:0:0:
94,130,68705,1,10,0:0:0:0:
258,204,68855,6,0,P|312:156|319:88,1,140,10|0,0:0|0:0,0:0:0:0:
226,113,69305,1,0,1:0:0:0:
233,238,69455,1,0,1:0:0:0:
151,198,69605,6,0,B|228:198,1,70,2|2,0:0|0:0,0:0:0:0:
446,192,70205,6,0,B|488:103|488:103|486:53,1,140,6|8,1:2|0:0,0:0:0:0:
414,0,70655,1,0,0:0:0:0:
322,154,70805,2,0,P|353:184|454:188,1,140,2|8,1:2|0:0,0:0:0:0:
407,104,71255,1,0,0:0:0:0:
226,147,71405,6,0,B|133:168|133:168|85:149,1,140,2|8,1:2|0:0,0:0:0:0:
45,72,71855,1,0,0:0:0:0:
222,18,72005,2,0,P|247:81|225:146,1,140,2|8,1:2|0:0,0:0:0:0:
152,84,72455,1,0,0:0:0:0:
327,22,72605,6,0,P|364:22|408:43,1,70,6|0,1:2|0:0,0:0:0:0:
498,139,72905,2,0,P|465:150|430:150,1,70,8|0,0:0|0:0,0:0:0:0:
340,118,73205,1,2,1:2:0:0:
395,230,73355,1,0,1:0:0:0:
357,92,73505,2,0,L|394:32,1,70,8|0,0:0|0:0,0:0:0:0:
498,139,73805,6,0,P|511:174|510:216,1,70,2|0,1:2|0:0,0:0:0:0:
381,297,74105,2,0,P|382:262|394:229,1,70,8|0,0:0|1:0,0:0:0:0:
340,118,74405,1,10,0:0:0:0:
303,224,74555,1,0,1:0:0:0:
260,88,74705,1,10,0:0:0:0:
268,240,74855,1,0,1:0:0:0:
111,169,75005,6,0,P|68:210|72:295,1,140,6|8,1:2|0:0,0:0:0:0:
143,333,75455,1,0,0:0:0:0:
189,174,75605,2,0,B|152:113|152:113|111:168,1,140,2|8,1:2|0:0,0:0:0:0:
142,249,76055,1,0,0:0:0:0:
263,160,76205,6,0,P|311:192|322:273,1,140,2|8,1:2|0:0,0:0:0:0:
257,326,76655,1,0,0:0:0:0:
189,174,76805,2,0,B|217:109|217:109|267:164,1,140,2|8,1:2|0:0,0:0:0:0:
242,243,77255,1,0,0:0:0:0:
110,168,77405,6,0,L|92:77,1,70,6|0,1:2|1:0,0:0:0:0:
51,237,77705,2,0,L|69:328,1,70,8|0,0:0|1:0,0:0:0:0:
171,312,78005,1,10,0:0:0:0:
44,338,78155,1,0,1:0:0:0:
189,345,78305,1,10,0:0:0:0:
51,237,78455,6,0,P|93:188|178:171,1,140,10|0,0:0|0:0,0:0:0:0:
242,216,78905,1,8,0:0:0:0:
329,86,79055,2,0,P|331:46|314:6,1,70,2|10,1:2|0:0,0:0:0:0:
328,176,79355,2,0,P|367:168|399:143,1,70,2|10,1:2|0:0,0:0:0:0:
415,64,79655,1,2,1:2:0:0:
252,129,79805,6,0,P|244:201|289:256,1,140,6|8,1:2|0:0,0:0:0:0:
377,257,80255,1,2,1:2:0:0:
254,338,80405,2,0,P|183:351|107:310,1,140,2|8,1:2|0:0,0:0:0:0:
246,230,80855,2,0,P|264:264|265:312,1,70,2|0,1:2|0:0,0:0:0:0:
163,222,81155,2,0,P|124:220|82:197,1,70,2|8,1:2|0:0,0:0:0:0:
211,152,81455,2,0,P|231:119|272:94,1,70,2|0,0:0|0:0,0:0:0:0:
386,142,81755,1,0,1:0:0:0:
499,52,81905,1,8,0:0:0:0:
368,0,82055,1,0,0:0:0:0:
392,178,82205,6,0,B|372:289|372:289|356:248,1,140,2|10,1:2|0:0,0:0:0:0:
183,216,82655,2,0,L|216:303,1,70,2|0,0:0|0:0,0:0:0:0:
313,351,82955,2,0,L|280:264,1,70,2|8,1:2|0:0,0:0:0:0:
285,110,83255,2,0,P|352:121|391:177,1,140,6|0,0:0|1:0,0:0:0:0:
305,195,83705,1,8,0:0:0:0:
202,103,83855,1,0,1:0:0:0:
172,233,84005,6,0,L|154:314,2,46.6666666666667,12|4|4,3:0|3:0|3:0,0:0:0:0:
101,194,84305,2,0,L|90:148,2,46.6666666666667,12|0|4,3:0|3:0|3:0,0:0:0:0:
9,119,84605,6,0,P|49:74|141:85,1,140,6|2,1:2|0:0,0:0:0:0:
242,135,85055,2,0,L|164:144,1,70,2|8,1:2|1:2,0:0:0:0:
172,233,85355,2,0,L|94:242,1,70,2|0,0:0|1:0,0:0:0:0:
256,221,85655,6,0,P|304:201|329:114,1,140,2|0,1:2|0:0,0:0:0:0:
373,43,86105,2,0,L|451:52,1,70,2|0,0:0|0:0,0:0:0:0:
443,141,86405,2,0,L|521:150,1,70,2|0,0:0|0:0,0:0:0:0:
502,237,86705,2,0,L|424:228,1,70,2|0,0:0|0:0,0:0:0:0:
330,332,87005,5,6,1:2:0:0:
256,192,87080,12,6,88205,1:2:0:0:
317,169,88505,5,2,0:0:0:0:
178,116,88655,1,2,3:2:0:0:
315,65,88805,2,0,L|300:134,1,70,2|0,3:2|0:0,0:0:0:0:
152,144,89105,1,2,0:0:0:0:
214,291,89255,1,2,0:0:0:0:
208,325,89330,1,2,0:0:0:0:
201,359,89405,5,6,1:2:0:0:
256,192,89480,12,0,91205,1:0:0:0:
256,192,91505,5,10,0:0:0:0:
438,125,91805,6,0,B|376:156|368:104|294:130,1,140,6|8,1:2|0:0,0:0:0:0:
335,204,92255,1,0,0:0:0:0:
402,59,92405,1,0,1:0:0:0:
402,59,92555,1,0,1:0:0:0:
223,123,92705,2,0,L|203:35,1,70,10|2,0:0|0:0,0:0:0:0:
28,106,93005,6,0,P|64:98|102:107,1,70,6|0,1:2|0:0,0:0:0:0:
109,272,93305,1,10,0:0:0:0:
63,176,93455,1,0,1:0:0:0:
15,298,93605,1,2,0:0:0:0:
83,185,93755,1,0,1:0:0:0:
200,253,93905,2,0,L|279:269,1,70,10|0,0:0|1:0,0:0:0:0:
448,312,94205,6,0,P|439:245|376:196,1,140,6|8,1:2|0:0,0:0:0:0:
466,150,94655,1,0,0:0:0:0:
360,289,94805,1,2,1:2:0:0:
360,289,94955,1,0,1:0:0:0:
252,183,95105,2,0,L|168:167,1,70,8|0,0:0|0:0,0:0:0:0:
57,213,95405,6,0,P|66:150|139:87,1,140,6|8,1:2|0:0,0:0:0:0:
158,294,95855,2,0,B|90:275|85:316|19:291,1,140,2|0,1:2|1:0,0:0:0:0:
187,221,96305,1,10,0:0:0:0:
251,363,96455,1,2,0:0:0:0:
343,244,96605,6,0,L|429:221,1,70,6|0,1:2|0:0,0:0:0:0:
441,40,96905,2,0,L|528:57,1,70,2|0,0:0|1:0,0:0:0:0:
350,157,97205,2,0,L|322:72,1,70,10|0,0:0|0:0,0:0:0:0:
251,56,97505,1,2,0:0:0:0:
220,218,97655,6,0,B|187:211|162:182|162:182|133:200|88:206,1,140,6|0,1:2|3:0,0:0:0:0:
179,104,98105,1,0,3:0:0:0:
240,303,98255,2,0,B|273:296|298:267|298:267|327:285|372:291,1,140,4|0,1:2|1:0,0:0:0:0:
378,310,98630,1,0,1:0:0:0:
393,330,98705,1,0,1:2:0:0:
97,50,99005,6,0,L|82:138,1,70,6|0,1:2|0:0,0:0:0:0:
179,104,99305,2,0,L|210:187,1,70,10|0,0:0|0:0,0:0:0:0:
282,115,99605,2,0,L|355:176,1,70,2|0,1:2|1:0,0:0:0:0:
234,25,99905,1,10,0:0:0:0:
431,57,100055,6,0,L|403:210,1,140,6|0,1:2|1:0,0:0:0:0:
495,230,100505,2,0,L|430:303,1,70,10|0,0:0|0:0,0:0:0:0:
512,356,100805,2,0,L|419:387,1,70,2|0,1:2|1:0,0:0:0:0:
298,348,101105,2,0,L|391:317,1,70,10|0,0:0|0:0,0:0:0:0:
318,168,101405,6,0,P|268:136|180:154,1,140,6|10,1:2|0:0,0:0:0:0:
242,224,101855,1,0,0:0:0:0:
329,70,102005,1,2,1:2:0:0:
366,152,102155,1,0,1:0:0:0:
403,233,102305,1,10,0:0:0:0:
242,224,102455,6,0,P|197:173|208:83,1,140,6|0,1:2|1:0,0:0:0:0:
349,113,102905,2,0,P|314:135|266:142,1,70,8|0,0:0|0:0,0:0:0:0:
310,26,103205,1,0,1:0:0:0:
408,37,103355,1,0,1:0:0:0:
508,148,103505,2,0,L|494:240,1,70,10|0,0:0|0:0,0:0:0:0:
389,359,103805,6,0,B|368:316|368:316|384:220,1,140,6|10,1:2|0:0,0:0:0:0:
486,297,104255,2,0,P|419:283|383:225,1,140,2|0,0:0|1:0,0:0:0:0:
443,106,104705,2,0,P|407:92|360:94,1,70,10|0,0:0|0:0,0:0:0:0:
232,165,105005,6,0,B|186:183|186:183|87:161,1,140,6|10,1:2|0:0,0:0:0:0:
187,70,105455,2,0,P|159:132|98:163,1,140,2|0,1:2|1:0,0:0:0:0:
84,57,105905,1,10,0:0:0:0:
146,0,106055,1,2,0:0:0:0:
269,89,106205,6,0,B|337:107|338:67|407:90,1,140,6|10,1:2|0:0,0:0:0:0:
426,214,106655,2,0,P|393:167|416:77,1,140,2|0,0:0|0:0,0:0:0:0:
509,190,107105,2,0,P|512:229|497:267,1,70,10|0,0:0|0:0,0:0:0:0:
411,314,107405,5,2,1:2:0:0:
426,214,107555,1,0,1:0:0:0:
443,340,107705,1,0,1:0:0:0:
322,249,107855,1,10,1:2:0:0:
502,257,108005,2,0,P|510:239|514:215,4,35,2|0|0|0|2,1:2|1:0|1:0|1:0|1:2,0:0:0:0:
306,82,108605,6,0,L|229:97,1,70,6|0,1:2|0:0,0:0:0:0:
185,23,108905,2,0,L|125:74,1,70,10|0,0:0|0:0,0:0:0:0:
0,85,109205,2,0,L|59:33,1,70,2|0,1:2|1:0,0:0:0:0:
185,23,109505,1,10,0:0:0:0:
102,161,109655,6,0,L|56:296,1,140,6|0,1:2|1:0,0:0:0:0:
148,292,110105,2,0,L|167:384,1,70,10|0,0:0|0:0,0:0:0:0:
247,332,110405,2,0,L|309:402,1,70,2|0,1:2|1:0,0:0:0:0:
290,235,110705,2,0,L|227:164,1,70,10|0,0:0|0:0,0:0:0:0:
320,52,111005,6,0,P|369:46|436:123,1,140,6|10,1:2|0:0,0:0:0:0:
450,229,111455,2,0,P|418:175|436:97,1,140,2|2,1:2|1:2,0:0:0:0:
316,272,112055,6,0,B|276:299|276:299|166:299,1,140,6|0,1:2|1:0,0:0:0:0:
96,298,112505,1,8,0:0:0:0:
183,216,112655,2,0,L|269:216,1,70,2|2,0:0|1:2,0:0:0:0:
387,163,112955,2,0,L|301:163,1,70,2|10,1:2|0:0,0:0:0:0:
253,111,113255,1,2,0:0:0:0:
422,79,113405,6,0,P|458:104|465:210,1,140,6|10,1:2|0:0,0:0:0:0:
320,267,113855,2,0,P|330:200|386:163,1,140,2|0,0:0|1:0,0:0:0:0:
403,247,114305,1,8,0:0:0:0:
152,281,114605,6,0,P|175:317|281:328,1,140,6|10,1:2|0:0,0:0:0:0:
343,185,115055,2,0,P|275:192|235:248,1,140,2|0,1:2|1:0,0:0:0:0:
320,267,115505,2,0,P|358:269|402:250,1,70,10|0,0:0|0:0,0:0:0:0:
444,97,115805,5,6,1:2:0:0:
223,88,116105,1,10,0:0:0:0:
311,123,116255,2,0,P|319:87|304:41,1,70,2|0,1:2|1:0,0:0:0:0:
135,53,116555,2,0,P|127:89|142:135,1,70,0|8,1:0|0:0,0:0:0:0:
280,207,116855,6,0,P|243:207|171:288,1,140,4|0,1:2|1:0,0:0:0:0:
337,288,117305,2,0,P|333:254|300:214,1,70,10|0,0:0|1:0,0:0:0:0:
293,361,117605,2,0,P|333:374|388:358,1,93.3333333333333,4|4,3:0|3:0,0:0:0:0:
484,343,117905,2,0,P|444:330|385:352,1,93.3333333333333,4|4,3:0|3:0,0:0:0:0:
254,290,118205,5,4,1:2:0:0:
254,290,119105,1,10,0:0:0:0:
142,213,119255,6,0,P|84:183|122:293,1,280,4|0,1:2|1:0,0:0:0:0:
204,277,120005,1,2,3:2:0:0:
264,339,120155,1,0,3:0:0:0:
180,359,120305,1,2,3:2:0:0:
246,132,120605,6,0,B|290:114|290:114|397:133,1,140,6|2,1:2|3:2,0:0:0:0:
405,254,121055,2,0,P|373:215|388:120,1,140,2|0,3:2|3:0,0:0:0:0:
487,210,121505,2,0,P|499:248|494:288,1,70,10|0,3:2|3:0,0:0:0:0:
430,345,121805,5,6,3:2:0:0:
430,345,121955,1,0,3:0:0:0:
364,248,122105,1,8,3:2:0:0:
364,248,122255,1,2,3:2:0:0:
295,380,122405,1,2,3:2:0:0:
156,305,122555,1,0,3:0:0:0:
297,227,122705,2,0,L|371:250,1,70,10|0,3:2|3:0,0:0:0:0:
310,128,123005,6,0,L|177:170,1,125.999996154785,6|0,1:2|0:0,0:0:0:0:
156,176,123305,1,10,0:0:0:0:
202,0,123605,1,2,1:2:0:0:
180,86,123755,1,0,1:0:0:0:
156,176,123905,1,10,0:0:0:0:
310,128,124055,5,2,1:2:0:0:
151,61,124355,1,2,1:2:0:0:
256,55,124505,1,8,0:0:0:0:
330,164,124655,2,0,P|383:186|468:148,1,140,2|0,1:2|1:0,0:0:0:0:
393,96,125105,2,0,L|393:183,1,70,10|0,0:0|0:0,0:0:0:0:
310,300,125405,6,0,L|172:323,1,125.999996154785,6|0,1:2|0:0,0:0:0:0:
151,326,125705,1,10,0:0:0:0:
207,145,126005,1,2,1:2:0:0:
259,222,126155,1,0,1:0:0:0:
310,300,126305,1,10,0:0:0:0:
151,326,126455,5,6,1:2:0:0:
272,189,126755,2,0,L|299:104,1,70,2|8,1:2|0:0,0:0:0:0:
424,74,127055,2,0,L|465:230,1,140,2|0,1:2|1:0,0:0:0:0:
389,318,127505,5,10,0:3:0:0:
357,303,127580,1,2,0:0:0:0:
322,295,127655,1,2,3:2:0:0:
287,299,127730,1,2,0:0:0:0:
255,314,127805,6,0,P|225:341|207:385,1,70,6|0,1:2|1:0,0:0:0:0:
119,379,128105,1,0,1:0:0:0:
196,245,128255,2,0,P|237:256|271:287,1,70,4|0,1:2|1:0,0:0:0:0:
338,225,128555,1,0,1:0:0:0:
202,139,128705,6,0,L|184:233,1,70,4|0,1:2|1:0,0:0:0:0:
117,269,129005,1,0,1:0:0:0:
20,149,129155,2,0,L|3:80,1,70,4|0,1:2|1:0,0:0:0:0:
56,12,129455,1,0,1:0:0:0:
110,142,129605,1,2,1:2:0:0:
150,44,129755,1,2,1:2:0:0:
64,147,129905,1,2,1:2:0:0:
202,139,130055,1,2,1:2:0:0:
53,240,130205,6,0,P|85:293|167:314,1,140,6|8,1:2|0:0,0:0:0:0:
320,276,130655,2,0,P|250:267|176:323,1,140,2|0,1:2|3:0,0:0:0:0:
363,269,131105,2,0,P|379:237|379:192,1,70,10|0,0:0|3:0,0:0:0:0:
329,125,131405,1,6,1:2:0:0:
390,50,131555,1,0,1:0:0:0:
293,36,131705,1,8,0:0:0:0:
197,23,131855,1,0,3:0:0:0:
232,104,132005,6,0,L|238:148,3,35,2|0|0|0,3:2|3:0|3:0|3:0,0:0:0:0:
174,186,132305,1,2,3:0:0:0:
169,220,132380,1,2,3:0:0:0:
164,254,132455,1,2,3:0:0:0:
160,288,132530,1,2,3:0:0:0:
185,312,132605,6,0,P|116:316|50:259,1,140,6|8,1:2|0:0,0:0:0:0:
241,257,133055,1,0,0:0:0:0:
18,243,133205,2,0,P|51:307|122:338,1,140,2|8,1:2|0:0,0:0:0:0:
185,312,133655,1,0,0:0:0:0:
303,134,133805,6,0,P|361:104|455:122,1,140,2|8,1:2|0:0,0:0:0:0:
295,208,134255,1,0,0:0:0:0:
476,85,134405,2,0,P|417:62|332:75,1,140,2|8,1:2|0:0,0:0:0:0:
303,134,134855,1,0,0:0:0:0:
415,300,135005,6,0,P|452:299|493:280,1,70,6|0,1:2|0:0,0:0:0:0:
361,223,135305,2,0,P|327:209|279:211,1,70,8|0,0:0|0:0,0:0:0:0:
181,245,135605,1,2,1:2:0:0:
237,355,135755,1,0,1:0:0:0:
161,215,135905,2,0,L|177:133,1,70,8|0,0:0|0:0,0:0:0:0:
316,69,136205,6,0,P|348:83|392:80,1,70,2|0,1:2|0:0,0:0:0:0:
512,162,136505,2,0,P|480:176|436:173,1,70,8|0,0:0|1:0,0:0:0:0:
346,177,136805,1,10,0:0:0:0:
464,93,136955,1,0,1:0:0:0:
471,233,137105,1,10,0:0:0:0:
422,83,137255,1,0,1:0:0:0:
335,264,137405,6,0,P|294:251|259:158,1,140,6|8,1:2|0:0,0:0:0:0:
346,177,137855,1,0,0:0:0:0:
256,326,138005,2,0,B|214:341|214:341|118:323,1,140,2|8,1:2|0:0,0:0:0:0:
31,348,138455,1,0,0:0:0:0:
124,210,138605,6,0,P|118:150|84:198,1,140,2|8,1:2|0:0,0:0:0:0:
56,265,139055,1,0,0:0:0:0:
221,219,139205,2,0,P|223:150|177:87,1,140,2|8,1:2|0:0,0:0:0:0:
80,78,139655,1,0,0:0:0:0:
214,15,139805,6,0,L|283:29,1,70,6|0,1:2|0:0,0:0:0:0:
420,0,140105,2,0,L|472:46,1,70,8|0,0:0|1:0,0:0:0:0:
491,144,140405,1,8,0:0:0:0:
340,162,140555,1,0,1:0:0:0:
396,33,140705,1,10,0:0:0:0:
381,188,140855,6,0,P|358:222|354:161,1,140,10|10,0:0|0:0,0:0:0:0:
451,162,141305,1,8,0:0:0:0:
409,288,141455,2,0,P|375:302|335:303,1,70,2|10,1:2|0:0,0:0:0:0:
206,242,141755,2,0,P|172:228|132:227,1,70,2|10,1:2|0:0,0:0:0:0:
153,315,142055,1,2,1:2:0:0:
258,169,142205,6,0,P|182:142|100:144,1,140,6|8,1:2|0:0,0:0:0:0:
54,200,142655,1,2,1:2:0:0:
200,93,142805,2,0,P|216:68|151:69,1,140,2|8,1:2|0:0,0:0:0:0:
308,105,143255,6,0,L|386:82,1,70,2|0,1:2|0:0,0:0:0:0:
512,193,143555,2,0,L|440:193,1,70,2|8,1:2|0:0,0:0:0:0:
308,279,143855,2,0,L|386:302,1,70,2|0,0:0|0:0,0:0:0:0:
437,369,144155,1,0,1:0:0:0:
274,384,144305,1,8,0:0:0:0:
406,336,144455,1,0,0:0:0:0:
199,314,144605,6,0,B|132:290|132:337|48:305,1,140,2|10,1:2|0:0,0:0:0:0:
74,152,145055,2,0,P|93:180|100:232,1,70,2|0,0:0|0:0,0:0:0:0:
199,314,145355,2,0,P|207:275|228:241,1,70,2|8,1:2|0:0,0:0:0:0:
429,291,145655,6,0,P|372:319|280:308,1,140,6|0,1:2|1:0,0:0:0:0:
316,223,146105,1,8,0:0:0:0:
369,361,146255,1,0,1:0:0:0:
442,165,146405,2,0,L|467:92,1,70,6|0,1:2|0:0,0:0:0:0:
312,51,146705,2,0,L|287:124,1,70,10|0,0:0|0:0,0:0:0:0:
136,210,147005,6,0,B|63:234|68:183|-13:213,1,140,6|10,1:2|0:0,0:0:0:0:
207,261,147455,2,0,P|224:217|184:137,1,140,2|0,1:2|1:0,0:0:0:0:
33,293,147905,2,0,L|47:368,1,70,10|0,0:0|0:0,0:0:0:0:
225,304,148205,6,0,P|260:291|204:266,1,140,6|10,1:2|0:0,0:0:0:0:
175,382,148655,1,2,1:2:0:0:
327,362,148805,1,0,0:0:0:0:
154,340,148955,1,0,1:0:0:0:
340,321,149105,2,0,L|418:342,1,70,10|0,0:0|0:0,0:0:0:0:
495,191,149405,6,0,P|494:157|469:107,1,70,6|0,1:2|1:0,0:0:0:0:
317,22,149705,2,0,P|304:54|303:89,1,70,8|2,0:0|1:2,0:0:0:0:
367,180,150005,1,8,0:0:0:0:
406,76,150155,1,2,1:2:0:0:
327,167,150305,1,10,0:0:0:0:
509,51,150455,6,0,L|494:189,1,140,10|0,0:0|0:0,0:0:0:0:
421,257,150905,1,0,1:0:0:0:
408,112,151055,1,0,1:0:0:0:
386,228,151205,6,0,P|352:235|316:228,1,70,2|2,0:0|0:0,0:0:0:0:
51,75,151805,6,0,P|117:85|161:158,1,140,6|8,1:2|0:0,0:0:0:0:
68,165,152255,1,0,0:0:0:0:
182,3,152405,2,0,L|155:159,1,140,2|8,1:2|0:0,0:0:0:0:
132,239,152855,1,0,0:0:0:0:
307,283,153005,6,0,P|373:278|425:211,1,140,2|8,1:2|0:0,0:0:0:0:
332,190,153455,1,0,0:0:0:0:
399,364,153605,2,0,L|423:210,1,140,2|8,1:2|0:0,0:0:0:0:
411,127,154055,1,0,0:0:0:0:
234,161,154205,6,0,P|193:163|157:150,1,70,6|0,1:2|0:0,0:0:0:0:
48,34,154505,2,0,P|81:24|116:28,1,70,8|0,0:0|0:0,0:0:0:0:
214,73,154805,1,2,1:2:0:0:
88,114,154955,1,0,1:0:0:0:
234,161,155105,2,0,P|268:152|314:158,1,70,8|0,0:0|0:0,0:0:0:0:
458,84,155405,6,0,L|470:161,1,70,2|0,1:2|0:0,0:0:0:0:
375,283,155705,2,0,L|385:213,1,70,8|0,0:0|1:0,0:0:0:0:
468,153,156005,1,10,0:0:0:0:
499,266,156155,1,0,1:0:0:0:
390,180,156305,1,10,0:0:0:0:
512,229,156455,1,0,1:0:0:0:
375,283,156605,6,0,P|315:252|286:186,1,140,6|8,1:2|0:0,0:0:0:0:
390,180,157055,1,0,0:0:0:0:
286,319,157205,2,0,P|266:269|295:178,1,140,2|8,1:2|0:0,0:0:0:0:
390,180,157655,1,0,0:0:0:0:
226,253,157805,6,0,P|165:260|96:215,1,140,2|8,1:2|0:0,0:0:0:0:
181,161,158255,1,0,0:0:0:0:
164,334,158405,2,0,P|112:288|105:201,1,140,2|8,1:2|0:0,0:0:0:0:
181,161,158855,1,0,0:0:0:0:
358,227,159005,6,0,L|376:310,1,70,6|0,0:2|1:0,0:0:0:0:
440,147,159305,2,0,L|426:78,1,70,8|0,0:0|1:0,0:0:0:0:
347,10,159605,1,10,0:0:0:0:
324,137,159755,1,0,1:0:0:0:
419,42,159905,1,10,0:0:0:0:
286,117,160055,6,0,B|239:137|239:137|142:114,1,140,10|0,0:0|0:0,0:0:0:0:
90,53,160505,1,8,0:0:0:0:
124,204,160655,2,0,P|117:243|93:280,1,70,2|10,1:2|0:0,0:0:0:0:
19,110,160955,2,0,P|1:77|0:42,1,70,2|10,1:2|0:0,0:0:0:0:
90,53,161255,1,2,1:2:0:0:
195,151,161405,6,0,P|255:151|321:93,1,140,6|8,0:2|0:0,0:0:0:0:
343,22,161855,1,2,1:2:0:0:
478,106,162005,2,0,P|511:158|507:238,1,140,2|8,1:2|0:0,0:0:0:0:
364,241,162455,6,0,P|393:213|429:205,1,70,2|0,1:2|0:0,0:0:0:0:
500,332,162755,2,0,P|461:320|436:293,1,70,2|8,1:2|0:0,0:0:0:0:
505,167,163055,2,0,P|514:206|503:241,1,70,2|0,0:0|0:0,0:0:0:0:
420,205,163355,1,0,1:0:0:0:
455,64,163505,1,8,0:0:0:0:
411,165,163655,1,0,0:0:0:0:
378,23,163805,6,0,B|340:7|340:7|239:22,1,140,2|10,1:2|0:0,0:0:0:0:
157,125,164255,2,0,L|235:112,1,70,2|0,0:0|0:0,0:0:0:0:
342,185,164555,2,0,L|264:198,1,70,2|8,1:2|0:0,0:0:0:0:
88,182,164855,6,0,P|69:111|102:56,1,140,6|0,0:0|1:0,0:0:0:0:
157,125,165305,1,8,0:0:0:0:
23,143,165455,1,0,1:0:0:0:
114,212,165605,6,0,L|188:224,2,46.6666666666667,12|4|4,3:0|3:0|3:0,0:0:0:0:
60,270,165905,2,0,L|13:277,2,46.6666666666667,12|0|4,3:0|3:0|3:0,0:0:0:0:
111,328,166205,6,0,P|161:291|147:203,1,140,6|2,1:2|0:0,0:0:0:0:
180,126,166655,2,0,P|216:115|249:117,1,70,0|0,1:2|0:0,0:0:0:0:
325,167,166955,2,0,P|358:177|392:175,1,70,2|0,0:0|1:0,0:0:0:0:
496,63,167255,6,0,P|513:23|467:60,1,140,2|0,1:2|3:0,0:0:0:0:
501,141,167705,2,0,P|511:174|502:216,1,70,2|0,0:0|0:0,0:0:0:0:
453,270,168005,2,0,P|442:303|448:337,1,70,2|0,0:0|0:0,0:0:0:0:
379,384,168305,2,0,P|342:387|301:375,1,70,2|0,0:0|0:0,0:0:0:0:
256,192,168605,5,6,1:2:0:0:
256,192,168680,12,6,169805,0:0:0:0:
184,113,170105,5,2,3:2:0:0:
223,224,170255,1,0,3:0:0:0:
212,83,170405,2,0,L|292:94,1,70,2|0,3:2|3:0,0:0:0:0:
259,221,170705,1,2,3:2:0:0:
103,197,170855,1,2,3:2:0:0:
68,192,170930,1,0,3:0:0:0:
33,185,171005,5,4,1:2:0:0:
256,192,171080,12,0,172805,0:0:0:0:
256,192,173105,5,8,0:0:0:0:
440,150,173405,6,0,P|475:197|470:300,1,140,4|8,1:2|0:0,0:0:0:0:
427,346,173855,1,0,1:0:0:0:
204,47,174155,1,0,1:0:0:0:
240,204,174305,1,8,0:0:0:0:
333,29,174455,6,0,P|265:16|198:52,1,140,4|0,1:2|1:0,0:0:0:0:
81,140,174905,2,0,P|41:132|11:112,1,70,8|0,0:0|0:0,0:0:0:0:
163,117,175205,1,0,1:0:0:0:
123,239,175355,1,8,0:0:0:0:
173,152,175505,1,8,0:0:0:0:
208,272,175655,1,0,3:0:0:0:
277,124,175805,6,0,P|343:131|402:181,1,140,4|8,0:0|0:0,0:0:0:0:
385,340,176255,2,0,P|366:310|357:277,1,70,0|0,1:0|1:0,0:0:0:0:
465,264,176555,1,0,1:0:0:0:
423,355,176705,1,8,0:0:0:0:
398,176,176855,6,0,P|333:170|259:228,2,140,4|0|0,1:2|1:0|0:0,0:0:0:0:
357,277,177605,1,0,1:0:0:0:
232,214,177755,2,0,P|242:149|309:94,1,140,0|0,1:0|0:0,0:0:0:0:
398,119,178205,5,4,1:2:0:0:
260,75,178355,1,0,0:0:0:0:
372,82,178505,1,8,0:0:0:0:
199,138,178655,1,4,1:2:0:0:
167,117,178955,5,0,1:0:0:0:
129,3,179105,1,8,0:0:0:0:
38,90,179255,1,4,1:2:0:0:
15,114,179555,5,0,1:0:0:0:
199,138,179705,1,0,1:0:0:0:
78,283,179855,2,0,P|56:296|74:239,1,140,4|0,1:2|1:0,0:0:0:0:
171,316,180305,1,10,0:0:0:0:
186,313,180380,1,2,0:0:0:0:
201,311,180455,1,2,0:0:0:0:
217,308,180530,1,2,0:0:0:0:
234,276,180605,6,0,P|266:264|360:326,1,140,4|8,1:2|0:0,0:0:0:0:
206,377,181055,2,0,L|168:310,1,70,0|0,1:0|0:0,0:0:0:0:
134,180,181355,2,0,L|172:247,1,70,0|8,1:0|0:0,0:0:0:0:
159,89,181655,6,0,P|91:96|45:149,1,140,4|0,1:2|1:0,0:0:0:0:
141,303,182105,2,0,P|163:268|168:228,1,70,8|0,0:0|0:0,0:0:0:0:
159,89,182405,2,0,P|199:89|247:67,1,70,0|0,1:0|1:0,0:0:0:0:
386,37,182705,6,0,P|432:35|395:63,1,105,8|0,0:0|0:0,0:0:0:0:
343,97,183005,2,0,L|352:180,1,70,4|0,1:2|0:0,0:0:0:0:
413,234,183305,1,8,0:0:0:0:
264,301,183455,2,0,L|183:293,1,70,0|0,1:0|0:0,0:0:0:0:
64,276,183755,1,0,1:0:0:0:
290,225,184055,6,0,P|323:258|255:294,1,140,4|0,1:2|1:0,0:0:0:0:
202,233,184505,1,8,0:0:0:0:
373,183,184655,2,0,P|397:217|406:257,1,70,4|0,1:2|0:0,0:0:0:0:
486,144,184955,5,0,3:0:0:0:
490,123,185030,1,0,3:0:0:0:
495,100,185105,2,0,L|505:56,3,35,2|0|2|0,3:0|3:0|3:0|3:0,0:0:0:0:
482,37,185405,5,4,1:2:0:0:
331,52,185555,1,0,1:0:0:0:
460,8,185705,1,8,0:0:0:0:
395,106,185855,1,4,1:2:0:0:
374,138,186155,5,0,1:0:0:0:
351,22,186305,1,8,0:0:0:0:
223,99,186455,6,0,B|201:166|248:165|221:241,1,140,4|0,1:2|3:0,0:0:0:0:
148,198,186905,1,8,0:0:0:0:
129,198,186980,1,0,3:0:0:0:
110,199,187055,1,0,3:0:0:0:
92,200,187130,1,0,3:0:0:0:
73,200,187205,1,0,1:0:0:0:
12,279,187355,1,4,1:2:0:0:
160,333,187505,1,0,0:0:0:0:
35,314,187655,1,0,0:0:0:0:
201,244,187805,6,0,P|240:275|256:361,1,140,4|8,1:2|0:0,0:0:0:0:
298,206,188255,2,0,P|259:205|214:230,1,70,0|8,1:0|0:0,0:0:0:0:
339,284,188555,2,0,P|378:285|423:260,1,70,0|8,1:0|0:0,0:0:0:0:
447,116,188855,6,0,P|418:176|446:263,1,140,4|0,1:2|1:0,0:0:0:0:
490,111,189305,2,0,B|374:123|374:123|401:99,1,140,10|2,0:0|0:0,0:0:0:0:
495,300,189905,1,2,1:2:0:0:
495,300,190055,1,2,0:0:0:0:
350,384,190205,6,0,L|424:376,1,70,4|0,1:2|0:0,0:0:0:0:
270,328,190505,2,0,L|119:311,1,140,10|2,0:0|1:2,0:0:0:0:
48,235,190955,1,0,1:0:0:0:
203,201,191105,1,8,0:0:0:0:
61,128,191255,6,0,P|41:103|104:108,1,140,6|0,1:2|0:0,0:0:0:0:
48,235,191705,2,0,P|22:261|10:300,1,70,10|0,0:0|0:0,0:0:0:0:
143,374,192005,2,0,P|106:388|71:383,1,70,2|0,1:2|1:0,0:0:0:0:
219,310,192305,2,0,P|256:307|293:323,1,70,10|0,0:0|0:0,0:0:0:0:
348,214,192605,6,0,P|297:214|223:283,1,140,6|8,1:2|0:0,0:0:0:0:
323,316,193055,1,0,0:0:0:0:
374,188,193205,2,0,P|379:152|367:108,1,70,2|0,1:2|1:0,0:0:0:0:
225,36,193505,1,10,0:0:0:0:
390,85,193655,6,0,B|452:96|490:61|490:61|441:39,1,140,6|0,1:2|1:0,0:0:0:0:
273,117,194105,2,0,L|309:185,1,70,10|0,0:0|0:0,0:0:0:0:
225,36,194405,2,0,L|134:36,1,70,2|0,1:2|1:0,0:0:0:0:
35,36,194705,1,10,0:0:0:0:
193,261,195005,6,0,P|243:262|220:227,1,105,6|0,1:2|0:0,0:0:0:0:
152,261,195305,2,0,P|146:302|209:385,1,140,10|2,0:0|1:2,0:0:0:0:
341,384,195755,1,0,1:0:0:0:
248,296,195905,1,8,0:0:0:0:
403,266,196055,6,0,B|450:281|471:322|471:322|499:309|509:271,1,140,6|0,1:2|1:0,0:0:0:0:
388,163,196505,2,0,P|380:203|393:245,1,70,10|0,0:0|1:0,0:0:0:0:
485,94,196805,2,0,P|491:59|482:25,1,70,2|0,1:2|1:0,0:0:0:0:
309,16,197105,1,10,0:0:0:0:
75,197,197405,6,0,P|12:183|68:157,1,140,6|8,1:2|0:0,0:0:0:0:
154,207,197855,1,0,0:0:0:0:
154,207,198005,1,2,1:2:0:0:
93,282,198155,1,0,1:0:0:0:
207,334,198305,1,10,0:0:0:0:
7,304,198455,6,0,P|19:236|75:197,1,140,6|0,1:2|1:0,0:0:0:0:
204,131,198905,2,0,L|121:118,1,70,8|0,0:0|1:0,0:0:0:0:
288,88,199205,2,0,P|297:132|287:174,1,70,2|0,1:2|1:0,0:0:0:0:
207,334,199505,2,0,P|198:290|208:248,1,70,10|0,0:0|0:0,0:0:0:0:
419,262,199805,6,0,B|484:288|484:288|401:322,1,140,6|10,1:2|0:0,0:0:0:0:
419,158,200255,2,0,L|419:240,1,70,2|0,1:2|0:0,0:0:0:0:
418,350,200555,1,0,0:0:0:0:
253,238,200705,2,0,P|284:231|338:244,1,70,10|0,0:0|0:0,0:0:0:0:
151,261,201005,6,0,B|86:235|86:235|169:201,1,140,6|10,1:2|0:0,0:0:0:0:
151,365,201455,2,0,L|151:283,1,70,2|0,1:2|0:0,0:0:0:0:
152,173,201755,1,0,1:0:0:0:
253,238,201905,2,0,P|289:244|337:228,1,70,8|0,0:0|0:0,0:0:0:0:
184,103,202205,6,0,P|147:97|151:172,1,140,6|8,1:2|0:0,0:0:0:0:
229,169,202655,1,0,1:0:0:0:
187,23,202805,2,0,P|149:20|105:32,1,70,2|0,1:2|0:0,0:0:0:0:
57,77,203105,1,10,0:0:0:0:
254,64,203255,6,0,P|324:67|403:44,1,140,6|0,1:2|1:0,0:0:0:0:
477,0,203705,1,8,0:0:0:0:
400,242,204005,2,0,B|433:257|433:257|486:256,1,70,6|0,1:2|0:0,0:0:0:0:
314,167,204305,2,0,B|280:166|280:166|247:181,1,70,6|0,1:2|0:0,0:0:0:0:
211,272,204605,5,6,1:2:0:0:
168,134,204755,1,2,1:2:0:0:
178,242,204905,1,2,1:2:0:0:
256,84,205055,2,0,L|410:94,1,140,10|2,0:0|3:2,0:0:0:0:
475,43,205505,1,0,1:0:0:0:
388,182,205655,6,0,P|389:252|434:312,1,140,6|0,1:2|1:0,0:0:0:0:
487,170,206105,2,0,L|400:181,1,70,2|0,1:2|1:0,0:0:0:0:
323,321,206405,2,0,L|414:309,1,70,10|8,0:0|0:0,0:0:0:0:
508,298,206705,1,2,1:2:0:0:
238,155,207005,5,2,1:2:0:0:
221,235,207155,1,0,1:0:0:0:
157,115,207305,1,8,0:0:0:0:
173,37,207455,1,0,1:0:0:0:
132,241,207605,1,8,0:0:0:0:
116,322,207755,1,0,1:0:0:0:
52,267,207905,1,10,0:0:0:0:
298,214,208055,6,0,P|320:178|292:89,1,140,10|0,0:0|0:0,0:0:0:0:
198,85,208505,1,8,0:0:0:0:
322,64,208655,1,8,0:0:0:0:
167,13,208805,2,0,L|126:5,3,35,2|2|2|2,0:0|0:0|0:0|0:0,0:0:0:0:
99,18,209105,2,0,L|69:53,1,35,2|2,1:2|0:0,0:0:0:0:
0,117,209255,1,8,0:0:0:0:
157,144,212405,6,0,L|145:221,1,70,2|2,0:0|1:2,0:0:0:0:
211,366,213005,5,14,0:0:0:0:
211,366,213155,1,10,0:0:0:0:
366,140,213905,5,0,1:0:0:0:
424,195,214055,2,0,B|432:230|432:230|403:213,1,70,4|0,1:2|1:0,0:0:0:0:
366,140,214505,1,0,1:0:0:0:
328,70,214655,2,0,B|299:53|299:53|307:88,1,70,4|0,1:2|1:0,0:0:0:0:
307,88,215030,1,0,1:0:0:0:
307,88,215105,1,8,0:0:0:0:
118,269,215405,5,14,1:2:0:0:
112,281,215555,1,0,3:0:0:0:
176,210,215705,1,8,1:2:0:0:
169,186,215855,1,0,3:0:0:0:
196,288,216005,1,8,3:2:0:0:
202,316,216155,1,0,3:0:0:0:
250,230,216305,1,8,1:2:0:0:
289,243,216455,1,0,3:0:0:0:
229,154,216605,5,8,1:2:0:0:
263,113,216755,1,8,3:2:0:0:
153,138,216905,1,8,1:2:0:0:
196,288,217055,1,8,3:2:0:0:
306,173,217205,2,0,L|357:159,3,35,10|0|0|0,3:2|3:0|3:0|3:0,0:0:0:0:
347,73,217505,1,10,3:2:0:0:
381,79,217580,1,0,3:0:0:0:
415,85,217655,1,8,3:2:0:0:
449,90,217730,1,0,3:0:0:0:
479,72,217805,6,0,P|509:113|500:211,1,140,6|8,1:2|0:0,0:0:0:0:
441,262,218255,1,0,0:0:0:0:
283,272,218405,2,0,P|335:231|410:244,1,140,2|8,1:2|0:0,0:0:0:0:
359,320,218855,1,0,0:0:0:0:
212,194,219005,6,0,P|209:137|269:66,1,140,2|8,1:2|0:0,0:0:0:0:
363,67,219455,1,0,0:0:0:0:
503,131,219605,2,0,P|427:137|368:88,1,140,2|8,1:2|0:0,0:0:0:0:
455,47,220055,1,0,0:0:0:0:
491,233,220205,6,0,L|472:314,1,70,6|0,1:2|0:0,0:0:0:0:
337,300,220505,2,0,L|280:360,1,70,8|0,0:0|1:0,0:0:0:0:
188,337,220805,1,8,0:0:0:0:
166,190,220955,1,0,1:0:0:0:
158,310,221105,1,10,0:0:0:0:
308,253,221255,6,0,P|366:250|337:300,1,140,10|0,0:0|0:0,0:0:0:0:
237,227,221705,1,8,0:0:0:0:
366,163,221855,2,0,P|398:176|430:205,1,70,2|10,1:2|0:0,0:0:0:0:
421,337,222155,2,0,P|441:306|447:255,1,70,2|10,1:2|0:0,0:0:0:0:
498,213,222455,1,2,1:2:0:0:
308,253,222605,6,0,P|271:207|268:126,1,140,6|8,1:2|0:0,0:0:0:0:
366,163,223055,1,2,1:2:0:0:
286,289,223205,2,0,B|215:309|215:269|147:291,1,140,2|8,1:2|0:0,0:0:0:0:
337,357,223655,6,0,P|365:326|372:288,1,70,2|0,1:2|0:0,0:0:0:0:
305,162,223955,2,0,P|317:201|347:226,1,70,2|8,1:2|0:0,0:0:0:0:
492,227,224255,2,0,P|451:218|414:231,1,70,2|0,0:0|0:0,0:0:0:0:
373,349,224555,1,0,1:0:0:0:
297,199,224705,1,8,0:0:0:0:
464,199,224855,1,0,0:0:0:0:
263,279,225005,6,0,P|219:238|221:157,1,140,2|8,1:2|0:0,0:0:0:0:
355,92,225455,2,0,P|321:110|276:110,1,70,2|0,0:0|0:0,0:0:0:0:
146,58,225755,2,0,P|180:61|210:78,1,70,2|8,1:2|0:0,0:0:0:0:
43,136,226055,6,0,B|27:29|27:29|10:86,1,140,6|0,0:2|1:0,0:0:0:0:
0,216,226505,1,8,0:0:0:0:
134,144,226655,1,0,1:0:0:0:
66,289,226805,2,0,L|46:363,1,70,6|0,1:2|0:0,0:0:0:0:
217,279,227105,2,0,L|154:248,1,70,10|0,0:0|0:0,0:0:0:0:
343,283,227405,6,0,B|476:217,1,140,6|10,1:2|0:0,0:0:0:0:
306,147,227855,2,0,L|343:283,1,140,2|0,1:2|1:0,0:0:0:0:
445,145,228305,2,0,L|365:113,1,70,10|0,0:0|0:0,0:0:0:0:
206,198,228605,6,0,P|174:205|70:153,1,140,6|10,1:2|0:0,0:0:0:0:
161,99,229055,1,2,1:2:0:0:
177,239,229205,1,0,0:0:0:0:
185,119,229355,1,0,0:0:0:0:
98,272,229505,2,0,P|116:302|153:323,1,70,10|0,0:0|0:0,0:0:0:0:
321,264,229805,6,0,L|344:173,1,70,6|0,1:2|1:0,0:0:0:0:
449,83,230105,2,0,L|474:164,1,70,8|2,0:0|1:2,0:0:0:0:
496,233,230405,1,8,0:0:0:0:
361,257,230555,1,2,1:2:0:0:
481,193,230705,1,10,0:0:0:0:
311,170,230855,6,0,P|268:219|269:296,1,140,10|0,0:0|0:0,0:0:0:0:
361,257,231305,1,0,1:0:0:0:
273,103,231455,1,0,1:0:0:0:
350,152,231605,6,0,P|384:158|422:152,1,70,2|2,0:0|0:0,0:0:0:0:
273,16,232205,2,0,L|273:76,1,52.5,2|0,1:2|0:0,0:0:0:0:
273,103,232505,6,0,P|245:77|199:68,1,70,12|0,0:2|0:0,0:0:0:0:
151,190,232805,2,0,P|210:188|281:132,1,140,2|8,1:2|0:0,0:0:0:0:
349,63,233255,1,0,0:0:0:0:
328,230,233405,2,0,L|188:191,1,140,2|8,1:2|0:0,0:0:0:0:
182,91,233855,1,0,0:0:0:0:
349,63,234005,2,0,L|361:209,1,140,2|8,1:2|0:0,0:0:0:0:
368,303,234455,1,0,0:0:0:0:
466,170,234605,6,0,L|479:86,1,70,6|0,1:2|0:0,0:0:0:0:
322,30,234905,2,0,L|328:114,1,70,8|0,0:0|0:0,0:0:0:0:
360,202,235205,1,2,1:2:0:0:
401,83,235355,1,0,1:0:0:0:
268,178,235505,2,0,P|229:177|198:163,1,70,8|0,0:0|0:0,0:0:0:0:
7,63,235805,6,0,L|19:140,1,70,2|0,1:2|0:0,0:0:0:0:
91,268,236105,2,0,L|101:198,1,70,8|0,0:0|0:0,0:0:0:0:
115,102,236405,1,10,0:0:0:0:
187,212,236555,1,0,1:0:0:0:
153,85,236705,1,10,0:0:0:0:
100,198,236855,1,8,1:2:0:0:
285,177,237005,6,0,P|292:226|241:303,1,140,6|8,1:2|0:0,0:0:0:0:
166,249,237455,1,0,0:0:0:0:
251,115,237605,2,0,P|311:122|285:177,1,140,2|8,1:2|0:0,0:0:0:0:
175,137,238055,1,0,0:0:0:0:
310,31,238205,6,0,P|357:56|396:131,1,140,2|8,1:2|0:0,0:0:0:0:
325,200,238655,1,0,0:0:0:0:
237,38,238805,2,0,P|268:-13|310:31,1,140,2|8,1:2|0:0,0:0:0:0:
217,120,239255,1,0,0:0:0:0:
68,193,239405,6,0,L|-15:175,1,70,6|0,1:2|0:0,0:0:0:0:
127,298,239705,2,0,L|207:288,1,70,8|0,0:0|1:0,0:0:0:0:
279,202,240005,1,2,1:2:0:0:
255,365,240155,1,0,1:0:0:0:
177,194,240305,1,10,0:0:0:0:
409,313,240455,6,0,P|458:316|422:263,1,140,10|0,0:0|0:0,0:0:0:0:
329,320,240905,1,8,0:0:0:0:
238,215,241055,2,0,L|257:141,1,70,2|10,1:2|0:0,0:0:0:0:
142,29,241355,2,0,L|154:97,1,70,2|10,1:2|0:0,0:0:0:0:
96,171,241655,1,2,1:2:0:0:
235,59,241805,6,0,P|290:63|344:139,1,140,6|8,1:2|0:0,0:0:0:0:
255,147,242255,1,2,1:2:0:0:
412,217,242405,2,0,P|448:164|446:71,1,140,2|8,1:2|0:0,0:0:0:0:
311,202,242855,2,0,P|343:221|392:223,1,70,2|0,1:2|0:0,0:0:0:0:
512,317,243155,2,0,P|476:315|437:336,1,70,2|8,1:2|0:0,0:0:0:0:
287,299,243455,2,0,P|282:264|291:230,1,70,2|0,0:0|0:0,0:0:0:0:
368,140,243755,1,0,0:0:0:0:
402,259,243905,1,8,0:0:0:0:
401,120,244055,1,0,0:0:0:0:
256,218,244205,6,0,B|194:240|187:200|116:219,1,140,2|10,1:2|0:0,0:0:0:0:
137,372,244655,2,0,L|158:273,1,70,2|0,0:0|0:0,0:0:0:0:
221,132,244955,2,0,L|200:33,1,70,2|8,1:2|0:0,0:0:0:0:
69,191,245255,2,0,P|69:248|118:218,1,140,6|0,0:2|1:0,0:0:0:0:
55,116,245705,1,8,0:0:0:0:
16,263,245855,1,0,1:0:0:0:
195,216,246005,2,0,P|233:210|280:221,1,70,6|0,1:2|0:0,0:0:0:0:
435,296,246305,2,0,P|397:302|350:291,1,70,14|0,0:0|0:0,0:0:0:0:
366,112,246605,6,0,B|403:50|403:50|444:129,1,140,6|10,1:2|0:0,0:0:0:0:
333,214,247055,2,0,L|263:214,1,70,2|0,1:2|0:0,0:0:0:0:
113,158,247355,2,0,L|183:158,1,70,2|8,1:2|0:0,0:0:0:0:
113,18,247655,6,0,L|113:166,1,140,2|0,1:2|1:0,0:0:0:0:
43,303,248105,2,0,L|43:233,1,70,10|0,0:0|0:0,0:0:0:0:
113,158,248405,1,2,1:2:0:0:
0,160,248555,1,0,1:0:0:0:
140,251,248705,2,0,L|227:251,1,70,10|0,0:0|0:0,0:0:0:0:
387,311,249005,6,0,B|354:373|354:373|318:301,1,140,6|10,1:2|0:0,0:0:0:0:
241,159,249455,2,0,L|241:66,1,70,2|0,1:2|0:0,0:0:0:0:
295,13,249755,1,0,1:0:0:0:
152,13,249905,1,8,0:0:0:0:
272,109,250055,6,0,L|420:109,1,140,4|0,1:2|1:0,0:0:0:0:
491,62,250505,1,8,0:0:0:0:
402,189,250655,2,0,P|396:227|408:276,1,70,2|10,1:2|0:0,0:0:0:0:
511,384,250955,2,0,P|517:346|505:297,1,70,2|10,1:2|0:0,0:0:0:0:
493,226,251255,1,2,1:2:0:0:
354,324,251405,6,0,B|285:349|285:298|212:326,1,140,6|8,1:2|0:0,0:0:0:0:
146,380,251855,1,2,1:2:0:0:
204,201,252005,2,0,P|166:164|165:227,1,140,2|8,1:2|0:0,0:0:0:0:
322,238,252455,6,0,L|338:157,1,70,2|0,1:2|0:0,0:0:0:0:
235,12,252755,2,0,L|248:80,1,70,2|8,1:2|0:0,0:0:0:0:
445,120,253055,2,0,P|481:129|521:119,1,70,2|0,0:0|0:0,0:0:0:0:
410,41,253355,1,0,1:0:0:0:
414,202,253505,1,8,0:0:0:0:
429,84,253655,1,0,1:0:0:0:
303,226,253805,6,0,P|238:221|185:156,1,140,2|10,1:2|0:0,0:0:0:0:
317,69,254255,2,0,L|275:145,1,70,2|0,0:0|0:0,0:0:0:0:
269,287,254555,2,0,L|311:211,1,70,2|8,1:2|0:0,0:0:0:0:
190,55,254855,6,0,B|113:27|119:72|51:50,1,140,6|0,0:2|1:0,0:0:0:0:
146,148,255305,2,0,L|146:218,2,46.6666666666667,4|4|4,3:0|3:0|3:0,0:0:0:0:
248,176,255605,2,0,L|212:236,2,46.6666666666667,12|4|4,3:0|3:0|3:0,0:0:0:0:
326,255,255905,2,0,L|265:290,2,46.6666666666667,12|4|4,3:0|3:0|3:0,0:0:0:0:
362,363,256205,6,0,L|200:363,1,140,6|2,1:2|0:0,0:0:0:0:
108,293,256655,2,0,L|108:374,1,70,2|0,1:2|0:0,0:0:0:0:
200,273,256955,2,0,L|200:192,1,70,2|0,1:2|0:0,0:0:0:0:
148,75,257255,6,0,B|182:53|182:53|304:53,1,140,2|0,1:2|1:0,0:0:0:0:
336,129,257705,2,0,L|242:129,1,70,2|0,0:0|0:0,0:0:0:0:
200,203,258005,2,0,L|270:203,1,70,2|0,0:0|0:0,0:0:0:0:
333,282,258305,2,0,L|239:282,1,70,10|0,0:0|0:0,0:0:0:0:
69,207,258605,5,6,0:0:0:0:
256,192,258680,12,6,259805,0:0:0:0:
131,125,260105,5,2,0:0:0:0:
131,125,260255,1,0,3:0:0:0:
185,185,260405,1,2,3:2:0:0:
185,185,260555,1,0,3:0:0:0:
258,72,260705,5,2,0:0:0:0:
292,78,260780,1,2,0:0:0:0:
320,98,260855,1,2,0:0:0:0:
338,127,260930,1,2,0:0:0:0:
345,161,261005,6,0,B|356:209|330:250|330:250|350:269|356:308,1,140,6|8,1:2|0:0,0:0:0:0:
265,316,261455,1,0,0:0:0:0:
423,361,261605,2,0,P|460:364|508:341,1,70,2|0,1:2|1:0,0:0:0:0:
444,273,261905,1,8,0:0:0:0:
334,381,262055,1,0,0:0:0:0:
215,267,262205,6,0,P|175:257|210:313,1,140,6|8,1:2|0:0,0:0:0:0:
134,192,262655,2,0,P|94:228|81:316,1,140,2|0,1:2|1:0,0:0:0:0:
257,344,263105,2,0,P|222:323|173:323,1,70,10|0,0:0|0:0,0:0:0:0:
356,377,263405,6,0,P|422:372|478:316,1,140,6|8,1:2|0:0,0:0:0:0:
378,272,263855,1,0,0:0:0:0:
453,131,264005,1,0,1:0:0:0:
453,131,264155,1,0,1:0:0:0:
307,188,264305,2,0,L|254:176,3,35,10|2|2|2,0:0|0:0|0:0|0:0,0:0:0:0:
239,169,264605,1,6,1:2:0:0:
205,159,264905,5,10,0:0:0:0:
298,105,265055,1,0,1:0:0:0:
170,147,265205,1,10,0:0:0:0:
331,119,265355,1,0,1:0:0:0:
133,134,265505,1,10,0:0:0:0:
365,133,265655,1,2,1:2:0:0:
228,207,265805,6,0,B|193:247|203:307|203:307|252:280,1,140,6|8,1:2|0:0,0:0:0:0:
320,232,266255,1,0,0:0:0:0:
409,347,266405,2,0,L|324:363,1,70,2|0,1:2|1:0,0:0:0:0:
320,232,266705,1,8,0:0:0:0:
441,277,266855,1,0,0:0:0:0:
365,160,267005,6,0,P|364:132|406:174,1,140,6|8,1:2|0:0,0:0:0:0:
274,143,267455,2,0,P|240:134|149:182,1,140,2|0,1:2|1:0,0:0:0:0:
149,277,267905,1,10,0:0:0:0:
76,124,268055,1,2,0:0:0:0:
232,229,268205,6,0,P|275:240|317:231,1,70,6|0,1:2|0:0,0:0:0:0:
365,160,268505,2,0,P|398:149|432:151,1,70,2|0,1:2|3:0,0:0:0:0:
494,225,268805,2,0,P|493:262|466:309,1,70,10|0,0:0|0:0,0:0:0:0:
399,329,269105,1,2,1:2:0:0:
299,237,269255,6,0,B|279:205|298:178|296:142|333:181|357:145|364:105|352:78|323:47|279:53|259:79|259:79|225:56|189:67|166:109|160:150|199:168|228:195|240:148|275:192|286:238|267:298,1,560,6|0,0:0|0:0,0:0:0:0:
189,251,270605,5,4,0:0:0:0:
383,105,271805,1,4,0:0:0:0:
13,88,272519,1,4,0:0:0:0:
256,192,273569,5,4,0:0:0:0:
256,192,273644,12,0,279119,0:0:0:0:
