osu file format v14

[General]
AudioFilename: audio.mp3
AudioLeadIn: 0
PreviewTime: 49725
Countdown: 0
SampleSet: Soft
StackLeniency: 0.5
Mode: 0
LetterboxInBreaks: 0
WidescreenStoryboard: 1

[Editor]
DistanceSpacing: 1.4
BeatDivisor: 4
GridSize: 32
TimelineZoom: 2.4

[Metadata]
Title:Aozora Jumping Heart
TitleUnicode:青空Jumping Heart
Artist:Aqours
ArtistUnicode:Aqours
Creator:Haruru
Version:Expert
Source:ラブライブ!サンシャイン!!
Tags:Lovelive! Sunshine!! opening anime tv size school idol project Inami Anju 伊波杏樹 Aida Rikako 逢田梨香子 Suwa Nanaka 諏訪ななか Komiya Arisa 小宮有紗 Saito Shuka 斉藤朱夏 Kobayashi Aika 小林愛香 Takatsuki Kanako 高槻かなこ Suzuki Aina 鈴木愛奈 Furihata Ai 降幡 愛 Takami Chika 高海千歌 Sakurauchi Riko 桜内梨子 Matsuura Kanan 松浦果南 Kurosawa Dia 黒澤ダイヤ Watanabe You 渡辺 曜 Tsushima Yoshiko 津島善子 Kunikida Hanamaru 国木田花丸 Ohara Mari 小原鞠莉 Kurosawa Ruby 黒澤ルビィ
BeatmapID:1177394
BeatmapSetID:556311

[Difficulty]
HPDrainRate:6
CircleSize:4
OverallDifficulty:8.3
ApproachRate:9.2
SliderMultiplier:1.75
SliderTickRate:1

[Events]
//Background and Video events
0,0,"bgll.jpg",0,0
Video,0,"optc.flv"
//Break Periods
//Storyboard Layer 0 (Background)
//Storyboard Layer 1 (Fail)
//Storyboard Layer 2 (Pass)
//Storyboard Layer 3 (Foreground)
//Storyboard Sound Samples

[TimingPoints]
0,300,4,2,4,60,1,0
1200,-142.857142857143,4,2,4,60,0,0
7200,-111.111111111111,4,2,4,60,0,0
10800,-100,4,2,4,60,0,0
12000,-111.111111111111,4,2,4,60,0,0
14400,-133.333333333333,4,2,4,60,0,0
21600,-117.647058823529,4,2,4,60,0,0
25650,-100,4,2,4,60,0,0
35400,-125,4,2,4,60,0,0
40500,-83.3333333333333,4,2,4,60,0,0
40800,-100,4,2,4,60,0,0
43200,-83.3333333333333,4,2,4,60,0,0
43500,-100,4,2,4,60,0,0
50100,-142.857142857143,4,2,4,60,0,0
50400,-100,4,2,4,60,0,0
84000,-125,4,2,4,60,0,0
86400,-200,4,2,4,60,0,0
88200,-125,4,2,4,60,0,0

[Colours]
Combo1 : 0,121,242
Combo2 : 255,128,64
Combo3 : 162,0,81
Combo4 : 165,165,82

[HitObjects]
90,268,1200,6,0,L|215:255,1,122.499996261597
387,189,1650,2,0,L|262:176,1,122.499996261597
203,102,2100,1,0,0:0:0:0:
266,330,2400,5,4,1:2:0:0:
266,330,3000,2,0,B|211:303|211:303|138:312,1,122.499996261597
61,325,3450,1,0,0:0:0:0:
140,155,3600,6,0,L|132:230,1,61.2499981307984,4|0,1:2|0:0,0:0:0:0:
24,77,3900,2,0,L|32:152,1,61.2499981307984,0|8,0:0|0:3,0:0:0:0:
227,202,4200,1,0,0:0:0:0:
128,54,4350,1,8,0:3:0:0:
41,228,4500,2,0,L|124:217,1,61.2499981307984,4|0,0:3|0:0,0:0:0:0:
297,176,4800,5,4,1:2:0:0:
92,111,4950,1,0,0:0:0:0:
185,280,5100,1,0,0:0:0:0:
43,355,5250,1,0,1:0:0:0:
198,181,5400,5,0,1:0:0:0:
359,344,5550,1,0,1:0:0:0:
294,102,5700,1,0,1:0:0:0:
185,280,5850,1,0,1:0:0:0:
14,194,6000,6,0,L|198:180,1,183.749994392395,4|0,1:2|1:0,0:0:0:0:
333,321,6600,1,8,0:0:0:0:
303,306,6675,1,0,0:0:0:0:
285,277,6750,1,0,0:0:0:0:
286,243,6825,1,0,0:0:0:0:
304,214,6900,1,0,0:0:0:0:
335,201,6975,1,0,0:0:0:0:
369,206,7050,1,0,0:0:0:0:
394,228,7125,1,0,0:0:0:0:
404,261,7200,6,0,P|394:174|407:83,2,157.499995193482,4|8|0,1:2|0:0|1:0,0:0:0:0:
263,177,7950,1,0,1:0:0:0:
154,295,8100,2,0,L|68:284,1,78.7499975967408,8|0,0:0|0:0,0:0:0:0:
206,99,8400,6,0,P|284:84|356:157,1,157.499995193482,0|8,1:0|0:0,0:0:0:0:
267,328,8850,2,0,B|243:252|243:252|266:162,1,157.499995193482,0|0,1:0|1:0,0:0:0:0:
421,75,9300,1,8,0:0:0:0:
346,248,9450,1,0,0:0:0:0:
156,175,9600,6,0,B|99:167|99:167|55:176|55:176|-28:164,2,157.499995193482,0|8|0,1:0|0:0|1:0,0:0:0:0:
46,82,10350,1,0,1:0:0:0:
265,117,10500,1,8,0:0:0:0:
107,260,10650,1,0,0:0:0:0:
107,260,10725,1,0,0:0:0:0:
107,260,10800,6,0,B|98:304|98:304|111:362,1,87.5,0|0,1:0|0:0,0:0:0:0:
265,202,11100,2,0,B|274:158|274:158|261:100,1,87.5,8|0,0:0|1:0,0:0:0:0:
105,169,11400,2,0,L|9:157,1,87.5,0|0,0:0|1:0,0:0:0:0:
265,287,11700,2,0,L|361:275,1,87.5,8|0,0:0|0:0,0:0:0:0:
497,153,12000,6,0,P|440:94|338:106,1,157.499995193482,4|8,1:2|0:0,0:0:0:0:
275,169,12450,1,0,0:0:0:0:
137,52,12600,1,0,1:0:0:0:
137,52,12750,1,0,1:0:0:0:
20,196,12900,2,0,L|132:183,1,78.7499975967408,8|0,0:0|0:0,0:0:0:0:
345,284,13200,6,0,P|278:226|204:241,1,157.499995193482,0|8,1:0|0:0,0:0:0:0:
100,340,13650,2,0,L|289:316,1,157.499995193482,0|0,1:0|1:0,0:0:0:0:
423,294,14100,2,0,L|318:280,1,78.7499975967408,8|0,0:0|0:0,0:0:0:0:
214,234,14400,2,0,P|203:162|220:81,1,131.25000500679,4|0,1:2|1:0,0:0:0:0:
402,17,15000,2,0,P|413:89|396:170,1,131.25000500679,8|0,0:0|1:0,0:0:0:0:
306,126,15450,1,4,1:2:0:0:
256,192,15525,12,0,16500,0:0:0:0:
77,219,16800,6,0,L|84:293,1,65.6250025033952,4|0,1:2|0:0,0:0:0:0:
161,373,17100,2,0,L|167:307,1,65.6250025033952,0|0,1:0|0:0,0:0:0:0:
244,203,17400,2,0,L|250:268,1,65.6250025033952,0|0,1:0|0:0,0:0:0:0:
287,357,17700,1,0,1:0:0:0:
340,237,17850,1,0,0:0:0:0:
497,333,18000,6,0,B|434:309|434:309|366:321,1,131.25000500679,0|0,1:0|1:0,0:0:0:0:
371,320,18450,1,0,0:0:0:0:
484,245,18600,2,0,P|492:212|487:162,1,65.6250025033952,0|0,1:0|0:0,0:0:0:0:
428,35,18900,2,0,P|419:67|425:118,1,65.6250025033952,0|0,1:0|0:0,0:0:0:0:
391,202,19200,6,0,P|326:172|255:183,1,131.25000500679,0|0,1:0|1:0,0:0:0:0:
62,274,19800,2,0,P|127:244|198:255,1,131.25000500679,0|0,1:0|1:0,0:0:0:0:
280,287,20250,1,0,0:0:0:0:
197,123,20400,6,0,B|173:183|173:183|188:272,1,131.25000500679,0|0,1:0|1:0,0:0:0:0:
205,335,20850,1,0,0:0:0:0:
328,204,21000,2,0,L|242:189,1,65.6250025033952,0|0,1:0|0:0,0:0:0:0:
341,356,21300,2,0,L|427:341,1,65.6250025033952,0|0,1:0|0:0,0:0:0:0:
512,158,21600,6,0,L|355:129,1,148.750002837181,0|0,1:0|1:0,0:0:0:0:
264,110,22050,1,0,0:0:0:0:
367,244,22200,1,0,1:0:0:0:
367,244,22350,1,0,0:0:0:0:
250,348,22500,2,0,L|169:337,1,74.3750014185906,0|0,1:0|0:0,0:0:0:0:
7,235,22800,6,0,P|72:190|156:198,1,148.750002837181,0|0,1:0|1:0,0:0:0:0:
223,277,23250,1,0,0:0:0:0:
117,381,23400,2,0,P|107:320|123:276,1,74.3750014185906,0|0,1:0|0:0,0:0:0:0:
215,120,23700,2,0,P|225:181|209:225,1,74.3750014185906,0|0,1:0|0:0,0:0:0:0:
284,335,24000,6,0,B|353:299|353:299|448:315,1,148.750002837181,4|0,1:2|1:0,0:0:0:0:
336,215,24450,2,0,P|326:160|336:115,1,74.3750014185906,0|0,0:0|1:0,0:0:0:0:
457,221,24750,1,0,0:0:0:0:
454,32,24900,2,0,P|464:87|454:132,1,74.3750014185906,0|0,1:0|0:0,0:0:0:0:
454,129,25125,1,0,0:0:0:0:
454,129,25200,5,4,1:2:0:0:
383,296,25350,1,8,0:0:0:0:
278,58,25500,1,8,0:0:0:0:
118,240,25650,2,0,P|198:182|287:211,1,175,12|0,0:0|0:0,0:0:0:0:
291,216,26025,1,0,0:0:0:0:
291,216,26100,2,0,L|287:276,1,43.75
203,358,26250,2,0,L|199:298,1,43.75
118,240,26400,6,0,L|-5:225,1,87.5,4|0,1:2|0:0,0:0:0:0:
237,121,26700,2,0,P|322:112|397:196,1,175,8|0,0:0|1:0,0:0:0:0:
399,343,27150,1,0,1:0:0:0:
291,216,27300,1,8,0:0:0:0:
155,308,27450,6,0,P|67:292|-28:283,1,175,0|0,1:0|1:0,0:0:0:0:
103,100,27900,2,0,P|108:144|111:207,1,87.5,8|0,0:0|0:0,0:0:0:0:
231,365,28200,2,0,P|233:321|238:277,1,87.5,0|0,1:0|1:0,0:0:0:0:
357,170,28500,1,8,0:0:0:0:
103,100,28800,6,0,B|185:62|185:62|276:86,1,175,0|8,1:0|0:0,0:0:0:0:
209,254,29250,2,0,P|201:210|198:135,1,87.5,0|0,1:0|0:0,0:0:0:0:
354,50,29550,2,0,P|350:93|342:136,1,87.5,0|8,1:0|0:0,0:0:0:0:
264,338,29850,6,0,P|199:285|93:309,1,175,0|0,1:0|1:0,0:0:0:0:
47,364,30300,1,8,0:0:0:0:
197,211,30450,1,0,0:0:0:0:
43,70,30600,2,0,P|32:112|35:155,1,87.5,0|0,1:0|1:0,0:0:0:0:
189,296,30900,2,0,P|199:253|196:210,1,87.5,8|0,0:0|0:0,0:0:0:0:
331,111,31200,6,0,B|388:93|388:93|442:106|442:106|521:82,1,175,4|8,1:2|0:0,0:0:0:0:
444,7,31650,1,0,0:0:0:0:
392,191,31800,2,0,P|386:235|404:297,1,87.5,0|0,1:0|1:0,0:0:0:0:
244,384,32100,2,0,P|250:340|232:278,1,87.5,8|0,0:0|0:0,0:0:0:0:
90,104,32400,6,0,B|84:147|84:147|103:231,1,87.5,4|0,1:2|0:0,0:0:0:0:
273,106,32700,1,8,0:0:0:0:
335,273,32850,2,0,P|267:204|174:229,1,175,0|0,1:0|1:0,0:0:0:0:
66,354,33300,2,0,L|191:338,1,87.5,8|0,0:0|0:0,0:0:0:0:
416,320,33600,6,0,L|242:297,1,175,4|8,1:2|0:0,0:0:0:0:
110,159,34050,2,0,B|99:200|99:200|106:271,1,87.5,0|0,1:0|0:0,0:0:0:0:
235,383,34350,2,0,B|245:341|245:341|239:271,1,87.5,0|8,1:0|0:0,0:0:0:0:
0,192,34650,6,0,L|21:372,1,175,4|0,1:2|1:0,0:0:0:0:
242,298,35100,1,8,0:0:0:0:
103,244,35250,1,0,0:0:0:0:
257,186,35400,2,0,L|246:270,1,70,8|0,0:3|0:0,0:0:0:0:
116,352,35700,2,0,L|105:268,1,70,0|0,1:0|0:0,0:0:0:0:
84,109,36000,5,4,1:0:0:0:
84,109,36300,2,0,L|-4:98,1,70,0|0,0:0|1:0,0:0:0:0:
117,200,36600,2,0,L|278:183,1,140,8|0,0:0|0:0,0:0:0:0:
351,147,37050,1,0,0:0:0:0:
385,297,37200,5,0,1:0:0:0:
385,297,37350,2,0,B|322:267|322:267|237:272,1,140,8|0,0:0|1:0,0:0:0:0:
154,284,37800,1,8,0:0:0:0:
307,362,37950,1,0,0:0:0:0:
301,190,38100,1,0,0:0:0:0:
230,322,38250,1,0,0:0:0:0:
31,249,38400,6,0,P|98:206|171:222,1,140,0|0,1:0|0:0,0:0:0:0:
231,249,38850,1,0,1:0:0:0:
98,46,39000,1,8,0:0:0:0:
98,46,39300,2,0,L|104:125,1,70,0|0,1:0|0:0,0:0:0:0:
92,144,39525,1,0,0:0:0:0:
92,144,39600,5,12,0:0:0:0:
241,123,39750,1,0,1:0:0:0:
22,93,39900,1,0,1:0:0:0:
152,238,40050,1,0,1:0:0:0:
0,318,40200,1,12,0:0:0:0:
16,268,40275,1,8,0:0:0:0:
55,232,40350,1,0,1:0:0:0:
105,222,40425,1,0,1:0:0:0:
152,238,40500,6,0,B|208:225|208:225|253:243|253:243|308:233,1,157.499995193482,8|0,0:0|0:0,0:0:0:0:
304,234,40800,2,0,L|296:339,1,87.5,4|0,1:2|0:0,0:0:0:0:
453,177,41100,2,0,P|414:108|305:114,1,175,8|0,0:0|1:0,0:0:0:0:
177,188,41550,1,0,1:0:0:0:
155,28,41700,1,8,0:0:0:0:
365,182,41850,6,0,L|354:293,1,87.5,0|0,1:0|0:0,0:0:0:0:
222,384,42150,2,0,L|213:296,1,87.5,0|8,1:0|0:0,0:0:0:0:
88,105,42450,2,0,B|50:182|50:182|62:287,1,175,0|0,1:0|1:0,0:0:0:0:
256,216,42900,2,0,L|140:200,1,87.5,8|0,0:0|0:0,0:0:0:0:
169,204,43125,1,0,0:0:0:0:
169,204,43200,6,0,L|325:183,1,157.499995193482,4|0,1:2|0:0,0:0:0:0:
420,141,43500,2,0,P|426:184|418:227,1,87.5,8|0,0:0|0:0,0:0:0:0:
355,363,43800,1,0,1:0:0:0:
153,299,43950,1,0,1:0:0:0:
325,182,44100,1,8,0:0:0:0:
163,384,44250,6,0,P|149:337|161:279,1,87.5,4|0,1:2|0:0,0:0:0:0:
271,101,44550,2,0,P|285:148|273:206,1,87.5,0|8,1:0|0:0,0:0:0:0:
153,299,44850,2,0,P|83:245|-6:261,1,175,4|0,1:2|1:0,0:0:0:0:
190,153,45300,2,0,B|201:111|201:111|187:45,1,87.5,12|0,0:0|0:0,0:0:0:0:
10,47,45600,5,12,0:0:0:0:
190,153,45750,1,0,1:0:0:0:
1,256,45900,1,0,1:0:0:0:
289,308,46050,5,12,0:0:0:0:
100,205,46200,1,0,1:0:0:0:
280,99,46350,1,0,1:0:0:0:
199,362,46500,5,12,0:0:0:0:
379,256,46650,1,0,1:0:0:0:
190,153,46800,1,0,1:0:0:0:
378,356,46950,5,12,0:0:0:0:
280,99,47100,1,0,1:0:0:0:
101,294,47250,1,0,1:0:0:0:
52,77,47400,5,12,0:0:0:0:
245,241,47550,1,0,1:0:0:0:
27,360,47700,1,0,1:0:0:0:
190,153,47850,1,0,1:0:0:0:
338,330,48000,6,0,P|423:318|527:314,1,175,4|8,1:2|0:0,0:0:0:0:
411,199,48450,1,0,1:0:0:0:
505,60,48600,2,0,P|496:103|491:152,1,87.5,8|0,0:0|1:0,0:0:0:0:
338,330,48900,2,0,P|333:286|324:243,1,87.5,8|0,0:0|1:0,0:0:0:0:
290,92,49200,5,0,1:0:0:0:
123,248,49350,1,8,0:0:0:0:
42,37,49500,1,8,0:0:0:0:
236,204,49650,1,8,0:0:0:0:
12,279,49800,1,0,0:0:0:0:
136,129,49950,1,0,1:0:0:0:
136,129,50025,1,0,1:0:0:0:
136,129,50100,2,0,B|144:176|144:176|129:241,1,91.8749971961976,0|0,1:0|0:0,0:0:0:0:
159,307,50400,6,0,P|77:233|-7:258,1,175,4|8,1:2|0:0,0:0:0:0:
232,112,50850,1,0,0:0:0:0:
20,22,51000,2,0,L|32:147,1,87.5,0|0,1:0|1:0,0:0:0:0:
159,307,51300,2,0,L|167:219,1,87.5,8|0,0:0|0:0,0:0:0:0:
368,29,51600,6,0,B|381:94|381:94|356:234,1,175,0|8,1:0|0:0,0:0:0:0:
242,82,52050,1,0,0:0:0:0:
170,291,52200,2,0,L|271:283,1,87.5,0|0,1:0|1:0,0:0:0:0:
449,207,52500,2,0,L|348:199,1,87.5,8|0,0:0|0:0,0:0:0:0:
169,124,52800,6,0,B|143:205|143:205|178:318,1,175,0|8,1:0|0:0,0:0:0:0:
277,358,53250,1,0,0:0:0:0:
234,204,53400,1,0,1:0:0:0:
234,204,53550,1,0,1:0:0:0:
96,335,53700,2,0,L|7:319,1,87.5,8|0,0:0|0:0,0:0:0:0:
163,142,54000,6,0,P|220:110|318:163,1,175,0|8,1:0|0:0,0:0:0:0:
377,288,54450,1,0,1:0:0:0:
232,366,54600,2,0,P|225:326|228:265,1,87.5,0|0,0:0|1:0,0:0:0:0:
402,91,54900,2,0,P|408:130|406:192,1,87.5,8|0,0:0|0:0,0:0:0:0:
225,279,55200,6,0,P|159:222|50:240,1,175,4|8,1:2|0:0,0:0:0:0:
1,300,55650,1,0,0:0:0:0:
163,155,55800,1,0,1:0:0:0:
0,41,55950,1,0,1:0:0:0:
125,321,56100,2,0,L|220:307,1,87.5,8|0,0:0|0:0,0:0:0:0:
472,254,56400,6,0,P|416:188|298:202,1,175,0|8,1:0|0:0,0:0:0:0:
211,308,56850,1,0,0:0:0:0:
171,98,57000,1,0,1:0:0:0:
370,283,57150,1,0,1:0:0:0:
332,72,57300,2,0,L|316:198,1,87.5,8|0,0:0|0:0,0:0:0:0:
117,336,57600,5,8,0:0:0:0:
285,245,57750,1,0,1:0:0:0:
38,159,57900,1,8,0:0:0:0:
304,242,58050,1,0,1:0:0:0:
96,246,58200,5,8,0:0:0:0:
327,357,58350,1,0,1:0:0:0:
302,103,58500,1,8,0:0:0:0:
229,314,58650,6,0,P|297:255|407:292,1,175,4|0,1:2|1:0,0:0:0:0:
473,370,59100,1,8,0:0:0:0:
512,149,59250,2,0,L|323:126,1,175,4|0,1:2|1:0,0:0:0:0:
308,124,59625,1,0,1:0:0:0:
308,124,59700,1,8,0:0:0:0:
436,28,59850,1,0,0:0:0:0:
376,265,60000,6,0,P|307:207|196:234,1,175,4|8,1:2|0:0,0:0:0:0:
142,308,60450,1,0,0:0:0:0:
20,142,60600,2,0,L|136:132,1,87.5,0|0,1:0|1:0,0:0:0:0:
272,73,60900,1,8,0:0:0:0:
81,12,61050,6,0,L|94:124,1,87.5,0|0,1:0|0:0,0:0:0:0:
215,315,61350,2,0,L|225:228,1,87.5,0|8,1:0|0:0,0:0:0:0:
363,57,61650,2,0,L|376:169,1,87.5,0|0,0:0|1:0,0:0:0:0:
354,340,61950,1,0,1:0:0:0:
280,167,62100,2,0,L|170:149,1,87.5,8|0,0:0|0:0,0:0:0:0:
2,233,62400,6,0,P|67:285|167:258,1,175,0|8,1:0|0:0,0:0:0:0:
84,106,62850,2,0,L|96:230,1,87.5,0|0,1:0|0:0,0:0:0:0:
222,347,63150,2,0,L|230:259,1,87.5,0|8,1:0|0:0,0:0:0:0:
326,141,63450,6,0,B|389:128|389:128|438:142|438:142|511:130,1,175,4|0,1:2|1:0,0:0:0:0:
384,223,63900,1,8,0:0:0:0:
451,54,64050,1,0,1:0:0:0:
223,121,64200,6,0,P|235:182|227:272,1,131.25,4|0,1:2|0:0,0:0:0:0:
164,318,64500,2,0,P|151:256|160:167,1,131.25,4|0,1:2|0:0,0:0:0:0:
57,84,64800,6,0,L|75:258,1,175,4|8,1:2|0:0,0:0:0:0:
236,366,65250,2,0,P|323:309|425:339,1,175,0|0,1:0|1:0,0:0:0:0:
512,185,65700,2,0,L|394:170,1,87.5,8|0,0:0|0:0,0:0:0:0:
144,115,66000,6,0,P|204:55|311:73,1,175,4|8,1:2|0:0,0:0:0:0:
254,239,66450,2,0,L|240:129,1,87.5,0|0,0:0|1:0,0:0:0:0:
410,25,66750,1,0,1:0:0:0:
326,180,66900,1,8,0:0:0:0:
144,115,67050,1,0,0:0:0:0:
173,326,67200,6,0,L|276:314,1,87.5,4|0,1:2|0:0,0:0:0:0:
430,298,67500,1,8,0:0:0:0:
254,239,67650,1,0,1:0:0:0:
483,166,67800,1,0,0:0:0:0:
258,28,67950,1,0,1:0:0:0:
369,198,68100,1,8,0:0:0:0:
214,328,68250,6,0,P|163:271|188:169,1,175,4|0,1:2|1:0,0:0:0:0:
44,43,68700,2,0,L|63:167,1,87.5,12|0,0:0|0:0,0:0:0:0:
254,239,69000,1,4,1:2:0:0:
201,70,69150,1,8,0:0:0:0:
201,70,69225,1,8,0:0:0:0:
201,70,69300,1,0,1:0:0:0:
109,303,69450,1,0,0:0:0:0:
414,276,69600,6,0,B|339:228|339:228|229:242,1,175,4|8,1:2|0:0,0:0:0:0:
109,303,70050,1,0,0:0:0:0:
230,153,70200,1,0,1:0:0:0:
230,153,70350,1,0,1:0:0:0:
315,327,70500,2,0,L|195:307,1,87.5,8|0,0:0|0:0,0:0:0:0:
55,169,70800,6,0,L|259:150,1,175,0|8,1:0|0:0,0:0:0:0:
365,76,71250,1,0,0:0:0:0:
141,0,71400,2,0,P|134:56|138:98,1,87.5,0|0,1:0|1:0,0:0:0:0:
315,296,71700,2,0,P|321:252|319:209,1,87.5,8|0,0:0|0:0,0:0:0:0:
14,279,72000,6,0,P|84:336|177:296,1,175,0|8,1:0|0:0,0:0:0:0:
319,209,72450,1,0,0:0:0:0:
93,155,72600,2,0,L|102:275,1,87.5,0|0,1:0|1:0,0:0:0:0:
291,362,72900,1,8,0:0:0:0:
203,210,73050,1,0,0:0:0:0:
68,330,73200,6,0,L|-30:316,1,87.5,0|0,1:0|0:0,0:0:0:0:
154,131,73500,1,8,0:0:0:0:
248,284,73650,2,0,P|339:272|441:268,1,175,0|0,1:0|1:0,0:0:0:0:
505,293,74100,1,8,0:0:0:0:
327,155,74250,1,0,0:0:0:0:
512,32,74400,6,0,P|495:116|481:241,1,175,4|8,1:2|0:0,0:0:0:0:
443,360,74850,1,0,0:0:0:0:
327,155,75000,1,0,1:0:0:0:
327,155,75150,1,0,1:0:0:0:
161,324,75300,2,0,L|273:317,1,87.5,8|0,0:0|0:0,0:0:0:0:
420,103,75600,6,0,P|349:50|247:84,1,175,0|8,1:0|0:0,0:0:0:0:
163,193,76050,1,0,0:0:0:0:
91,40,76200,1,0,1:0:0:0:
327,155,76350,1,0,1:0:0:0:
98,254,76500,2,0,L|106:341,1,87.5,8|0,0:0|0:0,0:0:0:0:
363,332,76800,5,12,0:2:0:0:
163,193,76950,1,0,1:0:0:0:
56,374,77100,1,8,0:0:0:0:
263,263,77250,1,0,1:0:0:0:
66,125,77400,5,8,0:0:0:0:
160,318,77550,1,0,1:0:0:0:
292,83,77700,1,8,0:0:0:0:
434,295,77850,6,0,L|229:256,1,175,4|0,1:2|1:0,0:0:0:0:
66,125,78300,1,8,0:0:0:0:
12,327,78450,2,0,P|66:278|177:295,1,175,4|0,1:2|1:0,0:0:0:0:
182,303,78825,1,0,1:0:0:0:
182,303,78900,2,0,L|189:199,1,87.5,8|0,0:0|0:0,0:0:0:0:
384,26,79200,6,0,P|408:114|384:216,1,175,4|8,1:2|0:0,0:0:0:0:
331,305,79650,1,0,1:0:0:0:
107,209,79800,2,0,B|190:174|190:174|281:193,1,175,0|8,1:0|0:0,0:0:0:0:
214,384,80250,6,0,L|202:274,1,87.5,0|0,1:0|0:0,0:0:0:0:
263,104,80550,2,0,L|272:190,1,87.5,0|8,1:0|0:0,0:0:0:0:
91,331,80850,2,0,L|79:221,1,87.5,0|0,0:0|1:0,0:0:0:0:
142,89,81150,1,0,1:0:0:0:
272,190,81300,2,0,L|391:178,1,87.5,8|0,0:0|0:0,0:0:0:0:
512,85,81600,6,0,P|444:28|350:40,1,175,4|8,1:2|0:0,0:0:0:0:
208,140,82050,2,0,L|198:245,1,87.5,0|0,1:0|0:0,0:0:0:0:
186,335,82350,1,0,1:0:0:0:
86,128,82500,1,8,0:0:0:0:
11,344,82650,6,0,P|96:336|186:335,1,175,4|0,1:2|1:0,0:0:0:0:
333,362,83100,1,8,0:0:0:0:
199,227,83250,1,0,0:0:0:0:
356,97,83400,2,0,L|369:227,1,131.25,8|0,0:0|0:0,0:0:0:0:
454,207,83700,1,8,0:3:0:0:
455,208,83801,2,0,P|453:237|447:265,1,58.3333333333333,8|0,0:3|1:0,0:0:0:0:
286,245,84000,6,0,P|210:231|118:230,1,140,4|0,1:2|1:0,0:0:0:0:
47,253,84450,1,0,1:0:0:0:
178,144,84600,1,8,0:0:0:0:
32,55,84750,2,0,L|39:146,1,70,0|0,0:0|1:0,0:0:0:0:
147,228,85050,6,0,L|301:216,1,140
429,171,85500,2,0,L|335:162,1,70,0|0,1:0|0:0,0:0:0:0:
206,130,85800,2,0,L|300:121,1,70,0|0,1:0|0:0,0:0:0:0:
425,76,86100,2,0,L|331:67,1,70,0|0,1:0|0:0,0:0:0:0:
131,53,86400,6,0,P|103:130|142:225,2,175,4|0|4,1:2|0:0|0:0,0:0:0:0:
282,254,87900,5,0,0:0:0:0:
203,129,88050,1,0,0:0:0:0:
143,271,88200,2,0,L|290:252,1,140
382,237,88650,1,4,0:0:0:0:
256,192,88725,12,0,90000,0:0:0:0:
