osu file format v14

[General]
AudioFilename: audio.mp3
AudioLeadIn: 0
PreviewTime: 3757
Countdown: 0
SampleSet: Normal
StackLeniency: 0.7
Mode: 2
LetterboxInBreaks: 0
WidescreenStoryboard: 1

[Editor]
DistanceSpacing: 0.5
BeatDivisor: 6
GridSize: 32
TimelineZoom: 1.7

[Metadata]
Title:WHEY PROTEIN (RUSSIAN SONG) OFFICIAL MUSIC VIDEO HD
TitleUnicode:WHEY PROTEIN (RUSSIAN SONG) OFFICIAL MUSIC VIDEO HD
Artist:Aprojack
ArtistUnicode:Aprojack
Creator:KWYJIBO
Version:MAX FUCKING GAINS (AR0)
Source:
Tags:
BeatmapID:1717828
BeatmapSetID:818168

[Difficulty]
HPDrainRate:2
CircleSize:4.4
OverallDifficulty:9.6
ApproachRate:0
SliderMultiplier:3.5
SliderTickRate:1

[Events]
//Background and Video events
0,0,"gftghfthftrh.jpg",0,0
Video,0,"WHEY PROTEIN (RUSSIAN SONG) OFFICIAL MUSIC VIDEO HD.mp4"
//Break Periods
//Storyboard Layer 0 (Background)
//Storyboard Layer 1 (Fail)
//Storyboard Layer 2 (Pass)
//Storyboard Layer 3 (Foreground)
//Storyboard Sound Samples

[TimingPoints]
1911,461.538461538462,4,1,0,65,1,0
5603,-50,4,1,0,65,0,0
7449,-50,4,1,0,65,0,0
31834,-1000,4,1,0,65,0,0
33295,-1000,4,1,0,5,0,0
33757,-100,4,1,0,65,0,0
37449,-166.666666666667,4,1,0,65,0,0
39218,-166.666666666667,4,1,0,5,0,0
39372,-100,4,1,0,35,0,0

[HitObjects]
84,95,1911,6,0,L|226:123,11,116.666666666667
84,95,3757,1,0,0:0:0:0:
266,173,3911,1,0,0:0:0:0:
84,249,4064,1,0,0:0:0:0:
236,121,4218,1,0,0:0:0:0:
465,324,4603,5,0,0:0:0:0:
194,251,4757,1,0,0:0:0:0:
463,174,4911,1,0,0:0:0:0:
195,96,5064,1,0,0:0:0:0:
202,282,5603,6,0,L|100:98,1,175
354,194,5834,2,0,L|446:1,1,175
169,346,6064,2,0,L|88:183,1,175
374,210,6295,2,0,L|465:22,1,175
103,115,6526,1,0,0:0:0:0:
432,222,6680,1,0,0:0:0:0:
91,297,6834,1,0,0:0:0:0:
437,159,7449,6,0,L|97:111,3,233.333333333333
370,353,8372,5,0,0:0:0:0:
30,196,8526,1,0,0:0:0:0:
396,121,8680,1,0,0:0:0:0:
84,327,8834,1,0,0:0:0:0:
491,228,9295,5,0,0:0:0:0:
0,214,9757,1,0,0:0:0:0:
462,275,10218,6,0,L|323:86,1,233.333333333333
123,286,10526,2,0,L|261:85,1,233.333333333333
45,100,11141,5,0,0:0:0:0:
308,196,11295,1,0,0:0:0:0:
52,310,11449,1,0,0:0:0:0:
328,354,11603,1,0,0:0:0:0:
505,242,12064,5,0,0:0:0:0:
172,130,12218,1,0,0:0:0:0:
500,9,12372,1,0,0:0:0:0:
150,34,12526,1,0,0:0:0:0:
38,365,12987,6,0,L|217:291,1,175
18,106,13218,2,0,L|181:41,1,175
423,143,13449,2,0,L|257:211,1,175
2,261,13680,2,0,L|176:200,1,175
444,291,13987,5,0,0:0:0:0:
129,136,14141,1,0,0:0:0:0:
477,97,14295,1,0,0:0:0:0:
62,31,14834,5,0,0:0:0:0:
234,333,14987,1,0,0:0:0:0:
402,25,15141,1,0,0:0:0:0:
234,333,15295,1,0,0:0:0:0:
62,31,15834,5,0,0:0:0:0:
255,320,15987,1,0,0:0:0:0:
420,11,16141,1,0,0:0:0:0:
1,309,16295,1,0,0:0:0:0:
393,160,16987,6,0,L|369:282,1,116.666666666667
276,284,17218,1,0,0:0:0:0:
187,255,17372,1,0,0:0:0:0:
85,99,17603,1,0,0:0:0:0:
148,30,17757,2,0,B|236:-8|337:28|352:160|234:291|101:259,1,466.666666666667
314,189,18603,5,0,0:0:0:0:
197,188,18757,1,0,0:0:0:0:
313,188,18911,1,0,0:0:0:0:
196,189,19064,1,0,0:0:0:0:
371,188,19603,5,0,0:0:0:0:
137,192,19757,1,0,0:0:0:0:
371,188,19911,1,0,0:0:0:0:
137,192,20065,1,0,0:0:0:0:
32,32,20526,6,0,L|264:36,1,175
314,209,20776,2,0,L|70:199,1,175
206,39,21007,2,0,L|394:44,1,175
480,207,21237,2,0,L|297:204,1,175
111,208,21468,1,0,0:0:0:0:
305,93,21603,1,0,0:0:0:0:
52,47,21757,1,0,0:0:0:0:
150,205,22372,5,0,0:0:0:0:
447,264,22526,1,0,0:0:0:0:
148,207,22680,1,0,0:0:0:0:
444,274,22834,1,0,0:0:0:0:
38,317,23295,5,0,0:0:0:0:
357,247,23449,1,0,0:0:0:0:
44,150,23603,1,0,0:0:0:0:
357,247,23757,1,0,0:0:0:0:
91,40,24257,6,0,L|142:-3,1,58.3333333333333
476,83,24757,5,0,0:0:0:0:
229,238,25218,5,0,0:0:0:0:
75,154,25372,1,0,0:0:0:0:
330,126,25526,1,0,0:0:0:0:
109,226,25680,1,0,0:0:0:0:
398,257,26141,2,0,L|91:254,1,233.333333333333
365,91,26449,2,0,L|115:89,1,233.333333333333
341,292,27064,5,0,0:0:0:0:
94,220,27218,1,0,0:0:0:0:
326,111,27372,1,0,0:0:0:0:
80,36,27526,1,0,0:0:0:0:
462,236,28045,6,0,B|231:286,1,175
94,220,28276,2,0,L|305:176,1,175
424,73,28507,2,0,L|214:120,1,175
62,78,28738,2,0,L|252:33,1,175
399,131,28987,1,0,0:0:0:0:
114,180,29141,1,0,0:0:0:0:
395,241,29295,1,0,0:0:0:0:
84,138,29911,5,0,0:0:0:0:
501,143,30064,1,0,0:0:0:0:
80,140,30218,1,0,0:0:0:0:
501,143,30372,1,0,0:0:0:0:
10,138,30834,5,0,0:0:0:0:
501,143,30987,1,0,0:0:0:0:
10,138,31141,1,0,0:0:0:0:
501,143,31295,1,0,0:0:0:0:
261,194,31834,6,0,B|255:200|251:197|245:192|254:203|260:202|253:200|249:201|249:201|250:212|250:216|256:218|259:213|259:213|257:207|253:209|253:209|245:211|245:211|245:217|248:221|248:221|239:213|234:217|242:209|242:209|236:206|232:210|232:198|239:200|242:197|245:203|245:203|248:205|251:204,1,116.666666666667
448,81,33757,5,0,0:0:0:0:
66,349,34372,1,0,0:0:0:0:
483,141,35603,1,0,0:0:0:0:
70,218,36295,1,0,0:0:0:0:
332,203,37449,6,0,B|125:155|125:155|436:51|436:51|175:-21,1,804.99997543335
91,55,39295,1,0,0:0:0:0:
346,149,39411,1,0,0:0:0:0:
471,209,39526,1,0,0:0:0:0:
350,279,39641,1,0,0:0:0:0:
112,185,39757,1,0,0:0:0:0:
0,135,39872,1,0,0:0:0:0:
113,91,39987,1,0,0:0:0:0:
402,105,40103,1,0,0:0:0:0:
510,161,40218,1,0,0:0:0:0:
389,186,40334,1,0,0:0:0:0:
102,313,40449,1,0,0:0:0:0:
21,9,40564,1,0,0:0:0:0:
177,284,40680,1,0,0:0:0:0:
487,183,41141,5,0,0:0:0:0:
67,181,41911,1,0,0:0:0:0:
474,202,42987,1,0,0:0:0:0:
128,262,43757,1,0,0:0:0:0:
245,166,44987,5,0,0:0:0:0:
256,192,45141,12,0,47218,0:0:0:0:
