osu file format v14

[General]
AudioFilename: audio.mp3
AudioLeadIn: 0
PreviewTime: 16192
Countdown: 0
SampleSet: Normal
StackLeniency: 0.7
Mode: 0
LetterboxInBreaks: 0
EpilepsyWarning: 1
WidescreenStoryboard: 0

[Editor]
DistanceSpacing: 0.8
BeatDivisor: 4
GridSize: 16
TimelineZoom: 1

[Metadata]
Title:I Am Weasel (TV Size)
TitleUnicode:I Am Weasel (TV Size)
Artist:April March
ArtistUnicode:April March
Creator:Nitroz
Version:Insane
Source:I Am Weasel
Tags:cartoon network bill fulton cow and chicken
BeatmapID:1819159
BeatmapSetID:870531

[Difficulty]
HPDrainRate:7
CircleSize:4
OverallDifficulty:8
ApproachRate:9
SliderMultiplier:2.8
SliderTickRate:1

[Events]
//Background and Video events
0,0,"i am weasel.jpg",0,0
Video,0,"i am weasel.mp4"
//Break Periods
//Storyboard Layer 0 (Background)
//Storyboard Layer 1 (Fail)
//Storyboard Layer 2 (Pass)
//Storyboard Layer 3 (Foreground)
//Storyboard Sound Samples

[TimingPoints]
1488,336.605890603086,4,1,0,70,1,0
11552,331.491712707182,4,1,0,70,1,0
16855,-83.3333333333333,4,1,0,80,0,1
24811,340.909090909091,4,1,0,70,1,0
24811,-83.3333333333333,4,1,0,70,0,0

[HitObjects]
256,192,141,12,0,1151,0:0:0:0:
192,192,1319,5,0,0:0:0:0:
80,128,1488,2,0,P|128:80|208:64,1,140,4|0,0:0|0:0,0:0:0:0:
384,96,1824,2,0,P|336:144|256:160,1,140,8|0,0:0|0:0,0:0:0:0:
96,256,2161,2,0,B|128:336|128:336|224:272|320:352,1,280,0|8,0:0|0:0,0:0:0:0:
400,240,2666,5,0,0:0:0:0:
224,216,2834,5,4,0:0:0:0:
331,57,3002,1,0,0:0:0:0:
144,32,3171,1,8,0:0:0:0:
288,144,3339,2,0,P|288:272|160:288,1,280
320,352,3844,2,0,P|368:304|384:176,1,140,8|0,0:0|0:0,0:0:0:0:
272,64,4180,6,0,P|320:32|416:32,1,140,4|0,0:0|0:0,0:0:0:0:
256,144,4517,2,0,P|230:92|128:80,1,140,8|0,0:0|0:0,0:0:0:0:
48,240,4854,1,0,0:0:0:0:
224,320,5022,1,0,0:0:0:0:
176,144,5190,2,0,P|192:80|288:48,1,140,8|0,0:0|0:0,0:0:0:0:
400,128,5527,2,0,B|368:208|368:208|336:128|304:208|304:208|272:128,1,280,4|8,0:0|0:0,0:0:0:0:
112,240,6032,2,0,B|144:320|144:320|176:240|208:320|208:320|240:240,1,280
64,128,6537,1,8,0:0:0:0:
240,48,6705,1,0,0:0:0:0:
368,192,6873,6,0,P|416:208|416:288,1,140,4|0,0:0|0:0,0:0:0:0:
256,240,7210,2,0,P|208:224|208:128,1,140,8|0,0:0|0:0,0:0:0:0:
72,232,7546,2,0,P|160:336|320:312,1,280,0|8,0:0|0:0,0:0:0:0:
224,192,8051,1,0,0:0:0:0:
64,128,8220,5,4,0:0:0:0:
336,128,8388,1,0,0:0:0:0:
160,32,8556,1,8,0:0:0:0:
448,224,8725,2,0,P|432:80|320:0,1,280
144,64,9229,1,8,0:0:0:0:
320,160,9398,1,0,0:0:0:0:
80,240,9566,1,4,0:0:0:0:
320,336,10239,6,0,P|368:288|368:208,1,140
192,336,10576,2,0,P|144:288|144:208,1,140
301,196,10912,6,0,B|288:224|288:224|256:188|224:224|224:224|208:192,1,140,4|8,0:0|0:0,0:0:0:0:
256,64,11552,5,4,0:0:0:0:
448,128,11772,1,0,0:0:0:0:
448,128,11883,2,8,P|435:215|355:259,1,186.666666666667,8|0,0:0|0:0,0:0:0:0:
224,240,12214,1,0,0:0:0:0:
240,208,12325,1,0,0:0:0:0:
256,176,12435,1,0,0:0:0:0:
256,176,12546,2,8,P|160:176|104:248,1,186.666666666667,8|0,0:0|0:0,0:0:0:0:
256,320,12878,5,4,0:0:0:0:
448,256,13098,1,0,0:0:0:0:
448,256,13209,2,8,P|435:168|355:124,1,186.666666666667,8|0,0:0|0:0,0:0:0:0:
224,144,13540,1,0,0:0:0:0:
240,176,13651,1,0,0:0:0:0:
256,208,13761,1,0,0:0:0:0:
256,208,13872,2,8,P|160:208|104:136,1,186.666666666667,8|0,0:0|0:0,0:0:0:0:
384,64,14203,6,0,P|256:16|128:64,1,280,4|8,0:0|0:0,0:0:0:0:
369,191,14701,1,0,0:0:0:0:
144,192,14866,1,0,0:0:0:0:
336,336,15032,1,0,0:0:0:0:
256,112,15198,1,8,0:0:0:0:
176,336,15364,1,0,0:0:0:0:
384,64,15529,6,0,B|320:64|320:64|256:0|192:64|192:64|112:64,1,280,4|8,0:0|0:0,0:0:0:0:
128,255,16027,2,0,B|192:255|192:255|256:319|320:255|320:255|400:255,1,280,4|0,0:0|0:0,0:0:0:0:
336,64,16524,1,8,0:0:0:0:
176,64,16690,1,0,0:0:0:0:
64,224,16855,6,0,P|96:320|160:320,1,167.999994873047,4|0,0:0|0:0,0:0:0:0:
224,128,17187,2,0,P|147:149|137:228,1,167.999994873047,8|0,0:0|0:0,0:0:0:0:
448,224,17518,2,0,P|416:320|352:320,1,167.999994873047
288,128,17850,2,0,P|364:149|374:228,1,167.999994873047,8|0,0:0|0:0,0:0:0:0:
256,48,18181,5,4,0:0:0:0:
256,240,18347,1,0,0:0:0:0:
256,144,18513,1,8,0:0:0:0:
256,336,18679,1,4,0:0:0:0:
128,192,19010,5,4,0:0:0:0:
112,160,19093,1,0,0:0:0:0:
144,160,19176,1,8,0:0:0:0:
256,320,19342,1,0,0:0:0:0:
448,160,19507,6,0,P|416:64|352:64,1,167.999994873047,4|0,0:0|0:0,0:0:0:0:
288,256,19839,2,0,P|364:234|374:155,1,167.999994873047,8|0,0:0|0:0,0:0:0:0:
64,160,20170,2,0,P|96:64|160:64,1,167.999994873047
224,256,20502,2,0,P|147:234|137:155,1,167.999994873047,8|0,0:0|0:0,0:0:0:0:
384,128,20833,5,4,0:0:0:0:
128,128,20999,1,0,0:0:0:0:
400,320,21165,1,8,0:0:0:0:
112,320,21331,1,4,0:0:0:0:
384,192,21662,5,4,0:0:0:0:
400,160,21745,1,0,0:0:0:0:
368,160,21828,1,8,0:0:0:0:
256,320,21993,1,0,0:0:0:0:
160,208,22159,6,0,P|96:192|32:272,1,167.999994873047,4|0,0:0|0:0,0:0:0:0:
352,208,22491,2,0,P|416:192|480:272,1,167.999994873047,8|0,0:0|0:0,0:0:0:0:
176,112,22822,2,0,P|128:80|16:80,1,167.999994873047
336,112,23154,2,0,P|384:80|496:80,1,167.999994873047,8|0,0:0|0:0,0:0:0:0:
256,240,23485,5,4,0:0:0:0:
176,112,23651,1,0,0:0:0:0:
336,112,23817,1,8,0:0:0:0:
496,288,23982,2,0,B|416:320|416:320|352:304|352:304|256:368|160:304|160:304|96:320|96:320|16:288,1,503.999984619141,4|8,0:0|0:0,0:0:0:0:
256,16,24811,5,4,0:0:0:0:
48,192,25151,2,0,B|96:176|96:176|160:208|160:208|224:192,1,167.999994873047,8|0,0:0|0:0,0:0:0:0:
400,128,25492,1,0,0:0:0:0:
400,256,25663,1,0,0:0:0:0:
256,16,26174,5,4,0:0:0:0:
464,192,26515,2,0,B|416:176|416:176|352:208|352:208|288:192,1,167.999994873047,8|0,0:0|0:0,0:0:0:0:
112,128,26856,1,0,0:0:0:0:
112,256,27026,1,0,0:0:0:0:
256,192,27538,5,4,0:0:0:0:
256,192,27708,12,0,30265,0:0:0:0:
